#TITLE:diagram;
#SUBTITLE:;
#ARTIST:Expander;
#TITLETRANSLIT:;
#SUBTITLETRANSLIT:;
#ARTISTTRANSLIT:;
#CREDIT:;
#BANNER:;
#BACKGROUND:;
#LYRICSPATH:;
#CDTITLE:;
#MUSIC:diagram.mp3;
#OFFSET:-8.590;
#SAMPLESTART:79.300;
#SAMPLELENGTH:17.140;
#SELECTABLE:YES;
#BPMS:0.000=112.000,164.000=224.000;
#STOPS:;
#BGCHANGES:;

//---------------dance-single - ----------------
#NOTES:
     dance-single:
     :
     Hard:
     9:
     0.706,0.795,0.443,0.213,0.680:
1000
0000
0000
0001
0000
0000
0100
0000
0001
0100
0000
0000
0001
0000
0000
1000
0000
0200
0000
0000
0000
1300
0000
0000
,
0001
0000
0000
0001
0000
0000
1000
0000
0000
1000
0000
0000
0001
0000
0100
0001
0000
0000
1000
0000
0100
1000
0000
0000
,
0001
0000
0100
0010
0000
0100
0010
0000
1000
0001
0000
1000
0001
0000
0000
0000
0000
0220
0000
0000
0000
0330
0000
0000
,
0010
0000
1000
0001
0000
0000
1000
0000
0000
0100
0000
0000
0010
0000
0001
1000
0000
0000
0001
0000
0100
0010
0000
0100
,
0020
0100
2000
3030
,
0010
2000
3001
0010
0100
0000
0110
0000
,
0011
0000
0000
0000
0000
0000
1000
0000
0001
1000
0000
0000
0101
0000
0000
0000
0000
0000
1100
0000
0000
0011
0000
0000
,
1000
0000
0000
0010
0000
0000
0010
0000
0000
0010
0000
0000
0100
0000
0000
0000
0101
0000
0000
0000
0000
1001
0000
0000
,
1000
0000
0000
0001
0000
0010
0001
0000
0010
0001
0000
0000
1000
0000
0100
0010
0000
0100
0010
0000
0001
1000
0000
0000
,
0001
0000
0000
0100
0000
0100
0001
0000
1000
0001
0000
0000
0100
0000
0000
0010
0000
0000
1001
0000
0000
0110
0000
0000
,
1001
0000
0000
0000
0000
0000
0000
1000
0001
1000
0000
0000
0110
0000
0000
0000
0000
0000
0011
0000
0000
0101
0000
0000
,
0010
0000
1000
0100
0000
1000
0100
0000
0010
0001
0000
1000
0001
0000
0000
0000
0000
0001
0100
0000
0000
0001
0000
0000
,
1000
0000
0000
0001
0100
0001
0100
0000
0000
0010
1000
0010
1000
0000
0000
0001
1000
0001
1000
0000
0000
0020
0000
0000
,
1000
1000
2000
3030
,
0010
1000
1100
0100
0010
0001
0011
0000
,
0010
0000
0000
0000
0000
0000
0001
0000
0000
0010
0000
0000
0001
0000
0000
0000
0000
0000
1000
0000
0000
0100
0000
0000
1000
0000
0000
0000
0000
0000
0001
0000
0000
0000
0000
0000
0100
0000
0000
0000
0001
0000
1000
0000
0000
0000
0000
0000
,
0100
0000
0000
1000
0000
0000
1010
0000
0000
0010
0000
0000
0100
0000
0000
0001
0000
0100
0000
0000
0000
1001
0000
0000
,
1000
0000
1000
0100
0000
0100
0010
0000
0010
0001
0000
0000
1000
0000
0000
0010
0000
0000
0101
0000
0000
1001
0000
0000
,
2100
0000
0000
3200
0000
0000
0000
0000
2300
0000
0000
0000
0020
0000
0000
3030
0000
0000
0101
0000
0000
0001
0000
0010
,
0001
0000
0000
1000
0000
0000
0100
0000
0010
0001
0000
0000
0010
0000
0000
0011
0000
0000
0001
0000
0000
1001
0000
0000
,
1000
0000
0000
0100
0000
0000
0001
0000
0000
0100
0000
0000
1000
0000
0001
0000
0100
0000
0001
0000
0000
0010
0000
0000
,
0001
0000
0000
1000
0001
1000
0001
0000
0000
0100
0010
0100
0010
0000
0000
1000
0010
1000
0010
0000
0000
0101
0000
0000
,
1000
0000
0100
0010
0000
0002
0000
0000
0103
0010
0000
2000
0000
0000
3001
0010
0000
0002
0000
0000
1003
0100
0000
1000
,
0001
0000
0100
0000
0001
1000
1100
0000
,
0001
0000
0010
0001
0000
0020
0000
0000
0031
0100
0000
0002
0000
0000
0103
0010
0000
0100
0010
0000
1000
0001
0000
1000
,
0100
0000
0000
0000
0000
0000
1000
0000
0000
0000
0000
0000
0100
0000
0000
0010
0000
0001
0010
0000
0000
0001
0000
0000
,
1000
0000
0010
1000
0000
0020
0000
0000
0130
0001
0000
0001
1000
0000
0100
0010
0000
0010
0100
0000
0000
0010
0000
0000
,
0001
0001
1100
1100
1000
0001
1001
0110
,
1000
0000
0100
1000
0000
0100
1000
0000
0001
0100
0000
0001
0100
0000
0001
0010
0000
0001
0010
0000
0100
0010
0000
0100
,
0010
0001
1100
1001
0001
0100
0110
0110
,
1001
0000
0000
0000
0000
0000
0110
0000
0000
0000
0000
0000
1000
0000
0000
0000
0000
0100
0010
0000
0000
0000
0000
0000
,
0001
0000
0000
0000
0000
0000
0110
0000
0000
0000
0000
0000
1000
0000
0000
0000
0000
0000
0001
0000
1000
0001
0000
1000
,
0002
0000
2000
0000
3003
0000
0100
0100
,
1001
0000
0001
0100
0000
0000
0001
0000
0000
0100
0000
0000
0001
0000
0001
1000
0000
0000
0100
0000
0010
0100
0000
0000
,
0010
0000
0010
0001
0000
0000
1000
0000
0000
0001
0000
0000
1000
0000
1000
0010
0000
0000
0100
0000
0010
0100
0000
0000
,
0001
0000
0001
0100
0000
0000
1000
0000
0000
0100
0000
0000
0010
0000
0010
1000
0000
1000
0001
0000
0000
0010
0000
0000
,
0001
0000
0001
1000
0000
0000
0100
0000
0000
0020
0000
0000
0130
0000
0000
0001
0000
0000
0100
0000
0000
0010
0000
0000
,
0001
0000
0001
1000
0000
0000
0010
0000
0000
0001
0000
0000
0010
0000
0100
0010
0000
0000
1000
0000
0001
1000
0000
0000
,
0001
0000
0001
0010
0000
0000
0100
0000
0100
0010
0000
0000
0001
0000
0000
1000
0000
0000
1010
0000
0000
0010
0000
0000
,
0100
0000
0000
0001
0000
0000
1000
0000
0001
0100
0000
0000
1000
0000
0001
0010
0000
0000
1100
0000
0000
1001
0000
0000
,
0001
0000
0001
0100
0000
0000
0001
0000
0001
1000
0000
0000
1000
0000
0000
0100
0000
0000
2002
0000
0000
3003
0000
0000
,
1000
0100
1000
0100
0000
0000
1000
0000
0000
0001
0000
0000
,
0100
0010
0100
0001
0000
0000
1000
0000
0001
0010
0000
0000
,
0100
0010
0100
0010
0000
0000
0001
0000
0000
1000
0000
0000
,
0001
0100
0010
0100
0000
0000
0001
0010
0100
0010
0000
0000
,
0001
1000
0001
1000
0000
0000
0100
0000
0000
0010
0000
0000
,
0001
0010
0001
0010
0001
0010
0001
0000
1000
0000
0010
0000
,
0100
0010
0100
0001
0000
0000
1000
0000
0000
0100
0000
0000
,
0010
0100
0010
0001
0000
0000
1000
0001
1000
0001
0000
0001
,
1000
0100
0010
0001
0000
0000
0100
0000
0000
0001
0000
0000
,
1000
0010
0100
0001
0000
0000
1000
0000
0010
1000
0000
0000
,
0001
0100
0001
0010
0000
0000
0001
0000
0000
1000
0000
0000
,
0100
0010
0100
0010
0000
0000
1001
0000
0000
1000
0000
0000
,
0100
0000
0000
0011
0000
0000
0100
0010
0100
0010
0000
0000
,
0001
1000
0001
1000
0000
0000
0001
0000
0100
0010
0100
0010
,
1000
0101
1000
0011
,
0100
1001
0220
0330
,
1000
0000
0001
0100
0000
0100
0001
0000
0001
1000
0000
1000
,
0100
0000
0000
0000
0000
0110
0000
0000
0000
1001
0000
0000
,
0001
1010
1000
0011
,
1000
0100
0010
0001
0000
0100
0000
0000
0001
1000
0000
0000
,
0001
0000
0010
0001
0000
0001
0100
0000
0100
0010
0000
0010
,
0100
0000
0000
0000
0000
0110
0000
0000
0000
1001
0000
0000
,
1000
0000
0000
0001
1000
0001
1000
0000
0000
0001
0100
0001
,
0100
0000
0000
0010
1000
0010
1000
0000
0000
0001
1000
0001
,
1000
0000
0000
0001
0000
0000
1000
0000
0010
0000
0100
0000
,
0001
0110
2002
0000
,
3003
0000
0000
0000
;

//---------------dance-single - ----------------
#NOTES:
     dance-single:
     :
     Challenge:
     10:
     0.845,0.980,0.546,0.261,1.000: // measure 1
1000
0000
0000
0010
0000
0000
0100
0000
0010
0100
0000
0010
1000
0000
0000
0001
0000
0010
0000
0000
0010
0001
0000
0000
,  // measure 2
1000
0000
0000
0000
0000
0000
0000
0000
0000
0000
0000
0000
0000
0000
0000
0000
0000
0000
0000
0000
0000
0000
0000
0000
0100
0000
0000
0000
0000
0000
0000
0000
0000
0000
0000
0000
0000
0000
0000
0000
0000
0000
0000
0000
0000
0000
0000
0000
0010
0000
0000
0000
0000
0000
0000
0000
0000
0000
0000
0000
0001
0000
0000
0000
0000
0000
1000
0000
0000
0000
0000
0000
0001
0000
0000
0000
0000
0000
0000
0000
0000
0000
0000
0000
0000
0000
0000
0000
0000
0000
0000
0000
0000
0000
0000
0000
0100
0000
0000
0000
0000
0000
0000
0000
0000
0000
0000
0000
0000
0000
0000
0000
0010
0000
0000
0000
0000
0000
0000
0000
0100
0000
0000
0000
0000
0000
0000
0000
0000
0000
0000
0000
0000
0000
0000
0000
0010
0000
0000
0000
0000
0000
0000
0000
1000
0000
0000
0000
0000
0000
0000
0000
0000
0000
0000
0000
0000
0000
0000
0000
0001
0000
0000
0000
0000
0000
0000
0000
1000
0000
0000
0000
0000
0000
0000
0000
0000
0000
0000
0000
0000
0000
0000
0000
0100
0000
0000
0000
0000
0000
0000
0000
,  // measure 3
0010
0000
0001
0100
0000
0001
0010
0000
0100
1000
0000
0010
1000
0000
0000
0000
0000
0202
0000
0000
0000
0303
0000
0000
,  // measure 4
0001
0000
0100
1000
0000
0000
0110
0000
0000
0101
0000
0000
0001
0000
0010
1000
0000
0000
0010
0000
0001
0010
0000
0001
,  // measure 5
2000
0010
0002
3003
,  // measure 6
0001
0000
0000
0001
0100
0010
1000
0000
0000
0100
0000
0000
1100
0000
0000
0000
0000
0000
1001
0000
0000
0000
0000
0000
,  // measure 7
1000
0000
0001
0010
0000
0000
0001
0000
1000
0010
0000
0000
0100
0000
0000
0001
0000
0000
0011
0000
0000
1100
0000
0000
,  // measure 8
1000
0000
0000
0101
0000
0000
0101
0000
0000
0101
0000
0000
1001
0000
0000
1000
0000
0100
1000
0000
0000
0001
0000
0000
,  // measure 9
0100
0000
0000
0001
0100
0001
0100
0000
0010
1000
0000
0000
0001
0010
0001
0010
0000
0001
1000
0001
1000
0001
0000
1000
,  // measure 10
0100
0000
0000
1000
0100
0010
0001
0000
0010
0001
0000
1000
0001
0000
0000
0100
0000
0000
1010
0000
0000
0101
0000
0000
,  // measure 11
2002
0000
0000
0000
0000
0000
0000
0000
3003
0000
0001
1000
0001
0000
0000
0000
0220
0000
0000
0000
0330
0000
0000
0000
1010
0000
0000
0000
0101
0000
0000
0000
,  // measure 12
1001
0000
0000
0001
0010
0001
0100
0000
0010
0100
0000
0100
0001
0000
0000
0000
0000
1000
0100
0000
0000
1000
0000
0000
,  // measure 13
0001
0000
0001
1000
0100
1000
0100
0000
0100
0010
0100
0010
0001
0000
0001
0100
0001
0100
0010
0000
0010
1000
0010
1000
,  // measure 14
0002
2003
3200
0310
,  // measure 15
0001
0100
1010
0100
0001
1000
2100
0000
,  // measure 16
3020
0000
0000
0000
0000
0000
1000
0000
0000
0001
0000
0000
0000
0000
0000
0000
0000
0000
0001
0000
0000
1000
0000
0000
0030
0000
0000
0000
0000
0000
1000
0000
0000
0000
0000
0000
0001
0000
0100
0000
0001
0000
0100
0000
0001
0000
0100
0000
,  // measure 17
0001
0000
0000
1000
0000
0000
1100
0000
0000
1000
0000
0000
0001
0000
0000
0100
0000
0110
0000
0000
0000
1001
0000
0000
,  // measure 18
1000
0000
0100
0010
0000
0100
1000
0000
0100
0010
0000
0000
0001
0000
0000
0100
0000
0000
0110
0000
0000
0101
0000
0000
,  // measure 19
2000
0000
0000
3020
0000
0000
0000
0000
0230
0000
0000
0000
0301
0100
0001
0100
0001
0100
0001
0000
0000
0100
0000
0000
,  // measure 20
0010
0000
0000
0000
1000
0000
0000
0000
0001
0000
1000
0001
1000
0000
0000
0000
0001
0000
0000
0000
0101
0000
0000
0000
1000
0000
0000
0000
1100
0000
0000
0000
,  // measure 21
0001
0000
0000
0100
0000
0000
1010
0000
0000
1000
0000
0000
0100
0000
0010
0000
0001
0000
0011
0000
0000
0100
0000
0000
,  // measure 22
0100
0000
0000
1000
0010
1000
0001
0000
0000
0001
0010
0001
1000
0000
0000
1000
0100
0010
0001
0000
0000
1100
0000
0000
,  // measure 23
0001
0000
0010
0001
0000
0200
0000
0000
0310
1000
0000
0200
0000
0000
0310
0001
0010
0002
0000
0000
1003
0010
1000
0010
,  // measure 24
0100
0000
1001
0000
0010
0100
1001
0000
,  // measure 25
0001
0000
1000
0100
0000
0020
0000
0000
0130
1000
0000
0002
0000
0000
0103
0001
0100
0001
1000
0010
1000
0010
1000
0010
,  // measure 26
0100
0000
0000
0000
0000
0000
1001
0000
0000
0000
0000
0000
0100
0000
0000
0010
0000
0001
0100
0000
0001
0100
0000
0000
,  // measure 27
0010
0000
1000
0100
0000
2000
0000
0000
3001
0100
0001
0100
0010
0000
1000
0010
0000
0100
0001
0010
0100
1000
0000
0000
,  // measure 28
0001
0000
0010
0000
0001
0000
0010
0000
0001
0000
0010
0000
0002
0000
0000
0003
0000
0000
0002
0000
0000
0003
0000
0000
1000
0000
0000
0000
0000
0000
0000
0000
0000
0000
0000
0000
1010
0000
0000
0000
0000
0000
1000
0000
0000
0000
0000
0000
,  // measure 29
0001
0000
0100
0010
0100
0010
1000
0000
0100
0010
0100
0010
0001
0000
0100
0010
1000
0100
0010
0000
0001
0100
0010
1000
,  // measure 30
0100
1000
0100
1000
0000
0000
0011
0000
0000
0101
0000
0000
1000
0000
0001
0100
0000
0000
0110
0000
0000
1001
0000
0000
,  // measure 31
0110
0000
0010
1000
0000
0000
1001
0000
0000
0000
0000
0000
0001
0000
0000
0010
0000
0001
1000
0000
0000
0001
0000
0000
,  // measure 32
1000
0000
0000
0010
0100
0010
0100
0000
0000
0001
0000
0010
0001
0000
0000
1000
0000
0100
1000
0000
0001
1000
0000
0001
,  // measure 33
0200
0000
0000
0000
0000
0000
0001
0000
0000
0301
0000
0000
0001
1000
0001
1000
0001
1000
0100
0000
0000
0010
0000
0000
,  // measure 34
0001
0100
0001
0100
0000
0000
0010
0000
0000
1000
0000
0000
0100
0010
0100
0010
0000
0000
0001
1000
0001
1000
0000
0000
,  // measure 35
0001
0100
0001
0100
0000
0000
0010
0000
0000
1000
0000
0000
0100
0010
0100
0010
0000
0000
0001
0010
0001
0010
0000
0000
,  // measure 36
0001
1000
0100
1000
0000
0000
0001
0000
0000
0100
0000
0000
0010
1000
0010
1000
0001
0100
0001
0000
0000
0100
0000
0000
,  // measure 37
0010
1000
0001
1000
0000
0000
0001
0000
0000
0010
0001
0100
0010
0000
0000
0100
0000
0000
0010
0000
0000
0100
0000
0010
,  // measure 38
1000
0010
1000
0001
0000
0000
0010
0000
0000
0001
0000
0000
0100
0001
1000
0001
0000
0000
1000
0000
0100
0010
0000
0000
,  // measure 39
0001
0000
0000
0000
0000
0000
0000
0000
0100
0000
0000
0000
0000
0000
0000
0000
0010
0000
0000
0000
0000
0000
0000
0000
1000
0000
0000
0000
0000
0000
0000
0000
0000
0000
0000
0000
0000
0000
0000
0000
0000
0000
0000
0000
0000
0000
0000
0000
0010
0000
0000
0000
0000
0000
0000
0000
0000
0000
0000
0000
0100
0000
0000
0000
0000
0000
0010
0000
0000
0000
0000
0000
0100
0000
0000
0000
0000
0000
0000
0000
0000
0000
0000
0000
0000
0000
0000
0000
0000
0000
0000
0000
0000
0000
0000
0000
0010
0000
0000
0000
0000
0000
0000
0000
1000
0000
0000
0000
0000
0000
0000
0000
0010
0000
0000
0000
0000
0000
0000
0000
0100
0000
0000
0000
0000
0000
0000
0000
0000
0000
0000
0000
0000
0000
0000
0000
0000
0000
0000
0000
0000
0000
0000
0000
0101
0000
0000
0000
0000
0000
0000
0000
0000
0000
0000
0000
0000
0000
0000
0000
0000
0000
0000
0000
0000
0000
0000
0000
0001
0000
0000
0000
0000
0000
0000
0000
0000
0000
0000
0000
0000
0000
0000
0000
0000
0000
0000
0000
0000
0000
0000
0000
,  // measure 40
1000
0000
0000
0100
0000
0000
0010
0001
0010
0100
0000
0000
1000
0010
0100
0010
0000
0000
1000
0001
1000
0001
1000
0010
,  // measure 41
0100
0000
0001
0000
1100
0110
2002
3003
,  // measure 42
1000
0100
1000
0100
0000
1000
0001
0000
0000
0101
0000
0000
,  // measure 43
0100
0010
0100
0010
0000
0000
1000
0000
0001
0100
0000
0000
,  // measure 44
0001
0010
0100
0010
0000
0000
0001
0000
1000
0010
0000
0000
,  // measure 45
1000
0010
0100
0001
0000
0000
2010
0000
0000
3001
0000
0000
,  // measure 46
0001
0100
0010
1000
0000
0000
0100
0000
0000
0010
0000
0000
,  // measure 47
0100
0010
0100
0010
0001
1000
0001
0000
0100
0000
0001
0000
,  // measure 48
1000
0100
1000
0100
0010
0001
0010
0000
0000
0001
0000
0000
,  // measure 49
1000
0010
1000
0010
0100
0001
1000
0001
1000
0100
0000
0100
,  // measure 50
0010
0001
0010
0001
0000
0000
1001
0000
0000
0101
0000
0000
,  // measure 51
0010
1000
0100
1000
0000
0000
0001
0000
0100
0101
0000
0000
,  // measure 52
0010
1000
0100
0010
0000
0000
0100
0000
0010
0100
0000
0000
,  // measure 53
0010
0001
1000
0001
0000
0000
0102
0000
0000
1003
0000
0000
,  // measure 54
1000
0000
0000
0001
0000
0100
0001
1000
0001
0100
0000
0000
,  // measure 55
0001
1000
0100
1000
0000
0000
1001
0000
0001
0100
0010
1000
,  // measure 56
0100
1100
0010
0101
,  // measure 57
1001
0110
2002
3003
,  // measure 58
0001
0000
0100
0001
0000
0100
0010
0000
1000
0001
0000
0010
,  // measure 59
0100
0000
0000
0010
0000
0110
0000
0000
0000
1001
0000
0000
,  // measure 60
0010
1001
0100
1001
,  // measure 61
1000
0100
0010
0001
0000
0100
0000
0000
0100
0101
0000
0000
,  // measure 62
0001
0000
1000
0100
0000
0100
1000
0000
0001
0100
0000
0100
,  // measure 63
0001
0000
0000
1000
0000
1100
0000
0000
0000
1001
0000
0000
,  // measure 64
0001
0000
0001
0100
0010
0100
0001
0000
0001
0010
0100
0010
,  // measure 65
0001
0000
0001
1000
0010
1000
0001
0000
0001
1000
0100
1000
,  // measure 66
0001
0100
0010
1000
0000
0000
1100
0000
0110
0000
0011
0000
,  // measure 67
1001
0110
2002
0000
,  // measure 68
3003
0000
0000
0000
;

//---------------dance-single - ----------------
#NOTES:
     dance-single:
     :
     Medium:
     7:
     0.495,0.503,0.245,0.269,0.134:
0001
0100
0010
1000
0100
0000
0011
0000
,
0001
0001
1000
1000
0200
0000
0310
0000
,
0010
0000
0000
0001
0000
0000
1000
0000
0000
0000
0000
0000
0001
0000
0000
0000
0000
0101
0000
0000
0000
0000
0000
0000
,
0100
0100
0010
0010
1000
1000
0001
1000
,
0200
0001
0020
0330
,
0010
0001
1000
0001
0100
0000
0101
0000
,
0010
1000
0100
0000
0010
0001
0100
0100
,
0010
0000
0000
1000
0000
0000
1000
0000
0000
1000
0000
0000
0100
0000
0000
0010
0000
0001
0000
0000
0000
0010
0000
0000
,
0001
0100
0010
0010
1000
0100
0010
0001
,
1000
1000
0001
0100
0020
0000
1030
0001
,
0202
0000
0303
0000
2100
0000
0001
3001
,
1000
0000
0000
0100
0000
0000
0010
0000
0000
0001
0000
0000
0101
0000
0000
0000
0000
0001
0100
0000
0000
0010
0000
0000
,
1000
1000
0001
0001
0010
0100
0010
0001
,
2000
3002
0200
0303
,
0001
1000
0100
0010
0100
0000
1001
0000
,
0001
0100
0100
0010
0010
1000
0001
0000
,
1000
0000
0000
0100
0000
0000
1000
0000
0000
0002
0000
0000
0100
0000
0000
0000
0000
0100
0000
0000
0000
0103
0000
0000
,
0001
0010
0100
0100
0010
0001
1000
0001
,
1000
0000
0000
0002
0000
0000
0000
0000
0203
0000
0000
0000
0320
0000
0000
0000
0000
0000
1000
0000
0000
1000
0000
0000
,
1030
0001
0200
0310
0100
0100
0010
0010
,
1000
0000
0000
0101
0000
0000
0001
1000
0001
1000
0000
0000
,
0001
0001
1000
1000
0001
1000
0001
1000
,
0010
0100
0001
0010
0100
0000
0110
0000
,
0010
1001
0100
1001
,
0001
0000
0000
0100
0000
0000
0010
0000
0000
1000
0000
0000
0100
0000
0000
0000
0000
1100
0000
0000
0000
1000
0000
0000
,
0001
0000
0000
0000
0000
0000
1010
0000
0000
0000
0000
0000
0001
0000
0000
1000
0000
0001
0000
0000
0000
1001
0000
0000
,
1000
0000
0000
0010
0000
0000
0100
0000
0000
0010
0000
0000
1000
0000
0000
0000
0000
0001
0000
0000
0000
1000
0000
0000
,
0100
0010
0100
0010
0001
0000
1001
0000
,
1000
0010
0100
0010
1000
0100
0010
0100
,
1000
1000
0002
0000
0013
0010
0001
0100
,
0101
0000
1010
0000
1000
0001
1000
0000
,
0001
0000
0011
0000
1000
0100
0010
0001
,
0200
0000
0020
0330
,
0010
0010
1000
0000
0001
1000
0100
0100
,
0010
0000
0011
0000
0001
0100
0010
1000
,
0001
0000
0000
0001
0000
0000
1000
0000
0000
0000
0000
0000
0100
0000
0000
0000
0000
0010
0001
0000
0000
1000
0000
0000
,
0010
0100
0010
0000
1000
0001
1001
0000
,
0001
0010
0100
0010
0001
0100
0010
0010
,
2000
0000
3010
0100
0002
0000
0013
0001
,
1000
0000
0000
0100
0000
0000
0001
0000
0000
0100
0000
0000
1000
0000
0000
0001
0000
1000
0002
0000
0000
0000
0000
0000
,
0103
0000
0010
0000
1000
0001
2002
3003
,
1000
0100
1000
0001
,
0100
0000
0000
0010
0000
0000
0100
0000
0010
0100
0000
0000
,
0010
1000
0001
0010
,
0100
0010
2002
3003
,
1000
0000
0000
0001
0000
0100
0001
0000
0000
1000
0000
0000
,
0100
0000
0000
0010
0000
0000
0001
0000
1000
0000
0001
0000
,
1000
0100
1000
0001
,
0100
0000
0000
0010
0000
0000
0100
0000
0001
0100
0000
0001
,
0100
0001
1000
0100
,
0010
0000
0000
0001
0000
0000
1000
0000
0001
1000
0000
0000
,
0202
0303
0010
1000
,
0100
0010
0220
0330
,
0010
0000
0000
0001
0000
0000
1000
0000
0001
1000
0000
0000
,
0001
0000
0000
1000
0000
0000
0100
0000
1000
0001
0000
1000
,
0001
0100
0020
0030
,
0100
0010
2002
3003
,
1000
0000
0100
1000
0000
0000
0001
0000
0010
0001
0000
0000
,
1000
0000
0000
0000
0000
0101
0000
0000
0000
1001
0000
0000
,
1000
0010
0100
0000
,
0001
0010
0100
0010
,
0001
0000
0100
0001
0000
0000
1000
0000
0010
1000
0000
0000
,
0101
0000
0000
0000
0000
1001
0000
0000
0000
1100
0000
0000
,
1000
0000
0100
1000
0000
0000
0100
0000
0010
0100
0000
0000
,
0010
0000
0001
0010
0000
0000
0001
0000
1000
0001
0000
0000
,
1000
0000
0000
0001
0000
0000
0100
0000
0010
0000
0100
0000
,
0010
0100
2002
0000
,
3003
0000
0000
0000
;

//---------------dance-single - ----------------
#NOTES:
     dance-single:
     :
     Easy:
     5:
     0.286,0.318,0.126,0.166,0.000:
1000
0100
1000
0001
,
0100
0010
0100
0000
,
0001
0100
0101
0000
,
0001
0001
1000
1000
,
2002
0000
0000
3003
,
0001
0100
0010
0000
,
1000
0001
1000
0100
,
0010
0100
0010
0000
,
0001
0010
0001
1000
,
0001
0001
1001
0000
,
1001
0000
0110
0000
,
0001
1000
0200
0300
,
0001
1000
0001
1000
,
2002
0000
0000
3003
,
0001
0100
0001
0000
,
1000
0100
1000
0100
,
0001
0100
1000
0000
,
0001
0010
0100
0010
,
0001
0001
0100
0000
,
0010
1000
0001
0001
,
1000
0100
0010
0000
,
0100
0010
0001
1000
,
0001
0001
0100
0010
,
2000
0010
0002
3003
,
1000
1000
0010
0100
,
0002
0010
2000
3003
,
1000
0100
0010
0001
,
0200
0010
0002
0303
,
0001
0010
0100
0010
,
0002
1000
0200
0303
,
1001
1000
0100
1000
,
0001
0100
0010
0100
,
0020
0000
0000
0030
,
1001
0100
0010
1000
,
0100
0100
0010
0001
,
1001
0100
0001
1000
,
0110
0001
0100
0010
,
1001
1000
0100
0010
,
0220
0000
0000
0330
0010
0000
0001
0000
,
1000
0001
0200
0310
,
0100
0010
2002
3003
,
1000
0000
0100
0000
,
1000
0001
1000
0001
,
0100
0000
0010
0000
,
0100
0010
0100
0000
,
0001
0100
0001
0000
,
1000
0100
0010
0001
,
0100
0000
0001
0000
,
1000
0001
1000
0000
,
0001
0001
0100
0010
,
0100
0000
0010
0010
,
1000
0000
0001
0000
,
1000
0100
1000
0000
,
0001
0010
0100
0000
,
0010
0001
1000
0001
,
0100
0000
0010
0000
,
1001
0000
0110
0000
,
0010
1000
0010
1000
,
0001
0000
0100
0000
,
0001
0010
0001
0010
,
0100
0000
0010
0000
,
0001
1000
0001
1000
,
0010
0000
0100
0000
,
0010
1000
0100
0010
,
0001
0100
0010
1000
,
0001
1000
0001
0001
,
1000
0001
2002
0000
,
3003
0000
0000
0000
;

//---------------dance-single - ----------------
#NOTES:
     dance-single:
     :
     Beginner:
     2:
     0.142,0.184,0.071,0.000,0.000:
1000
0000
0100
0000
,
0010
0000
0001
0000
,
1000
0000
0001
0000
,
0100
0000
0010
0010
,
0010
0000
0000
0000
,
1001
0000
0000
0000
,
1000
0000
0001
0000
,
0100
0000
0000
0000
,
0010
0000
0100
0000
,
0010
0000
0010
0000
,
1000
0000
0001
0000
,
1001
0000
0000
0000
,
0001
0001
1000
1000
,
0000
0000
0000
0000
,
1001
0000
0000
0000
,
0001
0000
1000
0000
,
0100
0000
0000
0000
,
1000
0000
0001
0000
,
0010
0000
0010
0000
,
0100
0000
0000
0000
,
0010
0000
0001
0000
,
1000
1000
1000
0000
,
1001
0000
0001
0000
,
0100
0000
0000
0000
,
0010
0000
0100
0000
,
0001
0000
0000
0000
,
1000
0000
0100
0000
,
0010
0000
0000
0000
,
0100
0000
0010
0000
,
0001
0000
0000
0000
,
1001
0000
0001
0000
,
1000
0000
0001
0000
,
1000
0000
0000
0000
,
0001
0000
0100
0000
,
0001
0000
1000
0000
,
0001
0000
1000
1000
,
1000
0000
0001
0001
,
0001
0000
0100
0000
,
0001
0000
1000
0000
,
0100
0000
0010
0000
,
0001
0000
1000
1001
,
1001
0000
0000
0000
,
0001
0000
0000
0000
,
0100
0000
0010
0000
,
0100
0000
0001
0000
,
1000
0000
0000
0000
,
0001
0000
1000
0000
,
0100
0000
0000
0000
,
0010
0000
0001
0000
,
0010
0000
0000
0000
,
0001
0000
1000
0000
,
0001
0000
0100
0000
,
0010
0000
0100
0000
,
0010
0000
0000
0000
,
1000
0000
0001
0000
,
1000
0000
0001
0000
,
1001
0000
0000
0000
,
0001
0000
0001
0000
,
1000
0000
0000
0000
,
0001
0000
1000
0000
,
0001
0000
0010
0000
,
0100
0000
0100
0000
,
0010
0000
0000
0000
,
0100
0000
0010
0000
,
0001
0000
1000
0000
,
0001
0000
0000
0000
,
0100
0000
0110
0000
;
