#VERSION:0.82;
#TITLE:四次元跳躍機関;
#SUBTITLE:;
#ARTIST:koutaq;
#TITLETRANSLIT:Yojigen chouyaku kikan;
#SUBTITLETRANSLIT:;
#ARTISTTRANSLIT:;
#GENRE:;
#ORIGIN:;
#CREDIT:;
#BANNER:[Short] - Yojigen chouyaku kikan.png;
#BACKGROUND:[Short] - Yojigen chouyaku kikan-bg.png;
#PREVIEWVID:;
#JACKET:[Short] - Yojigen chouyaku kikan-jacket.png;
#CDIMAGE:;
#DISCIMAGE:;
#LYRICSPATH:;
#CDTITLE:;
#MUSIC:[Short] - Yojigen chouyaku kikan.ogg;
#OFFSET:-0.718578;
#SAMPLESTART:86.920799;
#SAMPLELENGTH:15.000000;
#SELECTABLE:YES;
#BPMS:0.000=135.000,
144.000=67.500,
168.000=135.000;
#STOPS:168.000=0.444;
#DELAYS:;
#WARPS:;
#TIMESIGNATURES:0.000=4=4;
#TICKCOUNTS:0.000=4;
#COMBOS:0.000=1;
#SPEEDS:0.000=1.000=0.000=0;
#SCROLLS:0.000=1.000;
#FAKES:;
#LABELS:0.000=Song Start;
#BGCHANGES:;
#KEYSOUNDS:;
#ATTACKS:
;

//---------------dance-single - ----------------
#NOTEDATA:;
#CHARTNAME:;
#STEPSTYPE:dance-single;
#DESCRIPTION:;
#CHARTSTYLE:;
#DIFFICULTY:Hard;
#METER:7;
#RADARVALUES:0.441516,0.611965,0.413141,0.381361,0.095340,289.000000,52.000000,48.000000,0.000000,0.000000,0.000000,0.000000,0.000000,0.441516,0.611965,0.413141,0.381361,0.095340,289.000000,52.000000,48.000000,0.000000,0.000000,0.000000,0.000000,0.000000;
#CREDIT:;
#NOTES:
// measure 0
0000
0000
0000
0000
,  // measure 1
0000
0000
0000
0000
,  // measure 2
0000
0000
0000
0000
,  // measure 3
0000
0000
0000
0000
,  // measure 4
0010
0001
0100
1000
,  // measure 5
0010
0001
0100
1000
,  // measure 6
0010
1000
0100
0001
,  // measure 7
0010
1000
0100
0001
,  // measure 8
0020
0001
0001
0100
,  // measure 9
0100
1000
1000
0130
,  // measure 10
0200
0001
0001
0010
,  // measure 11
2000
0000
3000
0310
,  // measure 12
0100
0000
0000
1000
0000
0000
0010
0000
0000
0000
0001
0000
0010
0000
0000
0000
,  // measure 13
0100
0000
0000
0001
0000
0000
0010
0000
0000
0000
1000
0000
0010
0000
0000
0000
,  // measure 14
0100
0000
0000
1000
0000
0000
0010
0000
1000
0000
0010
0000
0100
0000
0000
0000
,  // measure 15
0100
0000
0000
0001
0000
0000
0010
0000
0001
0000
0010
0000
0100
0000
0000
0000
,  // measure 16
0010
0000
0000
0001
0000
0000
0100
0000
0000
0000
1000
0000
0100
0000
0000
0000
,  // measure 17
0010
0000
0000
1000
0000
0000
0100
0000
0000
0000
0001
0000
0100
0000
0000
0000
,  // measure 18
0010
0000
0000
0001
0000
0000
0100
0000
0001
0000
0100
0000
0010
0000
0000
0000
,  // measure 19
0010
0000
0000
1000
0000
0000
0100
0000
1000
0000
0100
0000
0010
0000
0000
0000
,  // measure 20
0001
0000
0000
0100
0000
0000
1000
0000
0000
0000
0100
0000
0001
0000
1000
0000
,  // measure 21
0001
0000
0000
0010
0000
0000
1000
0000
0000
0000
0010
0000
0001
0000
1000
0000
,  // measure 22
0001
0000
0000
0010
0000
0000
0100
0000
1000
0000
0010
0000
0100
0000
0001
0000
,  // measure 23
1000
0000
0000
0001
0000
0000
0100
0000
0010
0000
1000
0000
0001
0000
0000
0000
,  // measure 24
1000
0000
0000
0100
0000
0000
0001
0000
0000
0000
0100
0000
1000
0000
0001
0000
,  // measure 25
1000
0000
0000
0010
0000
0000
0001
0000
0000
0000
0010
0000
1000
0000
0001
0000
,  // measure 26
1000
0000
0000
0010
0000
0000
0100
0000
0001
0000
0010
0000
0100
0000
1000
0000
,  // measure 27
0001
0000
0000
1000
0000
0000
0100
0000
0010
0000
0001
0000
1000
0000
0000
0000
,  // measure 28
2001
0000
0000
3010
2010
0000
3100
0000
,  // measure 29
0012
0000
0000
0100
0000
0000
0103
0000
0102
0000
0000
0000
1003
0000
0000
0000
,  // measure 30
2001
0000
0000
3100
2100
0000
3010
0000
,  // measure 31
0102
0000
0000
0010
0000
0000
0013
0000
0001
0000
0010
0000
0100
0000
1000
0000
,  // measure 32
2010
0000
0000
3001
1002
0000
0103
0000
,  // measure 33
0012
0000
0000
1000
0000
0000
1003
0000
2001
0000
0000
0000
3100
0000
0000
0000
,  // measure 34
2100
0000
0000
3001
1002
0000
0013
0000
,  // measure 35
0102
0000
0000
1000
0000
0000
1003
0000
2001
0000
0000
0000
3010
0000
0000
0000
,  // measure 36
2002
0000
0000
0000
,  // measure 37
0000
0000
0000
0000
0000
0000
0000
3003
,  // measure 38
0002
0100
0200
0303
0200
1000
2000
3300
,  // measure 39
2000
0010
0020
3030
0020
0001
0002
0033
,  // measure 40
0002
0100
0203
1000
2300
0010
3020
0001
,  // measure 41
0031
0000
0100
0000
1000
0000
0010
0000
0001
0100
0001
0100
0010
1000
0010
1000
,  // measure 42
1001
0000
0010
1000
0100
0001
0010
1000
,  // measure 43
1100
0000
0010
0001
0100
1000
0010
0001
,  // measure 44
0101
0000
0100
0001
0010
1000
0100
0001
,  // measure 45
0011
0101
1001
1010
,  // measure 46
1001
0000
0010
0001
0100
1000
0100
0001
,  // measure 47
1001
0000
0010
1000
0100
0001
0100
1000
,  // measure 48
1001
0000
0100
0001
0010
1000
0010
0001
,  // measure 49
1001
1100
1001
0011
,  // measure 50
1001
0000
0201
0000
0320
0000
1030
0001
,  // measure 51
0110
0000
0012
0000
2003
0000
3100
0010
,  // measure 52
1001
0000
0201
0000
0320
0000
1030
0001
,  // measure 53
0110
1100
0011
0101
,  // measure 54
1010
0000
1002
0000
0023
0000
0130
1000
,  // measure 55
0110
0000
2001
0000
3200
0000
0310
0001
,  // measure 56
0110
0000
1002
0000
0203
0000
0310
1000
,  // measure 57
0110
1200
0301
0021
,  // measure 58
1030
1020
0031
0201
,  // measure 59
1300
1001
0000
0000
;

//---------------dance-single - ----------------
#NOTEDATA:;
#CHARTNAME:;
#STEPSTYPE:dance-single;
#DESCRIPTION:;
#CHARTSTYLE:;
#DIFFICULTY:Medium;
#METER:5;
#RADARVALUES:0.351851,0.470742,0.301911,0.317801,0.000000,232.000000,38.000000,40.000000,0.000000,0.000000,0.000000,0.000000,0.000000,0.351851,0.470742,0.301911,0.317801,0.000000,232.000000,38.000000,40.000000,0.000000,0.000000,0.000000,0.000000,0.000000;
#CREDIT:;
#NOTES:
// measure 0
0000
0000
0000
0000
,  // measure 1
0000
0000
0000
0000
,  // measure 2
0000
0000
0000
0000
,  // measure 3
0000
0000
0000
0000
,  // measure 4
0010
0010
0001
0001
,  // measure 5
0100
0100
1000
1000
,  // measure 6
0010
0010
1000
1000
,  // measure 7
0100
0100
0001
0001
,  // measure 8
0010
0001
0100
0001
,  // measure 9
0010
1000
0010
0001
,  // measure 10
0010
0001
0100
0010
,  // measure 11
2020
0000
0000
3030
,  // measure 12
2000
0100
3001
1001
,  // measure 13
0002
0100
1003
1001
,  // measure 14
0001
0010
0100
1000
,  // measure 15
0010
0100
0001
1000
,  // measure 16
0002
0100
1003
1001
,  // measure 17
2000
0100
3001
1001
,  // measure 18
1000
0010
0100
0001
,  // measure 19
0010
0100
1000
0001
,  // measure 20
1000
0000
0010
0100
0000
0001
1000
0000
,  // measure 21
0001
0000
0010
0100
0000
1000
0001
0000
,  // measure 22
1000
0000
0010
0100
0000
0001
0010
0000
,  // measure 23
0100
1000
0010
0100
,  // measure 24
0001
0000
0010
0100
0000
1000
0001
0000
,  // measure 25
1000
0000
0010
0100
0000
0001
1000
0000
,  // measure 26
0001
0000
0010
0100
0000
1000
0010
0000
,  // measure 27
0100
0001
0010
0100
,  // measure 28
2002
3003
2200
3300
,  // measure 29
0002
1003
2020
3030
,  // measure 30
2002
3003
0202
0303
,  // measure 31
2000
3001
0022
0033
,  // measure 32
0202
0303
0220
0330
,  // measure 33
2010
3100
0220
0330
,  // measure 34
2200
3300
0220
0330
,  // measure 35
0012
0103
0220
0330
,  // measure 36
1001
0000
0000
0000
,  // measure 37
0000
0000
0000
0000
,  // measure 38
0001
0100
0001
0000
0100
1000
0100
0000
,  // measure 39
1000
0010
1000
0000
0010
0001
0010
0000
,  // measure 40
0001
0001
0100
0100
0010
0010
1000
1000
,  // measure 41
0001
0100
0010
1000
0100
0010
0001
1000
,  // measure 42
1001
0000
1000
0010
0001
0000
1000
0100
,  // measure 43
0001
1000
0010
0100
,  // measure 44
0001
0000
1000
0100
0001
0000
1000
0010
,  // measure 45
0001
1000
1100
0010
,  // measure 46
0011
0000
0001
0100
1000
0000
0001
0010
,  // measure 47
1000
0001
0100
0010
,  // measure 48
1000
0000
0001
0010
1000
0000
0001
0100
,  // measure 49
1000
0001
0011
0100
,  // measure 50
1100
0000
2001
0000
3010
0000
0100
0001
,  // measure 51
1000
0000
1020
0000
0130
0000
0001
0010
,  // measure 52
0100
0000
0012
0000
0103
0000
0010
1000
,  // measure 53
0100
0010
0101
0010
,  // measure 54
1100
0000
0012
0000
0103
0000
0010
1000
,  // measure 55
0001
0000
2100
0000
3001
0000
0010
0001
,  // measure 56
0100
0000
1020
0000
0130
0000
0001
0010
,  // measure 57
0100
1100
0100
0010
,  // measure 58
0011
0101
0100
0010
,  // measure 59
1010
1001
0000
0000
;

//---------------dance-single - ----------------
#NOTEDATA:;
#CHARTNAME:;
#STEPSTYPE:dance-single;
#DESCRIPTION:;
#CHARTSTYLE:;
#DIFFICULTY:Easy;
#METER:3;
#RADARVALUES:0.259916,0.376594,0.166845,0.190680,0.000000,184.000000,21.000000,24.000000,0.000000,0.000000,0.000000,0.000000,0.000000,0.259916,0.376594,0.166845,0.190680,0.000000,184.000000,21.000000,24.000000,0.000000,0.000000,0.000000,0.000000,0.000000;
#CREDIT:;
#NOTES:
// measure 0
0000
0000
0000
0000
,  // measure 1
0000
0000
0000
0000
,  // measure 2
0000
0000
0000
0000
,  // measure 3
0000
0000
0000
0000
,  // measure 4
0010
0000
0001
0000
,  // measure 5
0100
0000
1000
0000
,  // measure 6
0010
0000
1000
0000
,  // measure 7
0100
0000
0001
0000
,  // measure 8
0010
0010
0001
0000
,  // measure 9
0001
0001
1000
0000
,  // measure 10
1000
1000
0100
0000
,  // measure 11
0220
0000
0000
0330
,  // measure 12
0010
0001
0100
0000
,  // measure 13
0010
1000
0100
0000
,  // measure 14
0010
0001
0100
0001
,  // measure 15
0010
0100
1000
0000
,  // measure 16
0010
1000
0100
0000
,  // measure 17
0010
0001
0100
0000
,  // measure 18
0010
1000
0100
1000
,  // measure 19
0010
0100
0001
0000
,  // measure 20
1000
0010
0010
0100
,  // measure 21
0001
0010
0010
0100
,  // measure 22
1000
0010
0001
0010
,  // measure 23
1000
0100
0010
0000
,  // measure 24
0001
0010
0010
0100
,  // measure 25
1000
0010
0010
0100
,  // measure 26
0001
0010
1000
0010
,  // measure 27
0001
0100
0010
1001
,  // measure 28
2002
3003
1001
0000
,  // measure 29
0010
0100
0220
0330
,  // measure 30
2020
3030
1010
0000
,  // measure 31
0001
0100
0202
0303
,  // measure 32
2002
3003
1001
0000
,  // measure 33
0010
0100
0220
0330
,  // measure 34
0022
0033
0011
0000
,  // measure 35
1000
0100
2200
3300
,  // measure 36
1001
0000
0000
0000
,  // measure 37
0000
0000
0000
0000
,  // measure 38
0010
0010
0010
0000
0001
0000
1000
0000
,  // measure 39
0100
0100
0100
0000
1000
0000
0001
0000
,  // measure 40
0010
0010
0010
0000
0001
0001
0001
0000
,  // measure 41
1000
1000
1000
0000
0100
0100
0100
0000
,  // measure 42
1001
1000
0010
0100
,  // measure 43
0001
1001
0000
0100
,  // measure 44
0010
1000
0100
0010
,  // measure 45
0001
1001
0000
0100
,  // measure 46
0010
1000
0010
0100
,  // measure 47
0001
1001
0000
0010
,  // measure 48
0100
1000
0010
0100
,  // measure 49
0001
1001
0000
0010
,  // measure 50
0100
2000
3010
0100
,  // measure 51
0001
2000
3010
0100
,  // measure 52
0001
2000
3100
0010
,  // measure 53
0001
1000
0100
0010
,  // measure 54
0001
0002
0103
0010
,  // measure 55
1000
0002
0103
0010
,  // measure 56
1000
0002
0013
0100
,  // measure 57
1000
0001
0010
0100
,  // measure 58
1000
1000
0010
0100
,  // measure 59
0001
1001
0000
0000
;

//---------------dance-single - ----------------
#NOTEDATA:;
#CHARTNAME:;
#STEPSTYPE:dance-single;
#DESCRIPTION:;
#CHARTSTYLE:;
#DIFFICULTY:Beginner;
#METER:1;
#RADARVALUES:0.096475,0.141223,0.015890,0.000000,0.000000,83.000000,2.000000,0.000000,0.000000,0.000000,0.000000,0.000000,0.000000,0.096475,0.141223,0.015890,0.000000,0.000000,83.000000,2.000000,0.000000,0.000000,0.000000,0.000000,0.000000,0.000000;
#CREDIT:;
#NOTES:
// measure 0
0000
0000
0000
0000
,  // measure 1
0000
0000
0000
0000
,  // measure 2
0000
0000
0000
0000
,  // measure 3
0000
0000
0000
0000
,  // measure 4
0001
0000
0000
0000
,  // measure 5
0001
0000
0000
0000
,  // measure 6
1000
0000
0000
0000
,  // measure 7
1000
0000
0000
0000
,  // measure 8
0001
0000
0001
0000
,  // measure 9
0001
0000
0001
0000
,  // measure 10
1000
0000
1000
0000
,  // measure 11
1000
0000
0000
0000
,  // measure 12
1000
0000
0000
0000
,  // measure 13
0100
0000
0000
0000
,  // measure 14
1000
0000
0100
0000
,  // measure 15
0010
0000
0000
0000
,  // measure 16
0001
0000
0000
0000
,  // measure 17
0100
0000
0000
0000
,  // measure 18
0001
0000
0100
0000
,  // measure 19
0010
0000
0000
0000
,  // measure 20
1000
0000
0000
0000
,  // measure 21
0001
0000
0000
0000
,  // measure 22
1000
0000
0100
0000
,  // measure 23
0010
0000
0000
0000
,  // measure 24
0001
0000
0000
0000
,  // measure 25
1000
0000
0000
0000
,  // measure 26
0001
0000
0100
0000
,  // measure 27
0010
0000
0000
0000
,  // measure 28
1000
0000
0000
0000
,  // measure 29
1000
1000
1000
0000
,  // measure 30
0001
0000
0000
0000
,  // measure 31
0001
0001
0001
0000
,  // measure 32
0001
0000
0000
0000
,  // measure 33
0001
0001
0001
0000
,  // measure 34
1000
0000
0000
0000
,  // measure 35
1000
1000
1000
0000
,  // measure 36
1001
0000
0000
0000
,  // measure 37
0000
0000
0000
0000
,  // measure 38
0001
0000
0001
0000
,  // measure 39
0010
0000
0010
0000
,  // measure 40
0100
0000
0100
0000
,  // measure 41
1000
0000
1000
0000
,  // measure 42
0001
0000
0000
0000
,  // measure 43
0000
0100
0000
0100
,  // measure 44
0000
1000
0000
0000
,  // measure 45
0000
1000
0000
1000
,  // measure 46
0000
0100
0000
0000
,  // measure 47
0000
0100
0000
0100
,  // measure 48
0000
0001
0000
0000
,  // measure 49
0000
0001
0000
0001
,  // measure 50
0000
1000
0000
0000
,  // measure 51
0000
1000
0000
1000
,  // measure 52
0000
0010
0000
0000
,  // measure 53
0000
0010
0000
0010
,  // measure 54
0000
0001
0000
0000
,  // measure 55
0000
0001
0000
0001
,  // measure 56
0000
0010
0000
0000
,  // measure 57
0000
0010
0000
0010
,  // measure 58
0000
1000
0000
1000
,  // measure 59
0000
1001
0000
0000
;

//---------------dance-single - ----------------
#NOTEDATA:;
#CHARTNAME:;
#STEPSTYPE:dance-single;
#DESCRIPTION:;
#CHARTSTYLE:;
#DIFFICULTY:Challenge;
#METER:9;
#RADARVALUES:0.633332,0.894411,0.214516,0.587932,0.512454,457.000000,27.000000,74.000000,0.000000,0.000000,0.000000,0.000000,0.000000,0.633332,0.894411,0.214516,0.587932,0.512454,457.000000,27.000000,74.000000,0.000000,0.000000,0.000000,0.000000,0.000000;
#CREDIT:;
#NOTES:
// measure 0
0000
0000
0000
0000
,  // measure 1
0000
0000
0000
0000
,  // measure 2
0000
0000
0000
0000
,  // measure 3
0000
0000
0000
0000
,  // measure 4
0020
0001
0100
1000
,  // measure 5
0230
0001
0010
1000
,  // measure 6
0320
0001
0100
1000
,  // measure 7
0230
0001
0010
1000
,  // measure 8
0320
0000
0000
0000
0032
0000
0000
0000
0103
0010
0100
0010
0200
0000
0000
0000
,  // measure 9
0320
0000
0000
0000
2030
0000
0000
0000
3100
0010
0100
0010
0200
0000
0000
0000
,  // measure 10
0320
0000
0000
0000
0032
0000
0000
0000
0103
0010
0100
0010
0200
0000
0000
0000
,  // measure 11
0320
0000
2030
0000
3002
0100
0203
0000
,  // measure 12
0320
0000
0000
2030
0000
0000
3200
0000
0000
0000
0310
0100
0010
0000
0001
0000
,  // measure 13
2000
0000
0000
3020
0000
0000
0230
0000
0000
0000
0301
0100
0001
0000
0010
0000
,  // measure 14
0200
0000
0000
2300
0000
0000
3020
0000
0000
0000
0100
0000
0100
0000
1000
0000
,  // measure 15
2030
0000
0000
3020
0000
0000
0230
0000
0000
0000
0010
0000
0010
0000
0001
0000
,  // measure 16
0302
0000
0000
0023
0000
0000
2030
0000
0000
0000
3010
0001
0010
0000
0001
0000
,  // measure 17
2000
0000
0000
3020
0000
0000
0032
0000
0000
0000
0013
1000
0010
0000
1000
0000
,  // measure 18
0002
0000
0000
0203
0000
0000
0320
0000
0000
0000
0100
0000
0100
0000
1000
0000
,  // measure 19
2030
0000
0000
3200
0000
0000
0320
0000
0000
0000
0100
0000
0100
0000
0001
0000
,  // measure 20
0031
0000
0100
0001
0000
0100
0020
0000
0000
0000
0100
0000
0100
0000
1000
0000
,  // measure 21
1030
0000
0100
1000
0000
0100
0020
0000
0000
0000
0100
0000
0100
0000
0001
0000
,  // measure 22
0031
0000
0100
0010
0000
0100
0001
0000
0010
0000
0100
0000
1000
0000
0001
0000
,  // measure 23
1000
0000
0100
0010
0000
0100
1000
0000
0010
0000
0100
0000
0001
1000
0001
0000
,  // measure 24
1000
0000
0010
1000
0000
0010
0200
0000
0000
0000
0010
0000
0010
0000
0001
0000
,  // measure 25
0301
0000
0010
0001
0000
0010
0200
0000
0000
0000
0010
0000
0010
0000
1000
0000
,  // measure 26
1300
0000
0010
0100
0000
0010
1000
0000
0100
0000
0010
0000
0001
0000
1000
0000
,  // measure 27
0001
0000
0010
0100
0000
0010
0001
0000
0100
0000
0010
0000
1000
0001
1000
0000
,  // measure 28
1020
0000
0000
0000
1000
0000
1030
0100
0010
0000
0001
0000
0100
0000
0001
0000
,  // measure 29
0201
0000
0000
0010
0000
0000
1300
0000
1100
0000
0101
0000
0000
1001
0000
0000
,  // measure 30
0201
0000
0000
0000
0001
0000
0301
0010
0100
0000
1000
0000
0010
0000
1000
0000
,  // measure 31
1020
0000
0000
0100
0000
0000
0031
0000
0001
0010
0001
0010
0100
0010
0100
0010
,  // measure 32
2000
0000
0000
0000
0001
0000
3001
0010
0100
0000
1000
0000
0010
0000
1000
0000
,  // measure 33
1200
0000
0000
0010
0000
0000
0301
0000
0101
0000
1100
0000
0000
1001
0000
0000
,  // measure 34
0012
0000
0000
0000
1000
0000
1003
0010
0100
0000
0001
0000
0010
0000
0001
0000
,  // measure 35
0201
0000
0000
0010
0000
0000
1300
0000
1000
0100
1000
0100
0001
0100
0001
0000
,  // measure 36
2002
0000
0000
0000
,  // measure 37
0000
0000
0000
0000
0000
0000
0000
0000
0000
0000
0000
0000
0000
3003
0000
0001
,  // measure 38
0100
0010
1000
0100
0010
0000
0010
0000
0001
0100
0010
0000
0010
0100
0001
1000
,  // measure 39
0100
0010
0001
0100
0010
0000
0010
0000
1000
0100
0010
0000
0010
0100
1000
0001
,  // measure 40
0100
0010
1000
0100
0010
0001
0010
0100
1000
0010
0100
0001
0100
0010
1000
0001
,  // measure 41
1000
0000
0100
0000
0001
0000
0100
0000
1000
0000
0001
0000
0010
0000
1000
0000
0010
0000
0001
0000
0100
0000
0010
0000
1000
0100
1000
0100
0010
0001
0010
0001
,  // measure 42
2000
3000
0000
0000
0001
0000
0010
0000
1000
0000
0100
0000
0001
0000
0010
0000
,  // measure 43
0100
1000
0010
0100
0002
0000
0000
0013
0200
0000
0000
1300
0020
0000
0000
0130
,  // measure 44
0001
1000
0001
0100
1000
0010
0001
0100
,  // measure 45
0010
1000
0100
0010
0002
0000
0000
0103
0020
0000
0000
1030
0100
0000
0010
0000
,  // measure 46
0001
0010
0100
0000
1000
0000
0010
0000
0001
0000
0100
0000
1000
0000
0010
0000
,  // measure 47
0100
0001
0010
0100
2000
0000
0000
3010
0200
0000
0000
0301
0020
0000
0000
0130
,  // measure 48
1000
0001
1000
0100
0001
0010
1000
0100
,  // measure 49
0010
0001
0100
0010
2000
0000
0000
3100
0020
0000
0000
0031
0100
0000
0010
0000
,  // measure 50
1000
0010
0100
0000
0001
0000
0011
0000
0010
0000
0110
0000
0100
0000
1100
0000
,  // measure 51
1000
0010
0100
0001
0020
0000
0000
0031
0200
0000
0000
0310
2000
0000
0000
3100
,  // measure 52
0010
0001
1000
1010
0010
0110
0100
0101
,  // measure 53
0001
0010
0100
1000
0020
0000
0000
1030
0200
0000
0000
0310
0001
0000
0100
0000
,  // measure 54
0010
1000
0100
0000
0010
0000
0011
0000
0001
0000
1001
0000
1000
0000
1100
0000
,  // measure 55
0100
0010
0001
0100
0020
0000
0000
1030
0200
0000
0000
0310
0002
0000
0000
0103
,  // measure 56
0010
1000
0100
1100
1000
1001
0001
0011
,  // measure 57
0010
0100
1000
0010
0100
0000
0001
0100
0000
0010
0100
0000
0001
0000
0010
0000
,  // measure 58
0100
0000
1000
0000
0010
1000
0010
1000
0010
0100
0010
0100
0001
0100
0001
0100
,  // measure 59
0001
1000
1001
0000
0000
0000
0000
0000
;
