#TITLE:예쁜 나이 25살;
#SUBTITLE:;
#ARTIST:송지은;
#TITLETRANSLIT:Pretty Age 25;
#SUBTITLETRANSLIT:;
#ARTISTTRANSLIT:Song Ji Eun;
#GENRE:K-POP;
#CREDIT:;
#BANNER:[Short] - Pretty Age 25.png;
#BACKGROUND:[Short] - Pretty Age 25-bg.png;
#LYRICSPATH:;
#CDTITLE:CDTitle.png;
#MUSIC:[Short] - Pretty Age 25.ogg;
#OFFSET:0.000000;
#SAMPLESTART:59.299999;
#SAMPLELENGTH:16.879999;
#LASTBEATHINT:143.780563;
#SELECTABLE:YES;
#BPMS:0.000000=113.000000
;
#STOPS:175.750000=0.020000
;
#BGCHANGES:0.000=[Short] - Pretty Age 25.avi=1.000=0=0=1=====,
99999=-nosongbg-=1.000=0=0=0 // don't automatically add -songbackground-
;
#KEYSOUNDS:;
#ATTACKS:;

//---------------dance-single - ----------------
#NOTES:
     dance-single:
     :
     Hard:
     8:
     0.568781,0.559985,0.262835,0.379651,0.554874,409.000000,382.000000,27.000000,39.000000,0.000000,0.000000,0.568781,0.559985,0.262835,0.379651,0.554874,409.000000,382.000000,27.000000,39.000000,0.000000,0.000000:
// measure 0
0000
0000
0000
0000
,  // measure 1
0000
0000
0000
0000
,  // measure 2
0000
0000
0000
0000
,  // measure 3
0000
0000
0000
0000
,  // measure 4
0101
0000
0001
0000
1000
0100
0000
0000
0010
0001
0000
1000
0000
0001
0000
0100
,  // measure 5
0010
0000
1000
0000
0100
1000
0000
0000
0001
1000
0000
1000
0002
0000
0000
0000
,  // measure 6
0013
0000
1000
0000
0010
0001
0000
0000
0100
0010
0000
1000
0000
0001
0000
0100
,  // measure 7
0010
0000
0100
0000
0001
1000
0000
1000
0100
1000
0001
0000
1002
0000
0000
1003
,  // measure 8
0100
0000
1000
0000
0001
0100
0000
0000
0010
1000
0000
0001
0000
1000
0000
0100
,  // measure 9
0010
0000
0001
0000
0100
0010
0000
0000
0100
0001
0000
0001
2000
0000
0000
0000
,  // measure 10
3100
0000
0010
0000
0100
1000
0000
0000
0001
0000
0000
0100
0010
0000
1000
0000
,  // measure 11
0100
0000
0000
0000
1100
0000
0100
0000
0010
0001
1000
0000
1002
0000
0000
0000
,  // measure 12
0203
0000
0010
0000
0310
0000
1000
0100
1000
0000
0100
0010
0000
0100
0000
1000
,  // measure 13
0200
0000
0000
0000
1300
0001
1000
0001
1000
0000
0010
0000
0120
0000
0000
0000
,  // measure 14
0230
0000
0000
0000
0301
0000
0001
0000
1000
0000
0010
0000
0001
0000
0000
0001
,  // measure 15
0010
0000
0100
0000
0010
0000
1000
0100
1000
0100
1000
0000
2100
0000
0000
3100
,  // measure 16
0020
0000
0000
0000
0031
1000
0001
1000
0100
0000
0010
0001
0000
0010
0000
0100
,  // measure 17
2000
0000
3010
0010
0100
0010
0120
0000
,  // measure 18
2030
0000
0000
0000
0001
0000
3002
0000
0100
0000
0103
0000
0110
0000
0010
0100
,  // measure 19
0001
0000
0010
0000
1000
0000
0010
0000
0001
1000
0001
0000
1000
0001
1000
0000
,  // measure 20
0100
0000
1000
0000
0001
0100
0000
0001
1000
0000
0000
1000
0001
0000
0010
0000
,  // measure 21
0100
0000
0010
0000
0001
0000
0000
0000
0011
0000
0010
0000
1200
0000
0000
1300
,  // measure 22
0010
0000
0100
0000
0001
1000
0000
0010
1000
0000
0000
1000
0001
0000
1000
0000
,  // measure 23
0010
0000
0100
0000
0001
0000
0100
0001
0100
0010
0100
0000
0120
0000
0000
0130
,  // measure 24
0001
0000
1000
0000
0001
0100
0000
0010
1000
0000
0000
1000
0010
0000
0100
0000
,  // measure 25
0001
0010
0011
0000
1100
0100
2002
3003
,  // measure 26
0110
0010
1010
1000
1001
0001
0101
0100
,  // measure 27
0120
0000
0000
0000
1030
0000
0000
0000
0100
0010
0100
0000
0210
0000
0000
0310
,  // measure 28
0000
0001
1000
0000
0100
0000
0001
0000
0100
0000
0000
0000
1000
0001
0000
0100
,  // measure 29
0010
0000
0001
0000
0010
0000
1000
0000
0001
0000
0000
0001
0100
0000
0010
0000
,  // measure 30
2010
0000
3002
0000
0023
0000
0130
0001
,  // measure 31
0100
0000
0000
1000
0010
0000
1000
0001
0100
0010
0100
0000
0210
0000
0000
0310
,  // measure 32
0000
0100
0001
0000
1000
0000
0100
0000
1000
0000
0000
0000
0001
1000
0000
0010
,  // measure 33
0100
0000
0001
0000
0010
0000
0001
0000
0100
0000
0000
0100
0010
0000
1000
0000
,  // measure 34
2010
0000
3002
0000
0203
0000
0310
1000
,  // measure 35
0100
0000
0000
0001
0100
0000
0010
0000
0100
1000
0001
0000
1002
0000
0000
0000
,  // measure 36
1003
0010
1000
0000
0001
0100
0001
0100
0001
0000
0000
0000
1000
0010
1000
0000
,  // measure 37
0001
0010
0001
0000
1000
0100
1000
0100
1000
0001
0000
0001
2000
0000
0000
0000
,  // measure 38
3010
0100
0010
0000
0100
0001
0100
0001
0100
0000
0000
0000
0010
0100
0010
0000
,  // measure 39
1000
0000
0100
0010
0100
0000
1000
0001
0100
0001
0100
0000
0120
0000
0000
0000
,  // measure 40
1030
0100
0010
0000
0001
0100
0010
0100
0001
0000
0000
0000
1000
0100
0010
0000
,  // measure 41
0001
0100
0010
0000
1000
0010
0100
0010
1000
0001
0000
0001
2000
0000
0000
0000
,  // measure 42
3100
1000
0001
0000
0100
0001
0100
0001
1000
0000
0000
0000
0100
1000
0001
0000
,  // measure 43
0010
0000
0100
0010
0100
0000
0010
0001
0010
0001
1000
0000
1002
0000
0000
0000
,  // measure 44
0203
0000
0000
0301
1000
0000
0100
0000
1000
0000
1000
0000
0001
0000
0010
0001
,  // measure 45
0020
0000
0000
0130
1000
0000
0001
0000
0100
0000
0100
0000
0010
0000
1000
0010
,  // measure 46
2000
0000
0000
3001
0100
0000
0010
0000
0200
0000
0001
0000
0301
0000
0010
0100
,  // measure 47
0020
0000
0000
0031
1000
0000
0100
0000
0010
0000
0001
0000
2002
0000
0000
3003
;

//---------------dance-single - ----------------
#NOTES:
     dance-single:
     :
     Medium:
     5:
     0.339322,0.349991,0.146020,0.369916,0.063275,244.000000,229.000000,15.000000,38.000000,0.000000,0.000000,0.339322,0.349991,0.146020,0.369916,0.063275,244.000000,229.000000,15.000000,38.000000,0.000000,0.000000:
0000
0000
0000
0000
,
0000
0000
0000
0000
,
0000
0000
0000
0000
,
0000
0000
0000
0000
,
1000
0000
0010
0000
0000
0100
0000
0000
0001
0000
0000
1000
0000
0000
0100
0000
,
0000
0000
0010
0000
0000
0100
0000
0000
1000
0000
0000
0000
1001
0000
0000
0000
,
0000
0000
0001
0000
0000
0010
0000
0000
0100
0000
0000
0010
0000
0000
0001
0000
,
0000
0000
0100
0000
0000
0010
0000
0000
1000
0000
0000
0000
1001
0000
0000
0000
,
0000
0000
0010
0000
0000
0100
0000
0000
0010
0000
0000
1000
0000
0000
0001
0000
,
0000
0000
0100
0000
0000
0010
0000
0000
0100
0000
0000
0000
0110
0000
0000
0000
,
1000
0000
0100
0000
0000
0010
0000
0000
0001
0000
0000
0100
0000
0000
0010
0000
,
2000
3002
0103
0120
,
0130
0000
0010
1000
0010
0010
0100
0000
,
0001
0000
0010
0001
0010
0010
0100
0000
,
2000
0000
0001
0000
0100
0100
3100
0000
,
0010
0001
0100
0010
1000
0000
1002
0000
,
0203
0000
0301
0010
0100
0100
1000
0000
,
0020
0000
0130
0001
1000
1000
0100
0000
,
0020
0000
0000
0032
0000
0100
0103
0000
,
0010
1000
0010
1000
0001
0001
1000
0000
,
0020
0000
2030
0000
3200
0000
0301
0100
,
2000
3010
0200
0301
,
0020
0000
2030
0000
3020
0000
0031
1000
,
0010
1010
0110
0101
,
0200
0000
0302
0000
2003
0000
3100
0010
,
0002
1003
0020
0130
,
0110
1010
1001
0101
,
0220
0000
0000
0330
,
0100
0001
0010
0001
0100
0000
0010
1000
,
0100
1000
0010
0100
0020
0000
2030
0000
,
3002
1000
0010
0103
,
0001
0000
0000
1000
0000
0000
0010
0000
0100
0000
0000
0000
0101
0000
0000
0000
,
0010
1000
0100
1000
0010
0000
0100
0001
,
0010
0001
0100
0010
0200
0000
0302
0000
,
2003
0000
0001
0000
0100
0000
3010
0100
,
0010
0000
0000
1000
0000
0000
0100
0000
0010
0000
0000
0000
1001
0000
0000
0000
,
0001
0100
1000
0100
0001
0000
0001
1000
,
0001
0010
1000
0010
0001
0000
1000
0000
,
0010
1000
0100
1000
0010
0000
0100
0000
,
0001
0010
0100
1000
0010
0100
0001
0000
,
1000
0100
0001
0100
1000
0000
1000
0001
,
1000
0010
0001
0010
1000
0000
0001
0000
,
0100
0001
0010
0001
0100
0000
0010
0000
,
1000
0100
0010
0001
0100
0010
1000
0000
,
0002
0000
0000
0010
0013
0000
0100
0000
,
2000
0000
0000
0010
3010
0000
0100
0000
,
0002
0000
0000
0100
0203
0000
0310
0000
,
0020
0000
0000
0000
2030
0000
0000
0000
3200
0000
0000
0000
0302
0000
0000
0003
;

//---------------dance-single - ----------------
#NOTES:
     dance-single:
     :
     Easy:
     3:
     0.209990,0.233327,0.058408,0.262835,0.000000,151.000000,145.000000,6.000000,27.000000,0.000000,0.000000,0.209990,0.233327,0.058408,0.262835,0.000000,151.000000,145.000000,6.000000,27.000000,0.000000,0.000000:
0000
0000
0000
0000
,
0000
0000
0000
0000
,
0000
0000
0000
0000
,
0000
0000
0000
0000
,
1001
0000
0000
1000
0000
1000
0000
0000
,
0010
0000
0000
0100
0000
0000
0110
0000
,
0100
0000
0000
0001
0000
0001
0000
0000
,
1000
0100
0010
0001
,
1000
0000
0000
0001
0000
0001
0000
0000
,
0010
0000
0000
0100
0000
0000
0110
0000
,
0100
0000
0000
1000
0000
1000
0000
0000
,
0020
0230
0302
2003
,
3200
0000
0010
0310
,
0002
0000
1000
1003
,
2000
0000
3002
0000
,
1003
0010
0100
0001
,
1000
0000
0100
0010
,
0001
0000
0100
0010
,
2000
0000
3002
0000
,
0013
0100
1000
0001
,
0100
0010
0100
0010
,
1000
0001
1000
0001
,
0010
0100
0010
0100
,
1000
0020
0230
0302
,
1003
0100
1000
0100
,
0010
0001
0010
0001
,
1000
0001
0100
0010
,
0220
0000
0000
0330
,
0100
0001
1000
0000
,
0100
1000
0001
0000
,
0020
0000
0230
0000
,
1300
0001
1000
1001
,
0010
0001
1000
0000
,
0010
1000
0001
0000
,
2000
0000
3002
0000
,
0103
0010
0100
0110
,
0010
0010
0010
1000
,
0001
0001
0001
0000
,
0100
0100
0100
0001
,
1000
0100
0010
0001
,
1000
1000
1000
0010
,
0100
0100
0100
0000
,
0001
0001
0001
0100
,
0010
1000
0100
0001
,
0200
0000
1000
1300
,
0020
0000
0001
0031
,
0020
0000
2030
0000
,
3002
0000
0000
0000
0023
0000
0000
0000
0230
0000
0000
0000
2300
0000
0000
3000
;
