#TITLE:PUPA;
#SUBTITLE:;
#ARTIST:モリモリあつし;
#TITLETRANSLIT:;
#SUBTITLETRANSLIT:;
#ARTISTTRANSLIT:Morimoriatsushi;
#GENRE:;
#CREDIT:;
#BANNER:;
#BACKGROUND:;
#LYRICSPATH:;
#CDTITLE:;
#MUSIC:[Short] - PUPA.ogg;
#OFFSET:-0.849592;
#SAMPLESTART:54.863968;
#SAMPLELENGTH:14.000000;
#SELECTABLE:YES;
#DISPLAYBPM:101.000000:202.000000;
#BPMS:0.000000=202.000000
,32.495000=404.000000
,36.995000=202.000000
,187.995000=101.000000
,203.995000=202.000000
;
#STOPS:32.495000=0.037129,
32.745000=0.037130,
32.995000=0.037130,
33.245000=0.037130,
33.495000=0.037130,
33.745000=0.037130,
33.995000=0.037130,
34.245000=0.037130,
34.495000=0.037130,
34.745000=0.037130,
50.495000=0.594059,
58.995000=0.594061,
134.495000=0.594057,
141.495000=0.297026,
147.995000=0.297026,
155.495000=0.297026,
231.995000=0.148516,
232.495000=0.148516,
232.995000=0.148516,
233.495000=0.148516,
326.995000=0.148516,
327.495000=0.148516,
327.995000=0.148516,
363.495000=1.039606,
367.995000=0.891093,
372.995000=0.891093,
377.995000=1.188128
;
#BGCHANGES:;
#KEYSOUNDS:;
#ATTACKS:;

//---------------dance-single - ----------------
#NOTES:
     dance-single:
     :
     Challenge:
     12:
     0.858577,1.208401,0.623382,0.455548,0.915092,752.000000,674.000000,78.000000,57.000000,0.000000,0.000000,0.858577,1.208401,0.623382,0.455548,0.915092,752.000000,674.000000,78.000000,57.000000,0.000000,0.000000:
// measure 0
0000
0000
0000
0000
,  // measure 1
0000
0000
0000
0000
,  // measure 2
0000
0000
0000
0000
,  // measure 3
0000
0000
0000
0000
,  // measure 4
0000
0000
0000
0000
,  // measure 5
0101
0000
0000
0110
0000
0000
1001
0000
,  // measure 6
0000
0000
0000
0000
,  // measure 7
1100
0000
0000
0110
0000
0000
1002
0000
,  // measure 8
0000
0000
0103
0010
0100
0010
0100
0010
0100
0010
0100
0010
1000
0000
0000
0000
,  // measure 9
0000
0000
2100
0000
0000
0020
0000
0000
,  // measure 10
3030
0000
0102
0000
0000
0020
0000
0000
,  // measure 11
0033
0000
2001
0000
0000
0200
0000
0000
,  // measure 12
3300
0000
1001
0011
0000
0101
1001
0000
,  // measure 13
0000
2020
0000
0000
3030
0000
1100
0000
,  // measure 14
0000
0202
0000
0000
0000
0303
0011
0000
,  // measure 15
0110
0000
0000
0000
0000
0000
2001
0000
0000
0000
0000
0000
0000
0000
0000
0000
0000
0000
3001
0000
0000
0100
0000
0000
0001
0000
0000
1000
0000
0000
0001
0000
0000
0000
0000
0000
1000
0000
0000
0000
0100
0000
0000
0000
1000
0000
0000
0000
,  // measure 16
0001
0000
0000
0000
0100
0000
0000
0000
0001
0000
0000
0000
1000
0000
0000
0000
0000
0000
0001
0000
0000
0000
0000
0000
1000
0000
0000
0100
0000
0000
0000
0000
0000
1000
0000
0000
0001
0000
0000
0000
0000
0000
1000
0000
0000
0010
0000
0000
,  // measure 17
0000
1000
0001
0000
0100
0000
0001
0000
0010
0100
0000
0010
0001
0000
0010
0100
,  // measure 18
0000
0010
0001
0000
1000
0000
0001
0000
0100
0010
0000
0100
0001
0000
0100
0010
,  // measure 19
0000
0100
0001
0000
1000
0000
0001
0000
0010
0100
0000
1000
0001
0000
0000
0100
,  // measure 20
0000
0010
2000
0000
0001
0001
0000
0010
,  // measure 21
0000
0000
3100
0010
0100
0000
1000
0000
0001
0000
0100
0000
0000
0000
0010
0000
,  // measure 22
0000
1000
0002
0000
0010
0010
0000
1000
,  // measure 23
0000
0000
0103
0000
0020
0000
0000
0000
0001
0000
0000
0000
0130
0010
0000
0100
,  // measure 24
0010
0000
1000
0000
0001
0000
1000
0000
0001
0010
0000
0001
1000
0000
0001
0100
,  // measure 25
0000
0001
1000
0000
0010
0000
1000
0000
0100
0010
0000
0100
1000
0000
0100
0010
,  // measure 26
0000
0100
1000
0000
0001
0000
1000
0000
0010
0100
0000
0010
1000
0000
0010
0100
,  // measure 27
0000
0010
1000
0000
0001
0000
1000
0000
0100
0010
0000
0001
1000
0010
0000
1000
,  // measure 28
0010
0100
0002
0000
1000
1000
0000
0100
,  // measure 29
0000
0000
0013
0100
0010
0000
0001
0000
1000
0000
0010
0000
0000
0000
0100
0000
,  // measure 30
0000
0001
1001
0000
1100
1100
0000
0101
,  // measure 31
0000
0000
0110
0000
0100
0010
0100
0010
0100
1000
0100
1000
0100
0010
0100
0010
,  // measure 32
0100
0001
0100
0001
1000
0000
0100
0000
0001
0000
1000
0000
0010
0000
0001
0000
,  // measure 33
0100
1000
0001
0010
1000
0001
0011
0100
,  // measure 34
0001
1000
0010
0001
1000
0010
0100
1000
,  // measure 35
0001
0010
0110
1001
1010
0100
0001
0010
,  // measure 36
1000
0001
0100
1000
0010
0001
1000
0100
,  // measure 37
0002
0003
0000
0000
0000
0000
0000
0000
0000
0000
0000
0000
0000
0000
0000
0000
0000
0000
0000
0000
0000
0000
0000
0000
0000
0000
0000
0000
0000
0000
0000
0000
0000
0000
0000
0000
0000
0000
0000
0000
0000
0000
0000
0000
0000
0000
0000
0000
0011
0000
0000
0000
0000
0000
0000
0000
0000
0000
0000
0000
0000
0000
0000
0000
0000
0000
0000
0000
0000
0000
0000
0000
0100
0000
0000
0000
0000
0000
0000
0000
0000
0000
0000
0000
0000
0000
0000
0000
0000
0000
0000
0000
0000
0000
0000
0000
1000
0000
0000
0000
0000
0000
0000
0000
0000
0000
0000
0000
0000
0000
0000
0000
0000
0000
0000
0000
0000
0000
0000
0000
0010
0000
0000
0000
0000
0000
0000
0000
0000
0000
0000
0000
0000
0000
0000
0000
0000
0000
0000
0000
0000
0000
0000
0000
0001
0000
0000
0000
0000
0000
0000
0000
0000
0000
0000
0000
0000
0000
0000
0000
0000
0000
0000
0000
0000
0000
0000
0000
1000
0000
0000
0000
0000
0000
0000
0000
0000
0000
0000
0000
0000
0000
0000
0000
0000
0000
0000
0000
0000
0000
0000
0000
,  // measure 38
0100
0001
0010
1000
0001
0100
0110
1001
,  // measure 39
2000
0000
0000
0100
0000
0000
0001
0000
3020
0000
0000
0100
0000
0000
0001
0000
,  // measure 40
0230
0000
0000
0001
0000
0000
1000
0000
0320
0000
0000
1000
0000
0000
0130
0000
,  // measure 41
0002
0000
0000
0010
0000
0000
1000
0000
0203
0000
0000
0010
0000
0000
1000
0000
,  // measure 42
0320
0000
0000
0001
0000
0000
0100
0000
2030
0000
0000
0001
0000
0000
3100
0000
,  // measure 43
0020
0000
0000
0032
0000
0000
0103
0000
0002
0000
0000
2003
0000
0000
3100
0000
,  // measure 44
2000
0000
0000
3020
0000
0000
0130
0000
2000
0000
0000
3200
0000
0000
0301
0000
,  // measure 45
1000
0100
1000
0001
0010
0100
1000
0001
0010
0001
0100
0010
1000
0000
1002
0000
,  // measure 46
0000
0000
0013
0000
0100
0000
0010
0000
0001
1000
0001
0000
0100
0000
0000
0000
,  // measure 47
0010
0000
0000
0000
1000
0000
0100
0000
0001
0000
0000
0100
0000
0000
0010
0000
0001
0000
0000
0100
0000
0000
0001
0000
2000
0000
0000
0000
0000
3000
0010
0001
,  // measure 48
0010
0000
0000
0000
0100
0000
0001
0000
0010
0000
0000
0001
0000
0000
1000
0000
0100
0000
0000
0001
0000
0000
0100
0000
2000
0000
0000
0000
3000
0000
0001
0100
,  // measure 49
1000
0000
0000
0000
0100
0000
0010
0000
1000
0000
0000
0100
0000
0000
1000
0000
0001
0000
0000
0010
0000
0000
1000
0000
0020
0000
0000
0000
0030
0000
0100
1000
,  // measure 50
0010
0000
0000
0000
0100
0000
0010
0000
0001
0000
0000
0010
0000
0000
1000
0000
0001
0000
0000
0010
0000
0000
0100
0000
2000
0000
0000
0000
3000
0000
0000
0000
,  // measure 51
0201
0000
0320
0000
,  // measure 52
2030
0000
0000
0000
0002
0000
3000
0003
,  // measure 53
1200
0000
0320
0000
,  // measure 54
0032
0000
2003
3000
,  // measure 55
0201
0000
0000
0000
0000
0000
0000
0000
0320
0000
0000
0000
1030
0000
0001
1000
,  // measure 56
0002
0000
0000
0000
0000
0000
0000
0000
0023
0000
0000
0000
0130
0000
1000
0100
,  // measure 57
1000
0010
1000
0010
0100
0001
0100
0001
,  // measure 58
2000
3000
0000
0000
0000
0000
0000
0000
0000
0000
0000
0000
0000
0000
0000
0000
0000
0000
0000
0000
0000
0000
0000
0000
0011
0000
0000
0000
0000
0000
0000
0000
0000
0000
0000
0000
0000
0000
0000
0000
0000
0000
0000
0000
0000
0000
0000
0000
1100
0000
0000
0000
0000
0000
0000
0000
0000
0000
0000
0000
0000
0000
0000
0000
0000
0000
0000
0000
0000
0000
0000
0000
0101
0000
0000
0000
0000
0000
0000
0000
0000
0000
0000
0000
0000
0000
0000
0000
0000
0000
0000
0000
0000
0000
0000
0000
1010
0000
0000
0000
0000
0000
0000
0000
0000
0000
0000
0000
0000
0000
0000
0000
0000
0000
0000
0000
0000
0000
0000
0000
0000
0000
0000
0000
0000
0000
0000
0000
0000
0000
0000
0000
0000
0000
0000
0000
0000
0000
0000
0000
0000
0000
0000
0000
0100
0000
0000
0000
0000
0000
0000
0000
0000
0000
0000
0000
0000
0000
0000
0000
0000
0000
0000
0000
0000
0000
0000
0000
0001
0000
0000
0000
0000
0000
0000
0000
0000
0000
0000
0000
0000
0000
0000
0000
0000
0000
0000
0000
0000
0000
0000
0000
,  // measure 59
0010
0000
0100
1000
0000
0100
0010
0000
0001
0000
0100
0010
0000
0100
0001
0000
,  // measure 60
1000
0001
0000
0010
0100
0000
0010
0001
1000
0000
0000
0000
0001
0000
0100
0000
,  // measure 61
0010
0000
1000
0010
0000
0100
0001
0000
0010
0000
0100
0010
0000
0001
1000
0010
,  // measure 62
0100
0000
0100
0000
0010
0000
0100
0010
1000
0000
0000
0000
0001
0000
0010
0000
,  // measure 63
0100
0000
0010
0001
0000
1000
0100
0000
0010
0000
0100
1000
0000
0010
0100
0000
,  // measure 64
0001
0000
1000
0001
0000
0010
0100
0000
1100
0000
0001
0100
0000
0010
0100
0000
,  // measure 65
0101
0000
1000
0001
0000
0010
0100
0000
1100
0000
0000
0110
0000
0000
0011
0000
,  // measure 66
1002
0000
0013
0000
1001
0000
0101
0010
,  // measure 67
1010
0000
0000
1000
0001
0000
0010
0000
1100
0000
0000
0100
0010
0000
0001
0000
,  // measure 68
0101
0000
0000
0010
1000
0000
0001
1000
0100
0000
0000
0000
1100
0000
0010
0000
,  // measure 69
0011
0000
0000
0010
0100
0000
1000
0000
0010
0000
0010
0000
0100
0000
0100
0000
,  // measure 70
0001
0000
0000
1000
0000
0000
0000
0000
0000
1000
0000
0000
0010
0000
0000
0000
0000
0000
1000
0000
0000
0000
0000
0000
0001
0000
0000
0000
0100
0000
0000
0000
0001
0000
0000
0000
1000
0000
0000
0000
0010
0000
0000
0000
1000
0000
0000
0000
,  // measure 71
0100
0010
0001
0100
0001
1000
0010
0001
0010
1000
0001
0010
,  // measure 72
0200
0000
0000
0000
0000
0000
0000
0000
0310
0100
0010
0100
0010
0100
0010
0100
,  // measure 73
1000
0000
0001
1000
0100
0000
1000
0001
0100
0000
0000
0110
0000
0000
1010
0000
,  // measure 74
0101
0000
1001
0000
1200
0000
0000
0001
,  // measure 75
0000
0000
0010
0000
0000
0001
0000
0000
,  // measure 76
1000
0000
0310
0000
1002
0000
0000
0100
,  // measure 77
0000
0000
0010
0000
0000
1000
0000
0000
,  // measure 78
0100
0000
0013
0000
1100
0000
0000
0011
,  // measure 79
0000
0000
0101
0000
0000
1010
0000
0000
,  // measure 80
1001
0000
1100
0000
0011
0000
0000
0101
,  // measure 81
0000
0000
0000
0000
1010
0000
0000
0000
0200
0000
0301
1000
0001
0000
0011
0000
,  // measure 82
0110
0000
1000
0000
0010
1000
0010
1000
0100
1000
0100
1000
0001
0010
0100
1000
,  // measure 83
0010
0100
0001
0000
0010
0001
0010
0001
0100
0001
1000
0010
0100
0001
0010
0100
,  // measure 84
1000
0001
1000
0000
0001
0100
0001
0100
0010
1000
0001
0100
0001
1000
0100
1000
,  // measure 85
0001
0000
0000
0010
0000
0000
0100
0000
0000
0000
1000
0000
0000
0000
0010
0000
0000
0000
1000
0000
0000
0000
0001
0000
0000
0000
0100
0000
0000
0000
0010
0000
0000
0000
1000
0000
0000
0000
0100
0000
0000
0000
1000
0000
0000
0000
0001
0000
,  // measure 86
0000
0000
0010
0000
0000
0000
0100
0000
0000
0000
0000
0000
1000
0000
0000
0001
0000
0000
1000
0000
0000
0100
0000
0000
0010
0000
0000
0100
0000
0000
1000
0000
0000
0001
0000
0000
0100
0000
0000
0001
0000
0000
1000
0000
0000
0100
0000
0000
,  // measure 87
1000
0100
0010
0000
0001
0100
0001
1000
0010
0100
0001
0100
0001
1000
0001
0010
,  // measure 88
0100
1000
0001
0100
0001
0100
0010
1000
0010
1000
0100
0000
0010
0001
0100
0000
,  // measure 89
0010
1000
0200
0000
0000
0000
0000
0000
0000
0000
0000
0000
0000
0000
0000
0000
,  // measure 90
0300
0000
0110
0000
0001
1000
0001
0000
0101
0000
0010
1000
0010
0000
0110
0000
,  // measure 91
0001
1000
0001
1000
0100
0000
0010
0100
0010
0000
0011
0000
0100
0001
0100
0000
,  // measure 92
1100
0000
0000
0000
0100
0010
0100
0010
0001
0000
0100
0010
0100
0000
1010
0000
,  // measure 93
0010
0100
0010
0000
0101
0000
0000
0000
0010
0001
0010
0001
1000
0000
0010
0100
,  // measure 94
0010
0000
1001
0000
0100
0010
0100
0000
1010
0000
0000
0000
0000
0000
0000
0000
;
