#VERSION:0.83;
#TITLE:Ooi;
#SUBTITLE:;
#ARTIST:02i3;
#TITLETRANSLIT:;
#SUBTITLETRANSLIT:;
#ARTISTTRANSLIT:;
#GENRE:;
#ORIGIN:;
#CREDIT:;
#BANNER:bn.jpg;
#BACKGROUND:bgf.jpg;
#PREVIEWVID:;
#JACKET:;
#CDIMAGE:;
#DISCIMAGE:banner.png;
#LYRICSPATH:;
#CDTITLE:;
#MUSIC:O2i3 - Ooi.ogg;
#OFFSET:-0.225000;
#SAMPLESTART:95.780098;
#SAMPLELENGTH:12.000000;
#SELECTABLE:YES;
#DISPLAYBPM:216.000000;
#BPMS:0.000=216.000,
54.000=108.000,
54.500=324.000,
57.500=216.000,
64.000=324.000,
65.500=216.000,
68.000=324.000,
70.000=108.000,
70.500=324.000,
72.000=216.000,
136.000=108.000,
136.500=324.000,
138.000=216.000,
143.000=108.000,
143.250=324.000,
144.000=216.000,
150.000=324.000,
151.500=216.000,
175.000=108.000,
175.250=324.000,
176.000=216.000,
182.000=324.000,
183.500=216.000;
#STOPS:56.000=0.046,
56.500=0.046,
57.000=0.047,
64.000=0.046,
64.500=0.046,
65.000=0.047,
68.000=0.046,
68.500=0.046,
69.000=0.046,
69.500=0.047,
150.000=0.069,
150.750=0.070,
182.000=0.069,
182.750=0.070;
#DELAYS:;
#WARPS:;
#TIMESIGNATURES:0.000=4=4;
#TICKCOUNTS:0.000=4;
#COMBOS:0.000=1;
#SPEEDS:0.000=1.000=0.000=0;
#SCROLLS:0.000=1.000;
#FAKES:;
#LABELS:0.000=Song Start;
#BGCHANGES:;
#KEYSOUNDS:;
#ATTACKS:
;

//---------------dance-single - ----------------
#NOTEDATA:;
#CHARTNAME:;
#STEPSTYPE:dance-single;
#DESCRIPTION:;
#CHARTSTYLE:;
#DIFFICULTY:Challenge;
#METER:12;
#RADARVALUES:0.992205,1.455014,0.655071,0.545893,0.646673,827.000000,749.000000,78.000000,65.000000,34.000000,8.000000,1.000000,0.000000,0.000000,0.992205,1.455014,0.655071,0.545893,0.646673,827.000000,749.000000,78.000000,65.000000,34.000000,8.000000,1.000000,0.000000,0.000000;
#CREDIT:Hidden;
#DISPLAYBPM:216.000000;
#NOTES:
// measure 0
0000
0000
0000
0000
,  // measure 1
0000
0000
0000
0000
,  // measure 2
1000
0000
0100
0010
0000
0100
0000
0110
,  // measure 3
0000
0000
0010
0100
,  // measure 4
1100
0000
1000
0000
0010
1000
0000
1001
,  // measure 5
0000
0000
0001
0000
,  // measure 6
0101
0000
0100
0010
1000
0010
0000
1100
,  // measure 7
0000
1000
0001
0010
,  // measure 8
0100
1000
0002
0000
0000
0000
0000
0000
0000
0000
0000
0000
0000
0000
0000
0000
,  // measure 9
0000
0000
0000
0000
0000
0000
0000
0000
0000
0000
0000
0000
0000
0000
0000
0000
0000
0000
0000
0000
0000
0000
0000
0000
2003
3000
0000
0000
0020
0030
0000
0000
2000
3000
0000
0000
0000
0000
0000
0000
0200
0300
0000
0000
0000
0000
0000
0000
0020
0030
0000
0000
0000
0000
0000
0000
0200
0300
0000
0000
0000
0000
0000
0000
,  // measure 10
1100
0000
1100
0000
1100
0000
1100
0000
1000
0100
1000
0100
0010
0001
0010
0001
,  // measure 11
1000
0100
1000
0100
0010
0001
0010
0001
1000
0100
1000
0100
0010
0001
0010
0000
,  // measure 12
0011
0000
0011
0000
0011
0000
0011
0000
0001
0100
0001
0100
0010
1000
0010
1000
,  // measure 13
0001
0100
0001
0100
0010
1000
0010
1000
0002
0000
0003
0000
0000
0000
0000
0000
,  // measure 14
1001
0000
1001
0000
1001
0000
1001
0000
1000
0010
1000
0010
0100
0001
0100
0001
,  // measure 15
1000
0010
1000
0010
0100
0001
0100
0001
1000
0100
0010
0001
1000
0010
0100
0000
,  // measure 16
0110
0000
0110
0000
0110
0000
0110
0000
0010
1000
0010
1000
0001
0100
0001
0000
,  // measure 17
0101
0101
0101
0101
2002
3003
0000
0000
,  // measure 18
1000
0000
0010
0100
0010
0000
1000
0000
0001
0000
0010
0000
0100
0000
0010
0000
,  // measure 19
0001
1000
0001
0000
0010
0000
2000
0000
3000
0000
0010
0000
0001
0100
0001
0000
,  // measure 20
1000
0000
0001
0000
1000
0000
0100
0010
0001
0000
0100
0000
0001
0000
1000
0000
,  // measure 21
0010
0100
0001
0000
1000
0000
0001
0000
1000
0000
0020
0000
0100
0000
0100
0000
,  // measure 22
1030
0000
0001
0010
0001
0000
1000
0000
0100
0000
0010
0000
0100
0000
1000
0000
,  // measure 23
0010
0100
0001
0000
0100
0000
2000
0000
3000
0000
0100
0000
0001
0100
0010
0000
,  // measure 24
1000
0000
0001
0000
1000
0000
0100
0010
0001
0000
1000
0000
0001
0000
1000
0000
,  // measure 25
0010
0000
0100
0000
0001
0000
0000
0000
1000
0000
0000
0000
0001
0000
0000
0000
0200
0300
0000
0000
0200
0300
0000
0000
0020
0000
0000
0000
0000
0000
0000
0000
,  // measure 26
1030
0001
1000
0001
0010
0000
0001
1000
,  // measure 27
0001
1000
0001
1000
0100
0000
0011
0000
,  // measure 28
0001
1000
0001
1000
0010
0000
1000
0001
,  // measure 29
1000
0000
0000
0000
0001
0000
0010
0000
0001
0000
0000
0000
1000
0000
0000
0000
0020
0030
0000
0000
0200
0300
0002
0003
2000
3000
0000
0000
0002
0003
0000
0000
,  // measure 30
0100
0000
0010
0000
0100
0000
0010
0000
1000
0000
0001
1000
0100
0000
1000
0000
,  // measure 31
0010
0000
0100
0000
2000
0000
3100
0000
0010
0000
1000
0001
0020
0000
0030
0000
,  // measure 32
0011
0000
0000
0000
,  // measure 33
1000
0100
0010
0001
1000
0001
0400
0000
,  // measure 34
0302
0000
0003
0000
0000
0000
0000
0000
1001
0000
1000
0000
1000
0000
0001
0100
,  // measure 35
0001
0000
1000
0000
0001
0000
0000
0000
0010
0000
0010
0000
0200
0300
0000
0000
,  // measure 36
1001
0000
0000
0000
0001
0000
0001
0000
1000
0000
1000
0000
0010
0000
1000
0100
,  // measure 37
2000
0000
3001
0010
0001
0000
1000
0001
0010
0000
0000
0110
0000
0000
1100
0000
,  // measure 38
1000
0001
0001
0001
0200
0310
2000
0000
,  // measure 39
3001
0001
0010
0010
0100
1000
0001
0000
,  // measure 40
0002
0000
1003
0100
1000
0000
0001
1000
0001
0000
0010
0000
0100
0000
0100
0000
,  // measure 41
2000
3000
0000
0000
0020
0030
0000
0000
0200
0300
0000
0000
0002
0003
0000
0000
2000
3000
0000
0000
1001
0000
0000
0000
1001
0000
0000
0000
0000
0000
0000
0000
,  // measure 42
0001
0100
0010
0010
,  // measure 43
1000
0200
1310
0000
0001
0020
0131
0000
,  // measure 44
2000
0000
0000
0000
3011
0000
1000
0000
0010
0000
0020
0000
1130
0000
0001
1000
,  // measure 45
0002
0000
0000
0000
1103
0000
1000
0001
1000
0000
0000
0010
0000
0000
0100
0000
,  // measure 46
0010
2000
3101
1000
0002
0000
1013
0000
,  // measure 47
0001
0000
2000
0000
3101
0000
1000
0000
0001
1000
0001
1000
0001
0000
0000
0000
,  // measure 48
0200
0000
0000
0000
,  // measure 49
0300
0000
0000
0000
,  // measure 50
1001
1001
1001
1000
0000
0100
0010
0000
,  // measure 51
0001
0100
0010
1000
0000
0000
1000
0010
0100
0001
0000
0000
,  // measure 52
0101
0101
0101
0001
0000
1000
0100
0000
,  // measure 53
0010
0000
0000
0100
0000
0000
1000
0001
1000
0001
0000
0000
,  // measure 54
1001
0000
0000
1001
0000
0000
1001
0000
0000
0001
0000
0000
0000
0000
0000
0000
0000
0000
0010
0000
0100
0000
1000
0000
,  // measure 55
0001
1000
0010
0010
,  // measure 56
0110
0110
0110
0100
0001
0100
0001
1000
,  // measure 57
1010
1010
1010
1010
2000
0000
0000
3000
,  // measure 58
0011
0011
0011
0001
0000
0010
0000
0001
,  // measure 59
1001
1001
1001
1000
0000
0010
0010
0000
,  // measure 60
0101
0101
0101
0001
0000
1000
0000
0001
,  // measure 61
1001
0000
1001
0000
1001
0000
1000
0000
0001
0100
0010
0100
0001
0000
0000
0000
,  // measure 62
1000
0010
0100
0001
1000
0100
0010
0001
,  // measure 63
1000
0001
1000
0100
0010
0100
1000
0001
0010
0100
1000
0001
0100
0010
0100
0001
,  // measure 64
1000
0000
0001
0000
0010
0000
0100
0000
0000
0000
0000
0000
1000
0000
0000
0001
0000
0000
0100
0000
0000
0000
0000
0000
,  // measure 65
0010
0000
0000
0000
0000
0000
0000
0000
0000
0000
0000
0000
1000
0000
0000
0100
0000
0000
0010
0000
0000
0000
0000
0000
0100
0000
0000
0000
0000
0000
0000
0000
1000
0000
0000
0000
0001
0000
0000
0000
0000
0000
0000
0000
0000
0000
0000
0000
,  // measure 66
1001
0000
0000
0000
,  // measure 67
0000
0000
M000
0000
M000
0000
0000
0000
0000
0M00
0000
0000
0000
00M0
000M
00M0
,  // measure 68
0000
0000
0M00
0000
00M0
0000
000M
M000
,  // measure 69
0M00
0000
00M0
0000
000M
0000
M000
00M0
0M00
000M
M000
00M0
0M00
000M
00M0
0M00
,  // measure 70
100M
0000
0000
0000
1001
0000
0000
0000
1000
0000
0001
0010
0001
0000
0000
0000
,  // measure 71
1000
0001
1000
0000
0100
0000
0010
0000
0100
0000
1000
0000
0010
0100
0001
0000
,  // measure 72
1000
0000
0001
0000
1000
0000
0010
0100
0010
0000
1000
0000
0010
0000
0002
0000
,  // measure 73
0013
1000
0010
0000
1000
0000
0001
0000
0010
0000
0200
0000
1000
0000
1000
0000
,  // measure 74
1300
0000
0010
0100
0010
0000
1000
0000
0001
0000
0010
0000
0100
0000
1000
0000
,  // measure 75
0001
1000
0100
0000
0010
0000
2000
0000
3000
0000
0010
0000
0001
1000
0001
0000
,  // measure 76
1000
0000
0100
0000
1000
0000
0010
0100
0001
0000
1000
0000
0010
0000
0002
0000
,  // measure 77
0013
0100
0010
0000
0100
0000
0001
0000
1000
0000
1000
0000
0010
0100
0010
0100
,  // measure 78
0001
0000
1000
0100
0010
0000
0001
0000
1000
0000
0100
0000
1000
0000
0001
0000
,  // measure 79
1000
0010
1000
0000
0010
0000
0002
0000
0003
0000
0010
0000
0100
0010
1000
0000
,  // measure 80
0001
0000
1000
0000
0001
0000
0100
0010
1000
0000
0001
0000
0010
0000
2000
0000
,  // measure 81
3010
0100
0010
0000
0001
0000
1000
0000
0001
0000
0200
0000
0001
0000
0001
0000
,  // measure 82
0301
0000
1000
0100
1000
0000
0010
0000
0100
0000
0001
0000
0010
0000
0100
0000
,  // measure 83
1000
0001
1000
0000
0100
0000
0002
0000
0003
0000
0100
0000
0010
0100
1000
0000
,  // measure 84
0001
0000
0100
0000
0001
0000
1000
0010
1000
0000
0001
0000
0100
0000
0010
0000
,  // measure 85
0100
0000
0001
0000
1000
0000
0100
0000
0010
0000
0100
0000
1000
0000
0001
0000
0200
0300
0000
0000
0200
0300
0000
0000
0020
0030
0000
0000
0000
0000
0000
0000
,  // measure 86
2000
0000
0000
0000
3010
0100
0001
1000
0100
0010
0100
1000
0002
0000
0000
0000
,  // measure 87
0000
0000
0013
0000
0100
1000
0001
0000
2000
0000
3010
0100
0010
0000
0000
0000
,  // measure 88
0100
0000
0001
0000
1000
1001
0000
0001
,  // measure 89
0011
0011
0110
0110
,  // measure 90
0100
0010
0001
1000
0010
0100
0010
1000
0001
0010
0001
1000
0100
0010
0001
2000
,  // measure 91
0000
0000
0000
3100
0010
0100
1000
0010
0100
0001
1000
0100
1000
0001
0010
0100
,  // measure 92
2000
3000
0000
0000
2000
3000
0000
0000
0010
0000
0100
0000
0001
0000
1000
0000
0001
0000
0010
0000
0001
0000
0010
0000
0001
0000
1000
0000
0010
0000
1000
0000
,  // measure 93
0001
0100
0010
0100
0002
0000
1003
0100
0010
0000
0001
0000
0010
0000
0100
0000
,  // measure 94
1000
0001
1000
0001
0010
0000
0001
1000
,  // measure 95
0001
1000
0001
1000
0100
0000
1100
0000
,  // measure 96
1000
0001
1000
0001
0010
0000
0001
1000
,  // measure 97
0001
0000
1000
0100
1000
0000
0001
0000
0100
0000
0010
0100
0010
0000
1000
0000
,  // measure 98
0001
0000
0100
0000
0001
0000
0100
0000
0010
0000
1000
0100
0010
0000
0100
0000
,  // measure 99
1000
0000
0001
0000
0100
0000
0010
0000
1000
0000
0001
0010
0200
0000
0000
0000
,  // measure 100
2300
0000
0000
0000
0M00
0000
00M0
0000
0M00
00M0
0M00
00M0
0M00
00M0
0M00
00M0
,  // measure 101
3001
0100
0010
1000
0001
1000
0010
0000
,  // measure 102
0020
0000
0000
0000
,  // measure 103
0000
0000
0000
0000
,  // measure 104
0000
0000
0000
0000
,  // measure 105
1030
0000
0000
0000
;

//---------------dance-single - ----------------
#NOTEDATA:;
#CHARTNAME:;
#STEPSTYPE:dance-single;
#DESCRIPTION:;
#CHARTSTYLE:;
#DIFFICULTY:Hard;
#METER:10;
#RADARVALUES:0.814640,1.146375,0.655071,0.495503,0.306540,679.000000,601.000000,78.000000,59.000000,34.000000,0.000000,3.000000,0.000000,0.000000,0.814640,1.146375,0.655071,0.495503,0.306540,679.000000,601.000000,78.000000,59.000000,34.000000,0.000000,3.000000,0.000000,0.000000;
#CREDIT:Hidden;
#DISPLAYBPM:216.000000;
#NOTES:
0000
0000
0000
0000
,
0000
0000
0000
0000
,
1000
0000
0100
0010
0000
0100
0000
0110
,
0000
0000
0010
0100
,
1100
0000
1000
0000
0010
1000
0000
1001
,
0000
0000
0001
0000
,
0101
0000
0100
0010
1000
0010
0000
1100
,
0000
1000
0001
0010
,
0100
1000
0002
0000
0000
0000
0000
0000
0000
0000
0000
0000
0000
0000
0000
0000
,
0000
0000
0000
0000
0000
0000
0000
0000
0000
0000
0000
0000
0000
0000
0000
0000
0000
0000
0000
0000
0000
0000
0000
0000
2003
3000
0000
0000
0020
0030
0000
0000
2000
3000
0000
0000
0000
0000
0000
0000
0200
0300
0000
0000
0000
0000
0000
0000
0020
0030
0000
0000
0000
0000
0000
0000
0200
0300
0000
0000
0000
0000
0000
0000
,
1100
1100
1100
1100
1000
0100
0010
0001
,
1000
0100
0010
0001
1000
0100
0010
0001
,
0011
0011
0011
0011
0001
0010
0100
1000
,
0001
0010
0100
1000
0002
0003
0000
0000
,
1001
1001
1001
1001
1000
0010
0100
0001
,
1000
0010
0100
0001
1000
0100
0010
0100
,
0110
0110
0110
0110
0010
0001
0100
0001
,
0101
0101
0101
0101
2002
3003
0000
0000
,
1000
0000
0010
0100
0010
0000
1000
0000
0001
0000
0100
0000
0000
0000
0001
0000
,
1000
0100
0010
0000
0000
0000
2000
0000
3000
0000
0010
0000
0000
0000
0001
0000
,
0010
0000
0010
0000
0001
0100
0000
0001
,
0000
1000
0000
0010
0000
0002
0000
0000
,
0013
0000
0100
0010
0100
0000
0000
0000
0001
0000
0010
0000
0000
0000
0010
0000
,
0100
1000
0100
0000
0000
0000
0002
0000
0003
0000
0100
0000
0000
0000
1000
0000
,
0010
0000
0010
0000
1000
0100
0000
0002
,
0003
0000
0000
0000
0100
0000
0000
0000
0000
0000
0000
0000
0010
0000
0000
0000
0200
0300
0000
0000
0200
0300
0000
0000
0020
0000
0000
0000
0000
0000
0000
0000
,
0031
1000
0001
1000
0100
0000
1000
0001
,
1000
0001
1000
0001
0010
0000
1100
0000
,
1000
0001
1000
0001
0100
0000
0001
1000
,
0001
0000
0000
0000
1000
0000
0100
0000
1000
0000
0000
0000
0001
0000
0000
0000
0200
0300
0000
0000
0020
0030
2000
3000
0002
0003
0000
0000
2000
3000
0000
0000
,
0010
0000
0100
0000
0010
0000
0100
0000
0001
0000
1000
0001
0010
0000
0001
0000
,
0100
0000
0010
0000
0002
0000
0013
0000
0100
0000
0001
1000
0200
0000
0300
0000
,
1100
0000
0000
0000
,
1000
0100
0010
0001
1000
0001
0400
0000
,
0302
0000
0003
0000
0000
0000
0000
0000
1001
0000
1000
0000
1000
0000
0001
0100
,
0001
0000
1000
0000
0001
0000
0000
0000
0010
0000
0010
0000
0200
0300
0000
0000
,
1001
0000
0001
0001
1000
1000
0010
0000
,
2000
0000
3000
0000
0001
0000
1000
0001
0010
0000
0000
0110
0000
0000
1100
0000
,
1000
0001
0001
0001
0200
0310
2000
0000
,
3001
0001
0010
0010
0100
1000
0001
0000
,
0002
0000
1003
0100
1000
0000
0001
1000
0001
0000
0010
0000
0100
0000
0100
0000
,
2000
3000
0000
0000
0020
0030
0000
0000
0200
0300
0000
0000
0002
0003
0000
0000
2000
3000
0000
0000
1001
0000
0000
0000
1001
0000
0000
0000
0000
0000
0000
0000
,
0001
0100
0010
0010
,
1000
0100
1100
0000
0001
0001
0011
0000
,
1100
0000
1001
0001
0100
0100
0101
0000
,
0002
0000
0000
0000
1003
0000
0100
0010
0100
0000
0000
1000
0000
0000
0010
0000
,
0100
0001
1001
1000
0100
0000
1001
0000
,
0001
0000
0001
0000
1001
0000
1000
0000
0001
0010
0001
0010
0001
0000
0000
0000
,
0200
0000
0000
0000
,
0300
0000
0000
0000
,
1001
1001
1001
1000
0000
0100
0010
0000
,
0001
0100
0010
1000
0000
0000
1000
0010
0100
0001
0000
0000
,
0101
0101
0101
0001
0000
1000
0100
0000
,
0010
0000
0000
0100
0000
0000
1000
0001
1000
0001
0000
0000
,
1001
0000
0000
1001
0000
0000
1001
0000
0000
0001
0000
0000
0000
0000
0000
0000
0000
0000
0010
0000
0100
0000
1000
0000
,
0001
1000
0010
0010
,
0110
0110
0110
0100
0001
0100
0001
1000
,
1010
1010
1010
1010
2000
0000
0000
3000
,
0011
0011
0011
0001
0000
0010
0000
0001
,
1001
1001
1001
1000
0000
0010
0010
0000
,
0101
0101
0101
0001
0000
1000
0000
0001
,
1001
0000
1001
0000
1001
0000
1000
0000
0001
0100
0001
0100
0001
0000
0000
0000
,
1000
0010
0100
0001
1000
0100
0010
0001
,
4000
0004
0000
0000
0000
0000
0000
0000
0000
0000
0000
0000
0000
0000
3000
0003
,
1000
0000
0001
0000
0010
0000
0100
0000
0000
0000
0000
0000
1000
0000
0000
0001
0000
0000
0100
0000
0000
0000
0000
0000
,
0010
0000
0000
0000
0000
0000
0000
0000
0000
0000
0000
0000
1000
0000
0000
0100
0000
0000
0010
0000
0000
0000
0000
0000
0100
0000
0000
0000
0000
0000
0000
0000
1000
0000
0000
0000
0001
0000
0000
0000
0000
0000
0000
0000
0000
0000
0000
0000
,
1001
0000
0000
0000
,
0000
0000
M000
0000
M000
0000
0000
0000
0000
0M00
0000
0000
0000
00M0
000M
00M0
,
0000
0000
0M00
0000
00M0
0000
000M
M000
,
0M00
0000
00M0
0000
000M
0000
M000
00M0
0M00
000M
M000
00M0
0M00
000M
00M0
0M00
,
100M
0000
0000
0000
1001
0000
0000
0000
1000
0000
0001
0010
0001
0000
0000
0000
,
1000
0000
0100
0000
0000
0000
0010
0000
0000
0000
0100
0000
1000
0001
1000
0000
,
0010
0000
0000
0000
0010
0000
0100
0001
0100
0000
0010
0000
0000
0000
0002
0000
,
0003
0010
0000
1000
0000
0200
0000
0000
,
1300
0000
0010
0100
0010
0000
1000
0000
0001
0000
0010
0000
0000
0000
0010
0000
,
0001
1000
0100
0000
0000
0000
0002
0000
0003
0000
0100
0000
0000
0000
1000
0000
,
0001
0000
0001
0000
1000
0010
0000
0002
,
0003
0000
0010
0000
0000
0000
1000
0000
0001
0000
0001
0000
0010
0100
0010
0100
,
1000
0000
1000
0000
0001
1000
0000
1000
,
0100
0010
0100
0000
0000
0000
0002
0000
0003
0000
0100
0000
0000
0000
1000
0000
,
0001
0000
0001
0000
0100
0010
0000
0002
,
0003
0010
0000
1000
0000
0020
0000
0000
,
0130
0000
0001
1000
0001
0000
0000
0000
0010
0000
0100
0000
0000
0000
0100
0000
,
0010
0001
0010
0000
0000
0000
2000
0000
3000
0000
0010
0000
0000
0000
0001
0000
,
1000
0000
1000
0000
0010
0100
0000
0001
,
0100
0000
0001
0000
0100
0000
0001
0000
0100
0000
0001
0000
0100
0000
0001
0000
2000
3000
0000
0000
2000
3000
0000
0000
0020
0030
0000
0000
0000
0000
0000
0000
,
2000
0000
0000
0000
3010
0100
0001
0000
1000
0000
0010
0000
2000
0000
0000
0000
,
0000
0000
3010
0000
0100
0001
1000
0000
0002
0000
0013
0100
0010
0000
0000
0000
,
0100
0000
1000
0000
1000
1001
0000
0001
,
0011
0011
0110
0110
,
0100
0000
1000
0000
0001
0000
0010
0000
0100
0000
1000
0000
0010
0100
0001
2000
,
0000
0000
0000
3100
0010
0000
0001
0000
0100
0000
0010
0000
0100
0000
0001
0000
,
2000
3000
0000
0000
2000
3000
0000
0000
0010
0000
0000
0000
0100
0000
0000
0000
0001
0000
0010
0000
0001
0000
0010
0000
0001
0000
0000
0000
0100
0000
0000
0000
,
0010
0000
1000
0000
0002
0000
1003
0100
0010
0000
0001
0000
0010
0000
0100
0000
,
1000
0001
1000
0001
0010
0000
0001
1000
,
0001
1000
0001
1000
0100
0000
1100
0000
,
1000
0001
1000
0001
0010
0000
0001
1000
,
0001
0000
1000
0100
1000
0000
0001
0000
0100
0000
0010
0100
0010
0000
1000
0000
,
0001
0000
0100
0000
0001
0000
0100
0000
0010
0000
1000
0100
0010
0000
0100
0000
,
1000
0000
0001
0000
0100
0000
0010
0000
1000
0000
0001
0010
0200
0000
0000
0000
,
2300
0000
0000
0000
0M00
0000
00M0
0000
0M00
00M0
0M00
00M0
0M00
00M0
0M00
00M0
,
3001
0100
0010
1000
0001
1000
0010
0000
,
0020
0000
0000
0000
,
0000
0000
0000
0000
,
0000
0000
0000
0000
,
1030
0000
0000
0000
;
