#TITLE:On The FM;
#SUBTITLE:;
#ARTIST:C-Show;
#TITLETRANSLIT:;
#SUBTITLETRANSLIT:;
#ARTISTTRANSLIT:;
#GENRE:;
#CREDIT:;
#MUSIC:[Short] - On The FM.ogg;
#BANNER:[Short] - On The FM.png;
#BACKGROUND:[Short] - On The FM-bg.png;
#CDTITLE:;
#SAMPLESTART:60.809;
#SAMPLELENGTH:9.600;
#SELECTABLE:YES;
#OFFSET:0.091;
#BPMS:0.000=200.000
,11.000=400.000
,12.000=200.000
,24.000=100.000
,25.500=500.000
,28.000=400.000
,30.000=200.000
,43.000=400.000
,52.000=100.000
,56.000=200.000
,60.000=400.000
,67.000=200.000
,131.000=100.000
,134.500=500.000
,137.000=100.000
,153.000=200.000
,156.000=400.000
,164.000=200.000
,239.000=400.000
,247.000=200.000
,248.000=400.000
,250.000=200.000
;
#STOPS:11.000=0.150
,28.000=0.050
,28.333=0.050
,28.667=0.050
,29.000=0.050
,29.333=0.050
,29.667=0.050
,43.000=0.150
,44.000=0.225
,45.500=0.225
,47.000=0.225
,48.500=0.225
,50.000=0.150
,51.000=0.150
,66.000=0.150
,153.000=0.375
,153.250=0.375
,153.500=0.375
,153.750=0.375
,154.000=0.225
,154.250=0.225
,154.500=0.375
,154.750=0.375
,155.000=0.375
,155.250=0.375
,155.500=0.225
,155.750=0.225
,156.000=0.150
,157.000=0.150
,158.000=0.150
,159.000=0.150
,160.000=0.050
,160.333=0.050
,160.667=0.050
,161.000=0.050
,161.333=0.050
,161.667=0.050
,162.000=0.050
,162.333=0.050
,162.667=0.050
,163.000=0.050
,163.333=0.050
,163.667=0.050
,236.000=0.375
,236.250=0.375
,236.500=0.375
,236.750=0.375
,237.000=0.225
,237.250=0.225
,237.500=0.375
,237.750=0.375
,238.000=0.375
,238.250=0.375
,238.500=0.225
,238.750=0.225
,239.000=0.150
,240.000=0.150
,241.000=0.150
,242.000=0.150
,243.000=0.050
,243.333=0.050
,243.667=0.050
,244.000=0.050
,244.333=0.050
,244.667=0.050
,245.000=0.050
,245.333=0.050
,245.667=0.050
,246.000=0.050
,246.333=0.050
,246.667=0.050
,247.000=0.375
,247.250=0.375
,247.500=0.225
,247.750=0.225
,248.000=0.600
;
#DISPLAYBPM:100.000:200.000;
#BGCHANGES:;
#FGCHANGES:;

//--------------- dance-single - ----------------
#NOTES:
     dance-single:
     :
     Easy:
     4:
     0,0,0,0,0:
0000
0000
0000
0000
,
0000
0000
0000
0000
,
0000
0000
0000
1001
,
0000
0001
0000
1000
,
0000
0100
0010
0100
,
1001
0000
0110
0000
,
2002
0000
0000
0000
,
0000
0000
3003
0000
,
0000
0000
1000
0000
,
0001
0000
1000
0000
,
0010
0000
1001
2002
,
3000
0000
0000
0000
,
0000
0000
0000
0000
,
0003
0000
0000
0000
,
2000
0000
0000
0000
,
0200
0000
0000
0000
,
0000
0000
3300
0000
,
0000
0000
1000
0100
,
1000
0001
0000
0001
,
1000
0001
0000
0100
,
0010
0100
0010
1000
,
0000
1000
0000
1000
,
0001
1000
0000
0001
,
0000
0100
0000
0000
,
1001
0000
1001
0001
,
0000
0100
0000
0001
,
0100
0010
0000
1000
,
0100
1000
1000
0010
,
1000
0001
0000
1000
,
0000
0010
0000
0010
,
1000
0001
0000
1001
,
0000
1100
0000
0011
,
0000
1000
1000
0020
,
0000
0000
0000
1030
0001
2000
0000
0000
,
0000
3000
1100
0000
,
0011
0000
0101
0000
,
1010
0100
0001
0100
,
1000
0010
0001
0010
,
1000
0001
2002
0000
0000
0000
0000
0000
,
0000
0000
0000
0000
,
0000
0000
0000
0000
,
3003
0000
0000
1000
,
0001
0200
0000
0310
,
0000
0010
0000
0010
,
0000
1000
0000
1000
,
0100
1000
0100
1000
,
0010
0000
0100
0001
,
0101
0000
1100
0000
,
0001
0001
1000
1000
,
0100
0000
0010
0010
,
0002
0000
0203
0300
,
0010
0000
1000
0000
,
1001
0000
0110
0000
,
1001
0000
0001
0100
,
0001
0000
0001
0010
,
0100
1000
0001
0000
,
1000
1000
0100
0010
,
0001
0000
1000
0000
,
0010
1000
1000
0000
,
0202
0000
0000
0000
,
0000
0000
0000
0000
,
0000
0000
0000
0000
,
0000
0000
0303
0000
,
1100
0000
0001
1000
,
0001
0000
1001
0000
,
1000
0001
1000
0000
,
0100
0010
0100
0000
,
1010
0000
0100
0000
,
0011
0000
1000
0010
,
1000
0001
0100
0001
,
1000
0100
0020
0000
,
0030
0110
1001
0110
;

//--------------- dance-single - ----------------
#NOTES:
     dance-single:
     :
     Medium:
     8:
     0,0,0,0,0:
0000
0000
0000
0000
,
0000
0000
0000
0000
,
0000
0000
0000
0000
0000
0000
0000
0000
0000
0000
0000
0000
2002
3003
0000
0000
,
0001
0100
0010
1000
,
0100
0010
0001
0000
0010
0000
0010
0000
,
1100
1100
1010
0101
,
0022
0000
0033
0002
0000
0000
0000
0000
,
0203
0000
0000
0000
0300
0010
0000
0100
,
0000
0001
0000
0010
0000
0000
0001
0000
,
1001
1000
0100
1000
,
0001
0000
0000
0000
0100
0000
0000
0000
0001
0000
0000
0000
0022
0033
0000
0000
,
2200
3300
0000
0000
0000
0000
0200
0300
0000
0000
0000
0000
0002
0003
0000
0000
,
0000
0000
0020
0030
0000
0000
0000
0000
2000
3000
0000
0000
0002
0003
0000
0000
,
0200
0000
0000
0000
,
0310
1000
0100
0001
,
0100
0000
1000
0000
,
0001
0000
0000
0000
0000
0000
0000
0000
2002
3003
0000
0000
0001
0000
0010
0000
,
0001
0010
0000
0100
0000
0010
0000
0100
,
1000
0100
1000
0000
1001
0000
1000
1000
,
0010
0100
0000
0100
0000
0001
0000
0001
,
0000
0010
0100
1000
0100
0000
0100
1000
,
0010
0100
0000
0001
0000
0010
0000
1000
,
0010
0000
0002
0000
0000
0003
0000
0000
1001
0000
0000
0000
1000
0000
0001
0000
,
0100
0010
0000
1000
0000
1001
0000
0000
,
0101
0000
1100
0000
0201
0000
0310
0100
,
0010
0000
1000
0001
0010
0100
1000
0000
,
1000
0000
1000
0000
0110
0000
1000
0010
,
0100
0010
0000
0001
0000
0010
0000
0100
,
0000
0010
1000
0001
1000
0100
0010
0000
,
0010
0001
1000
0010
,
0010
0000
0010
0000
1001
0000
1000
0100
,
1000
0000
0001
0100
0001
0010
0000
0000
,
1000
0000
0000
0000
0000
0000
0000
0000
0100
0000
0000
0000
0000
0000
0000
0000
0001
0000
0000
0000
0000
0000
0000
0000
2020
0030
0000
0000
0000
0000
0000
0000
,
0100
0000
0001
0010
3001
0200
0000
0000
,
0000
0000
0000
0000
0300
0000
0000
0000
0110
0000
0000
0000
1000
0001
1000
0010
,
0100
0000
0100
0000
0011
0000
1000
0000
1100
0000
0001
0000
0010
0100
0010
0001
,
0010
0000
0100
0000
1010
0000
0100
0000
0001
0000
0010
0000
0100
1000
0010
0100
,
0001
0010
1001
1000
0001
0001
0010
0100
,
1000
0000
0000
0000
1000
0000
0000
0000
2000
3000
0020
0030
0200
0300
0002
0003
0020
0030
0020
0030
0200
0300
2000
3000
0020
0030
0200
0300
0002
0003
0002
0003
,
0010
0010
0100
0100
,
1000
0100
0010
0001
,
0101
0000
0000
1010
0000
0000
1000
0000
,
0100
0010
0100
1000
,
0010
0000
0100
0010
0000
0000
1000
0000
0100
0010
0000
0000
,
0100
0000
0010
0001
0000
0000
0100
0000
0000
0001
0000
0000
,
1000
0000
0010
1000
0000
0000
0001
0000
0100
0001
0000
0000
,
1000
0100
0001
0100
,
1000
0000
0010
0100
0000
0000
0001
0000
0010
0100
0000
0000
,
0011
0011
1100
1001
,
0001
0000
0010
0100
0000
0000
0100
0000
1000
0010
0000
0000
,
0100
0000
0001
0010
0000
0000
2020
0000
0000
3030
0000
0000
,
0001
0000
0100
0001
0000
0000
0001
0000
0010
0100
0000
0000
,
1000
0000
0100
1000
0000
1000
0010
0000
0100
0010
0000
0100
,
0010
0010
0100
0001
,
0010
0000
0100
1000
0000
1000
0001
0000
0000
1001
0000
0000
,
1000
0000
0001
1000
0000
0000
0010
0000
0000
0100
0000
0100
,
0001
0000
0001
0010
0000
0100
1000
0000
1000
0010
0000
0100
,
0010
0000
0010
1000
0000
1000
0001
0000
0001
0000
0000
1000
,
0000
0001
0110
1001
,
0002
0003
0200
0300
2000
3000
0020
0030
0002
0003
0002
0003
2000
3000
0020
0030
0200
0300
0002
0003
0020
0030
0020
0030
1001
0000
0000
0000
0000
0000
0000
0000
,
1000
0010
0010
0100
,
0001
0000
0000
0000
0000
0000
0000
0000
0010
0000
0000
0000
0000
0000
0000
0000
1000
0000
0000
0000
0000
0000
0000
0000
0020
0030
0020
0030
0002
0003
0200
0300
,
0020
0000
0030
0000
,
1100
0000
1000
0010
1000
0000
0100
0000
,
0010
0001
0012
0103
,
0001
0000
1000
0000
0010
0100
1000
0100
,
0010
1000
0110
0001
,
0010
0100
0010
0100
1000
0000
0100
0000
,
1000
0010
0101
1000
,
0001
1000
0001
1000
0010
0100
0010
0100
,
0020
0000
0000
0030
0100
0000
0000
0100
,
0000
1001
0001
0010
,
1000
0000
0000
0000
;

//--------------- dance-single - Wari ----------------
#NOTES:
     dance-single:
     Wari:
     Hard:
     10:
     0,0,0,0,0:
0000
0000
0000
0000
,
0000
0000
0000
0000
,
0000
0000
0000
0000
0000
0000
0000
0000
0000
0000
0000
0000
2002
3003
0000
0000
,
1000
0100
1000
0100
1000
0001
1000
0001
,
0010
0001
0100
1000
0100
0000
0100
0000
,
1010
0101
0011
0101
,
2002
0000
0000
0000
0000
3003
0200
0000
0000
0000
0000
0000
0000
0000
0300
0000
,
1100
0000
0011
0000
0010
0001
0000
1000
,
0000
1000
0000
0100
1000
0010
0100
0000
,
1100
0000
0000
0000
0100
0000
0000
0000
0010
0000
0001
0010
0100
0000
1000
0000
,
0010
0000
0100
0000
0000
0000
0100
0000
0000
0000
0001
0000
2002
3003
0000
0000
,
2200
3300
0000
0000
0000
0000
0022
0033
0000
0000
0000
0000
0202
0303
0000
0000
,
0000
0000
2020
3030
0000
0000
0000
0000
2002
3003
0000
0000
2200
3300
0000
0000
,
2002
0000
0000
0000
0000
0000
0000
3003
,
0001
1000
0001
1000
0001
1000
0001
1000
,
0110
0000
0101
0000
,
1010
0000
0000
0000
0000
0000
0000
0000
2002
3003
0000
0000
0100
0000
0001
0000
,
0100
0010
0100
1000
0100
0001
0010
0100
,
0010
0000
1000
0000
0010
0000
0000
0000
1001
0000
0000
0000
1000
0010
1000
0000
,
0001
0010
0100
1000
0000
0101
0000
1100
,
0000
0000
1000
0000
0001
0000
0010
0000
0100
0000
1000
0000
0001
0100
0010
0000
,
1000
0100
0010
0000
0001
0000
1000
0000
0100
0000
0010
0000
0001
0000
0100
0000
,
0010
2000
0010
0000
3001
0000
0010
0100
,
1000
0010
0100
0010
0000
2200
0000
3300
,
0110
0000
0101
0000
0110
0000
0001
0100
,
0000
0011
0000
0110
0000
1001
0000
1000
,
0100
0000
0001
0000
0100
0000
0000
0000
1010
0000
0000
0000
0010
0100
0010
0000
,
0100
0001
0100
0000
0001
0000
0010
0000
0000
0000
1000
0000
0000
0000
0010
0000
,
0000
0002
0203
0320
2030
3200
0310
0100
,
0000
1100
0000
0110
0000
0011
0000
1000
,
0001
0100
0010
0000
1010
0000
1000
0010
,
0000
0001
0000
0010
0000
0200
0000
0300
,
0100
0000
0000
0000
0100
0000
0000
0000
1001
0000
0000
0000
0001
0001
0001
0000
,
1000
1000
1000
0000
0100
0000
0010
0000
0001
1000
0020
0000
0000
0000
0000
0000
,
0000
0000
0030
0000
1001
0000
0010
0000
0011
0001
0100
0010
1000
0001
0010
0100
,
1100
0000
1000
0000
0010
0000
1000
0000
1010
1000
0010
0100
0001
0010
0100
0010
,
0011
0000
0001
0000
1100
0000
0001
0000
0001
0010
0001
0100
0010
1000
0100
0010
,
0100
0010
0001
0000
1001
1000
0001
0100
0010
1000
0100
0010
0001
0100
0010
1000
,
0100
0000
1000
0000
1100
1100
1010
0110
0011
1100
0110
0101
0011
1010
0101
0000
,
1100
1100
0011
0011
,
1000
0100
0010
0001
0100
0010
1000
0100
0001
0100
0010
0001
,
0100
0000
0000
1001
0000
0000
1100
0000
,
0011
0000
0000
0001
0000
0000
0100
0000
0000
0001
0100
0010
,
1000
0000
0100
0010
0000
0001
0100
0000
0010
1000
0000
0010
,
0100
0000
0010
0100
0001
0010
0100
1000
0010
0100
0000
0001
,
1000
0100
1000
0100
0010
0001
0100
0000
0010
1000
0000
0001
,
0100
0000
0010
1000
0100
0010
0001
0000
1000
0100
0000
1000
,
0010
0000
1000
0001
0000
0100
0001
0010
0100
1000
0000
1000
,
0010
0000
0100
0001
0000
0001
0010
0100
1000
0010
0100
0001
,
0010
0000
0001
0100
0000
0010
1000
0000
0100
0010
0000
0100
,
0010
0000
0100
1000
0000
1000
0010
0000
0000
1001
0000
0001
,
0010
0000
0010
0100
0000
0100
1000
0000
1000
0010
0000
0100
,
0001
0000
0001
1000
0100
0010
0001
0100
0001
0010
0100
1000
,
0010
0100
0001
0010
0100
1000
0010
0000
0100
0001
0000
1000
,
0100
0000
0010
0001
0000
0100
0010
0000
0000
1010
0000
0000
,
1100
0000
0100
0010
0000
0010
0001
0000
0001
0100
0000
0010
,
1000
0000
1000
0001
0000
0001
1000
0001
0010
0100
1000
0100
,
0010
0001
0010
0001
1000
0001
0100
0000
0010
0000
0000
1020
,
0000
0000
0030
0000
1000
0000
0100
0000
0000
0000
0010
0000
0002
0000
0000
0000
0000
0003
2200
0000
0000
0000
3300
0000
,
1010
0101
1001
1100
0011
1100
1010
1001
0011
1100
0011
1100
1100
0000
0000
0000
,
0100
0000
0000
0010
0000
0000
0001
0000
0000
0100
0010
1000
,
0100
0000
0000
0000
0010
0000
0000
0000
0001
0000
0000
0000
0100
0000
0000
0000
1000
0000
0000
0000
0100
0000
0000
0000
0001
0000
0000
0000
0010
0000
0000
0000
0100
0000
0000
0000
0010
0000
0000
1100
0000
0000
0101
0000
0000
1010
0000
0000
,
0200
0000
0000
0000
0000
0000
0000
0300
1001
0000
0000
0000
1000
0000
0000
0000
,
0100
0010
0001
0000
0100
0001
0100
0000
,
0010
1000
0001
0000
1100
0000
0001
0000
,
0100
0010
1000
0100
0010
0001
0010
0100
,
2000
3010
0101
1001
,
1000
0100
0010
0100
1000
0010
0100
0010
,
0100
0000
0000
0000
0101
0000
0000
0000
0011
0000
0001
0100
0010
0000
1000
0000
,
0100
0010
0001
0100
0010
1000
0100
1000
,
0020
0000
0100
0030
1010
0000
0000
0101
,
0000
0011
1000
0100
,
0001
0000
0000
0000
;
