#TITLE:OMGWTH;
#SUBTITLE:;
#ARTIST:aran;
#TITLETRANSLIT:;
#SUBTITLETRANSLIT:;
#ARTISTTRANSLIT:;
#GENRE:;
#CREDIT:;
#BANNER:[Short] - OMGWTH.png;
#BACKGROUND:[Short] - OMGWTH-bg.png;
#LYRICSPATH:;
#CDTITLE:cdtitle.png;
#MUSIC:[Short] - OMGWTH.ogg;
#OFFSET:-0.888000;
#SAMPLESTART:67.134003;
#SAMPLELENGTH:15.000000;
#SELECTABLE:YES;
#BPMS:0.000000=87.000000
,64.000000=174.000000
;
#STOPS:
;
#BGCHANGES:;
#KEYSOUNDS:;
#ATTACKS:;

//---------------dance-single - ----------------
#NOTES:
     dance-single:
     :
     Beginner:
     2:
     0.134959,0.157726,0.024645,0.000000,0.000000,112.000000,3.000000,0.000000,0.000000,0.000000,0.000000,0.134959,0.157726,0.024645,0.000000,0.000000,112.000000,3.000000,0.000000,0.000000,0.000000,0.000000:
0000
0000
0000
0000
,
0000
0000
0000
0000
,
0000
0000
0000
0000
,
0000
0000
0000
0000
,
0000
1000
0000
1000
,
0000
0100
0000
0100
,
0000
0001
0000
0001
,
0000
0100
0000
0100
,
0100
0000
0010
0000
,
0100
0100
0010
0000
,
1000
0000
0001
0000
,
1000
1000
0001
0000
,
0010
0000
0100
0000
,
0010
0010
0100
0000
,
0001
0000
1000
0000
,
0001
0000
0000
1001
,
0000
0001
0001
0000
,
0000
0100
0100
0000
,
0000
1000
1000
0000
,
0000
0100
0100
0000
,
0000
0001
0001
0000
,
0000
0010
0010
0000
,
0000
1000
1000
0000
,
0000
0010
0010
0000
,
0001
0000
0100
0000
,
1000
0000
1000
0000
,
1000
0000
0100
0000
,
0001
0000
0001
0000
,
0001
0000
0010
0000
,
1000
0000
0010
0000
,
0001
0000
0010
0000
,
1000
1000
1000
0000
,
0000
0000
0000
0000
,
0000
0000
0000
1001
,
0000
0000
0000
0000
,
0000
0000
0000
0010
,
0100
0000
0000
0000
,
0000
0000
0000
0010
,
0000
0000
0000
0000
,
0001
0001
0001
0001
,
0000
0000
0000
0000
,
0000
0000
0000
1001
,
0000
0000
0000
0000
,
0000
0000
0000
0100
,
0010
0000
0000
0000
,
0000
0000
0000
0100
,
0000
0000
0000
0000
,
1000
1000
1000
1000
,
0000
0000
0000
0001
,
0000
0001
0000
0001
,
0000
0001
0000
0001
,
0000
0001
0010
0010
,
0000
0000
0000
1000
,
0000
1000
0000
1000
,
0000
1000
0000
1000
,
0001
0001
0001
0001
,
0000
0000
0000
0100
,
0000
0010
0000
0100
,
0000
0010
0000
0100
,
0000
0010
1000
1000
,
0000
1000
0000
0001
,
0000
1000
0000
0001
,
0000
1000
0000
0001
,
1000
1000
1000
1000
,
1000
0000
0000
0000
;

//---------------dance-single - ----------------
#NOTES:
     dance-single:
     :
     Hard:
     9:
     0.511671,0.704839,0.098579,0.073934,0.287522,415.000000,12.000000,9.000000,0.000000,0.000000,0.000000,0.511671,0.704839,0.098579,0.073934,0.287522,415.000000,12.000000,9.000000,0.000000,0.000000,0.000000:
// measure 0
0000
0000
0000
0000
,  // measure 1
0000
0000
0000
0000
,  // measure 2
0000
0000
0000
0000
,  // measure 3
0000
0000
0000
0000
,  // measure 4
0001
1000
0100
1000
0000
0001
0100
0001
0000
0001
0010
0001
0000
1000
0010
1000
,  // measure 5
0000
0100
1000
0100
0000
1000
0001
1000
0000
0001
0010
0001
0000
0100
1000
0100
,  // measure 6
0010
0100
1000
0001
0000
0100
0001
1000
0000
0100
0010
0001
0000
0100
0010
1000
,  // measure 7
0000
1000
0001
0010
0000
0001
1000
0010
0000
0100
0001
0010
0000
0100
0100
0000
,  // measure 8
1100
0000
0100
1000
0001
0010
0100
1000
0001
0010
0100
1000
0001
0000
0000
0000
,  // measure 9
0010
0000
0000
0000
0000
0000
0001
0000
0000
1000
0000
0000
0010
0000
0000
0000
0010
0000
0000
0000
0000
0100
0000
0000
0001
0000
0000
0100
0000
0000
0001
0000
0000
0000
0000
0000
1000
0000
0000
0000
0000
0000
0000
0000
0000
0000
0000
0000
,  // measure 10
0001
0100
1000
0100
0001
0000
1000
1000
0000
0100
0000
0001
0100
0000
1000
1000
,  // measure 11
0001
0100
0001
0000
0010
0000
0100
1000
0001
0010
0001
0000
0100
0000
0000
0000
,  // measure 12
0010
1000
0010
0100
0001
0100
0000
1000
0100
1000
0001
0010
0001
0000
0001
0100
,  // measure 13
0010
0100
0010
0000
0010
0000
0010
1000
0000
0001
0000
1000
0100
1000
0001
0100
,  // measure 14
0010
1000
0001
0100
0010
0000
1001
0000
0000
1000
0100
0000
0101
0000
0001
0100
,  // measure 15
0010
1000
0100
0010
0001
0000
0010
0000
1000
0000
0000
0000
0110
0000
0000
0000
,  // measure 16
0001
0000
0100
0010
0000
0010
0000
1000
,  // measure 17
0100
0000
1000
0010
0000
0010
0000
0100
,  // measure 18
0001
0000
1000
0100
0000
0100
0000
1000
,  // measure 19
0010
0000
0001
0100
0000
0100
0000
0001
,  // measure 20
0010
0000
0100
1000
0000
1000
0000
0010
,  // measure 21
0100
0000
0100
0001
0000
0001
0000
0100
,  // measure 22
0010
0000
0001
1000
0000
1000
0000
0010
,  // measure 23
0100
0000
1000
0001
0000
0001
0000
1000
,  // measure 24
0100
0000
0100
1000
0001
0100
0001
1000
,  // measure 25
0100
0000
0001
0100
0010
1000
0010
0100
,  // measure 26
0001
0000
1000
0001
0010
0001
0100
0010
,  // measure 27
0100
0000
0001
1000
0100
0010
0001
1000
,  // measure 28
0001
0000
1000
0100
0010
0001
1000
0100
,  // measure 29
0010
0000
0001
0100
0010
1000
0001
0100
,  // measure 30
0010
0000
1000
0010
0001
0010
1000
0001
,  // measure 31
0100
0000
0100
0100
0200
0000
0310
0000
,  // measure 32
1000
0000
0001
0200
0000
0000
0001
0000
,  // measure 33
0000
1000
0000
0000
0301
0000
0110
0000
,  // measure 34
0001
0000
1000
0100
0000
0100
0010
0000
,  // measure 35
0000
0010
0001
0000
0100
0010
1000
0010
,  // measure 36
0100
0000
0010
2000
0000
0000
3100
0000
,  // measure 37
0000
0001
0100
0000
0001
0100
1001
0000
,  // measure 38
0100
0000
0001
0001
0010
0010
0100
0100
,  // measure 39
1000
0001
0100
0010
1000
0001
0100
0010
,  // measure 40
0100
0000
0100
0020
0000
0000
1000
0000
,  // measure 41
0000
0001
0000
0000
1030
0000
0110
0000
,  // measure 42
0100
0000
0001
0010
0000
0010
0100
0000
,  // measure 43
0000
0100
1000
0000
0010
1000
0100
1000
,  // measure 44
0001
0000
0100
0020
0000
0000
1030
0000
,  // measure 45
0000
1000
0100
0000
1000
0100
0110
0000
,  // measure 46
0000
0000
0001
0100
0001
0000
0001
0000
0100
0000
0010
0000
0100
0000
0001
0000
,  // measure 47
0000
0000
1000
0100
1000
0000
1000
0000
0001
0000
1000
0000
0010
0000
0000
0000
,  // measure 48
0001
0000
1000
0200
0000
0000
1300
0000
,  // measure 49
0000
0101
0000
0000
1100
0000
1001
0000
,  // measure 50
1000
0000
0001
0100
0000
0100
0010
0000
,  // measure 51
0000
0010
1000
0000
0001
0100
0010
0100
,  // measure 52
0001
0000
0010
0002
0000
0000
0103
0000
,  // measure 53
0000
0010
0100
0000
0010
0100
1001
0000
,  // measure 54
1000
0000
0100
0100
0010
0010
0001
0001
,  // measure 55
0100
0010
1000
0001
0100
0010
1000
0001
,  // measure 56
0001
0100
0001
0100
0000
0010
0100
0010
,  // measure 57
0000
1000
0010
1000
0000
0100
1000
0100
,  // measure 58
0000
0010
0100
0010
0000
0001
0010
0001
,  // measure 59
0000
0100
0001
0100
0000
0001
1000
0010
,  // measure 60
0000
1000
0001
0100
0010
0100
0001
0010
,  // measure 61
0100
1000
0001
0100
0001
1000
0100
0010
,  // measure 62
0001
0100
0010
1000
0001
0010
0100
1000
,  // measure 63
0001
0100
0001
0100
0010
1000
0100
2000
,  // measure 64
0002
0000
0000
0000
,  // measure 65
0000
0000
0000
0000
,  // measure 66
3003
0000
0000
0000
;

//---------------dance-single - ----------------
#NOTES:
     dance-single:
     :
     Medium:
     6:
     0.380233,0.460856,0.057504,0.238232,0.041075,288.000000,7.000000,29.000000,0.000000,0.000000,0.000000,0.380233,0.460856,0.057504,0.238232,0.041075,288.000000,7.000000,29.000000,0.000000,0.000000,0.000000:
0000
0000
0000
0000
,
0000
0000
0000
0000
,
0000
0000
0000
0000
,
0000
0000
0000
0000
,
1000
0000
1000
0100
1000
0000
0001
0100
,
0001
0000
1000
0100
1000
0000
0001
0010
,
0001
0000
1000
0010
0100
0000
0010
0100
,
0001
0000
0000
0000
0001
0000
1000
0000
0100
0000
0000
0100
0020
0000
0000
0000
,
0031
0000
0100
0000
0001
0000
0001
0100
0001
0100
0001
0100
0001
0000
0000
0000
,
1000
0000
0100
0000
0001
0000
0000
0000
1000
0100
1000
0000
1000
0000
0000
0000
,
0010
0100
0001
0100
0000
0100
0010
0100
,
0001
0000
1000
0000
0010
0100
0010
0100
0010
0000
0010
0000
0001
0000
0000
0000
,
1000
0001
1000
0001
1000
0000
0010
0000
0000
0000
0100
0000
0010
0000
1000
0000
,
0001
0100
0010
1000
0100
0100
0100
0000
,
0001
0000
0100
0000
1000
0000
0100
0000
0000
1000
0100
0000
0001
0000
0010
0000
,
0001
1000
0010
0010
0100
0000
1001
0000
,
1000
0000
1000
0100
0000
0100
0000
0000
,
0001
0000
0001
0100
0000
0100
0000
0000
,
1000
0000
0010
0100
0000
0100
0000
0000
,
0001
0000
0010
0100
0000
0100
0010
0000
,
0001
0000
1000
0010
0000
0010
0000
0000
,
0100
0000
0001
0010
0000
0010
0000
0000
,
0100
0000
1000
0001
0000
0100
0000
0000
,
0010
0000
1000
0001
0000
1000
0010
1000
,
0001
0000
0001
0010
0000
1000
0000
0000
,
0100
0000
0100
0010
0000
1000
0000
0000
,
0001
0000
1000
0100
0000
0010
0000
0000
,
0010
0000
0001
0100
0000
0010
0100
0000
,
1000
0000
0100
1000
0000
0100
0000
0000
,
0001
0000
0100
0001
0000
0100
0000
0000
,
0001
0000
1000
0010
0000
1001
0000
0000
,
0010
0010
0020
0130
,
1000
0000
1000
0002
0000
0000
0000
0000
,
0000
0100
0000
0000
0103
0000
1000
0000
,
0001
0000
0001
2000
0000
0000
3020
0000
,
0000
0230
0000
0000
0301
0001
0100
0000
,
0010
0000
0010
0200
0000
0000
0000
0000
,
0000
0320
0000
0000
0130
0000
0100
0000
,
0000
0010
1000
0010
0000
1000
0100
1000
,
0000
0100
0010
0100
0000
0010
0001
0000
,
0001
0000
0001
2000
0000
0000
0000
0000
,
0000
0100
0000
0000
3100
0000
0001
0000
,
0100
0000
0100
0002
0000
0000
2003
0000
,
0000
3020
0000
0000
0130
0100
0010
0000
,
1000
0000
1000
0020
0000
0000
0000
0000
,
0000
0230
0000
0000
0310
0000
0001
0000
,
0010
0100
0100
0000
1000
1000
0000
0001
,
0001
0000
0100
0100
0000
0010
0100
0000
,
1000
0000
0100
0002
0000
0000
0000
0003
,
0000
0220
0000
0330
2002
0000
3003
0000
,
1000
0000
0100
0010
0000
0010
0002
0000
,
0000
0023
0000
0000
0230
0000
1300
0000
,
0001
0000
0100
0020
0000
0000
0000
0030
,
0000
2020
0000
3030
0202
0000
0303
0000
,
0001
0000
0100
0001
0100
0000
0100
0000
,
0010
0000
1000
0100
2000
0000
0000
0000
,
3001
0000
0001
0100
0000
0000
0100
0000
,
0010
0000
0001
1000
0000
1000
0100
1000
,
0010
0000
0100
0001
0000
0000
1000
0000
,
0010
0000
0001
0100
0000
0001
1000
0100
,
0010
0000
0001
0001
0000
0000
1001
0000
,
1000
0000
0010
0100
0000
0100
0010
0100
,
0001
0000
0100
0000
1000
0100
0001
0000
,
0001
0100
1000
0010
0001
0010
1000
0100
,
0020
0000
0000
0000
,
0000
0000
0000
0000
,
0030
0000
0000
0000
;

//---------------dance-single - ----------------
#NOTES:
     dance-single:
     :
     Easy:
     4:
     0.254662,0.352419,0.032860,0.073934,0.000000,204.000000,4.000000,9.000000,0.000000,0.000000,0.000000,0.254662,0.352419,0.032860,0.073934,0.000000,204.000000,4.000000,9.000000,0.000000,0.000000,0.000000:
0000
0000
0000
0000
,
0000
0000
0000
0000
,
0000
0000
0000
0000
,
0000
0000
0000
0000
,
1000
0100
1000
0100
,
0001
0100
0001
0100
,
1000
0010
1000
0010
,
0001
0010
0001
0100
,
0010
0010
1000
1000
,
0001
0000
0001
1000
0010
0000
0010
0000
,
0100
0100
0001
0001
,
1000
0000
1000
0010
0100
0000
0100
0000
,
0002
0103
2000
3100
,
0002
0000
0100
0100
2003
0000
3100
0000
,
0002
0013
2000
3010
,
0002
0000
0010
0010
1003
0000
1001
0000
,
1000
0100
0010
0100
,
1000
0100
0010
0001
,
0100
0001
0010
0001
,
0100
0001
0010
0100
,
1000
0001
0100
0001
,
1000
0001
1000
0100
,
0010
0001
0100
0001
,
0010
0010
0100
0100
,
2000
3100
0001
0100
,
1000
0100
0001
0001
,
0010
0001
1000
0001
,
0100
0001
1000
1000
,
0010
0100
0010
0000
,
0100
0001
0100
0000
,
0001
1000
0001
1000
,
0010
0000
0000
0110
,
0001
0000
0000
1000
0000
0000
0000
0000
,
0000
1000
0000
0000
1000
0000
0001
0000
,
0100
0000
0000
0010
0000
0000
1000
0000
,
0000
0010
0000
0000
0100
0000
0001
0000
,
0010
0000
0000
0100
0000
0000
0000
0000
,
0000
1000
0000
0000
1000
0000
0010
0000
,
0000
0100
0100
0100
,
0000
0010
0010
0010
,
1000
0000
0000
0001
0000
0000
0000
0000
,
0000
0001
0000
0000
0001
0000
1000
0000
,
0100
0000
0000
0010
0000
0000
0001
0000
,
0000
1000
0000
0000
0010
0000
0010
0000
,
0100
0000
0000
0001
0000
0000
0000
0000
,
0000
0100
0000
0000
1000
0000
0010
0000
,
0000
0010
0001
0100
,
0000
0100
1000
0010
,
0001
0000
0001
0100
0000
0000
0000
0000
,
0000
0010
0000
0000
0100
0000
0000
0000
,
0010
0000
0000
1000
0000
0000
0100
0000
,
0000
0010
0000
0000
0100
0000
0100
0000
,
1000
0000
1000
0010
0000
0000
0000
0000
,
0000
0001
0000
0000
0010
0000
1000
0000
,
0000
0001
0001
0010
,
0000
1000
1000
0100
,
0010
0001
0000
0100
,
0000
0010
0000
1001
,
0000
1000
0000
0100
,
0000
0010
0000
0110
,
0000
0001
0100
0010
,
1000
0100
0010
0001
,
1000
0010
0100
0001
,
0010
0100
1000
0001
,
0200
0000
0000
0000
,
0000
0000
0000
0000
,
0300
0000
0000
0000
;
