#VERSION:0.83;
#TITLE:Nervous;
#SUBTITLE:;
#ARTIST:Vospi;
#TITLETRANSLIT:;
#SUBTITLETRANSLIT:;
#ARTISTTRANSLIT:;
#GENRE:Drum & Bass;
#ORIGIN:;
#CREDIT:;
#BANNER:[Short] - Nervous.png;
#BACKGROUND:[Short] - Nervous-bg.png;
#PREVIEWVID:;
#JACKET:[Short] - Nervous-jacket.png;
#CDIMAGE:;
#DISCIMAGE:;
#LYRICSPATH:;
#CDTITLE:cdtitle.png;
#MUSIC:[Short] - Nervous.ogg;
#OFFSET:-0.005227;
#SAMPLESTART:63.453674;
#SAMPLELENGTH:11.014486;
#SELECTABLE:YES;
#BPMS:0.000=174.000,
147.000=87.000,
149.000=174.000,
261.000=87.000,
269.000=174.000,
309.000=87.000,
311.000=174.000;
#STOPS:118.000=0.345;
#DELAYS:;
#WARPS:;
#TIMESIGNATURES:0.000=4=4;
#TICKCOUNTS:0.000=4;
#COMBOS:0.000=1;
#SPEEDS:0.000=1.000=0.000=0;
#SCROLLS:0.000=1.000;
#FAKES:;
#LABELS:0.000=Song Start;
#BGCHANGES:;
#KEYSOUNDS:;
#ATTACKS:
;

//---------------dance-single - ----------------
#NOTEDATA:;
#CHARTNAME:;
#STEPSTYPE:dance-single;
#DESCRIPTION:;
#CHARTSTYLE:;
#DIFFICULTY:Challenge;
#METER:10;
#RADARVALUES:0.771838,0.826514,0.387686,0.610400,0.490795,655.000000,608.000000,47.000000,74.000000,0.000000,0.000000,0.000000,0.000000,0.000000,0.771838,0.826514,0.387686,0.610400,0.490795,655.000000,608.000000,47.000000,74.000000,0.000000,0.000000,0.000000,0.000000,0.000000;
#CREDIT:;
#NOTES:
// measure 0
0000
0000
0000
0000
,  // measure 1
0000
0000
0000
0000
,  // measure 2
0000
0000
0000
0000
,  // measure 3
0000
0000
0000
0000
,  // measure 4
0001
0000
0000
0001
0100
0000
0100
0000
0010
0000
0010
0000
1000
0000
1000
0000
,  // measure 5
0100
0000
0000
0000
0000
0000
0000
0000
0000
0000
0000
0000
0000
0000
0000
0000
0000
0000
0000
0000
0000
0000
0000
0000
0000
0000
0000
0000
0000
0000
0000
0000
0000
0000
0000
0000
0000
0000
0000
0000
0000
0001
0000
0000
0000
0000
0000
0000
0010
0000
0000
0000
0000
0000
0000
0000
0000
0000
0000
0000
0000
0000
0000
0000
0000
0000
0000
0000
0000
0000
0000
0000
0001
0000
0000
0000
0000
0000
0000
0000
0000
0000
0000
0000
0000
0000
0000
0000
0000
0000
0000
0000
0000
0000
0000
0000
0100
0000
0000
0000
0000
0000
0000
0000
0000
0000
0000
0000
0000
0000
0000
0000
0000
0000
0000
0000
0000
0000
0000
0000
1000
0000
0000
0000
0000
0000
0000
0000
0000
0000
0000
0000
0000
0000
0000
0000
0000
0000
0000
0000
0000
0000
0000
0000
0100
0000
0000
0000
0000
0000
0000
0000
0000
0000
0000
0000
0000
0000
0000
0000
0000
0000
0000
0000
0000
0000
0000
0000
0010
0000
0000
0000
0000
0000
0000
0000
0000
0000
0000
0000
0000
0000
0000
0000
0000
0000
0000
0000
0000
0000
0000
0000
,  // measure 6
1000
0000
0000
1000
0100
0000
0100
0000
0010
0000
0010
0000
0001
0000
0001
0000
,  // measure 7
0100
0000
0000
0000
0000
0000
0000
0000
0000
0000
0000
0000
0000
0000
0000
0000
0000
0000
0000
0000
0000
0000
0000
0000
0000
0000
0000
0000
0000
0000
0000
0000
0000
0000
0000
0000
0000
0000
0000
0000
0000
1000
0000
0000
0000
0000
0000
0000
0010
0000
0000
0000
0000
0000
0000
0000
0000
0000
0000
0000
0000
0000
0000
0000
0000
0000
0000
0000
0000
0000
0000
0000
1000
0000
0000
0000
0000
0000
0000
0000
0000
0000
0000
0000
0000
0000
0000
0000
0000
0000
0000
0000
0000
0000
0000
0000
0100
0000
0000
0000
0000
0000
0000
0000
0000
0000
0000
0000
0000
0000
0000
0000
0000
0000
0000
0000
0000
0000
0000
0000
0001
0000
0000
0000
0000
0000
0000
0000
0000
0000
0000
0000
0000
0000
0000
0000
0000
0000
0000
0000
0000
0000
0000
0000
0100
0000
0000
0000
0000
0000
0000
0000
0000
0000
0000
0000
0000
0000
0000
0000
0000
0000
0000
0000
0000
0000
0000
0000
0010
0000
0000
0000
0000
0000
0000
0000
0000
0000
0000
0000
0000
0000
0000
0000
0000
0000
0000
0000
0000
0000
0000
0000
,  // measure 8
0200
0000
0000
0000
0000
0000
0000
0000
0300
0000
0000
0000
0100
0000
0100
1000
,  // measure 9
0001
0101
1001
1100
,  // measure 10
0220
0000
0000
0330
,  // measure 11
1000
0100
1000
0100
1000
0000
0001
0100
0001
0100
0010
1000
0001
0000
0010
0000
,  // measure 12
0100
0000
2000
3000
0001
0000
0100
0010
0200
0310
1000
0000
0100
0000
0002
0003
,  // measure 13
0100
0000
0000
0000
0000
0000
2000
0000
0000
3000
0000
0000
0010
0000
0000
0000
0100
0000
0000
0000
0001
0000
0000
0000
1000
0000
0000
0000
0000
0000
0100
0000
0000
0000
0000
0000
0220
0000
0000
0330
0000
0000
0000
0000
0000
0000
0000
0000
,  // measure 14
0010
0000
0200
0300
1000
0000
0010
0100
0020
0130
0001
0000
0100
0000
2000
3000
,  // measure 15
0100
0000
0000
0000
0000
0000
0020
0000
0000
0030
0000
0000
1000
0000
0000
0000
0100
0000
0000
0000
0010
0000
0000
0000
0001
0000
0000
0000
0000
0000
0100
0000
0000
0000
0000
0000
0220
0000
0000
0330
0000
0000
0000
0000
0000
0000
0000
0000
,  // measure 16
0010
0000
2000
3000
0100
0000
0010
0001
0020
0031
0100
0000
1000
0000
0200
0300
,  // measure 17
0010
0000
0000
0000
0000
0000
2000
0000
0000
3000
0000
0000
0001
0000
0000
0000
0010
0000
0000
0000
0100
0000
0000
0000
1000
0000
0000
0000
0000
0000
0100
0000
0000
0000
0000
0000
0220
0000
0000
0330
0000
0000
0000
0000
0000
0000
0000
0000
,  // measure 18
0002
2003
3010
0220
0330
0002
0103
0020
,  // measure 19
1030
0010
1000
0010
0100
0000
0001
0010
0001
0010
0100
1000
0001
0000
1000
0000
,  // measure 20
0001
0000
0100
0000
1000
0000
0100
0010
0000
0100
0001
0000
1000
0000
1000
0000
,  // measure 21
0001
0000
0100
0000
0010
0000
1000
0100
0000
0010
0001
0000
0011
0000
0000
0000
,  // measure 22
1000
0000
0100
0000
0001
0000
0100
0010
0000
0100
1000
0000
0001
0000
0001
0000
,  // measure 23
1000
0010
0001
0010
2000
0100
0000
3100
,  // measure 24
0010
0000
0001
0000
0100
0000
1000
0100
0000
0010
0100
0000
0001
0000
0001
0000
,  // measure 25
1000
0000
0100
0000
0010
0000
0001
1000
0000
0010
0100
0000
0110
0000
0000
0000
,  // measure 26
0010
0000
1000
0000
0100
0000
0001
0100
0000
0010
0100
0000
1000
0000
1000
0000
,  // measure 27
0002
0000
0000
0000
0000
0000
0000
0000
0000
0000
0000
0000
0000
0000
0000
0000
0000
0000
0000
0000
0000
0000
0000
0000
0003
0000
0000
0000
0000
0000
0000
0000
0000
0000
0000
0000
0000
0000
0000
0000
0000
1000
0000
0000
0000
0000
0000
0000
0010
0000
0000
0000
0000
0000
0000
0000
0000
0000
0000
0000
0000
0000
0000
0000
0000
0000
0000
0000
0000
0000
0000
0000
1000
0000
0000
0000
0000
0000
0000
0000
0000
0000
0000
0000
0000
0000
0000
0000
0000
0000
0000
0000
0000
0000
0000
0000
0100
0000
0000
0000
0000
0000
0000
0000
0000
0000
0000
0000
0000
0000
0000
0000
0000
0000
0000
0000
0000
0000
0000
0000
0001
0000
0000
0000
0000
0000
0000
0000
0000
0000
0000
0000
0000
0000
0000
0000
0000
0000
0000
0000
0000
0000
0000
0000
0100
0000
0000
0000
0000
0000
0000
0000
0000
0000
0000
0000
0000
0000
0000
0000
0000
0000
0000
0000
0000
0000
0000
0000
1000
0000
0000
0000
0000
0000
0000
0000
0000
0000
0000
0000
0000
0000
0000
0000
0000
0000
0000
0000
0000
0000
0000
0000
,  // measure 28
1100
1001
0101
1001
,  // measure 29
1000
0000
0100
0010
0001
0000
0100
0000
0110
0000
0010
0100
0001
0000
1000
0000
,  // measure 30
1100
0000
0000
0001
0000
0010
0001
0000
0101
0000
0000
0000
1000
0000
0100
0000
,  // measure 31
0010
0000
0100
0000
1000
0000
0010
0000
0000
1000
0000
0000
1001
0000
0000
0000
0000
0000
1000
0000
0000
0001
0000
0000
,  // measure 32
0101
0000
0000
1000
0000
0010
1000
0000
1100
0000
0000
0000
0001
0000
0100
0000
,  // measure 33
0001
0000
0010
0000
0100
0000
0010
0000
0000
0001
0000
0000
1001
0000
0000
0000
0000
0000
1000
0000
0000
0010
0000
0000
,  // measure 34
0110
0000
0000
0001
0000
0010
0100
0000
0110
0000
0000
0000
1000
0000
0100
0000
,  // measure 35
0001
0000
0100
0000
0010
0000
0100
0000
0000
1000
0000
0000
1001
0000
0000
0000
0000
0000
0001
0000
0000
0100
0000
0000
,  // measure 36
1010
0000
0000
1000
0000
0100
0010
0000
0011
0000
0000
0000
2000
0000
0000
0000
,  // measure 37
0000
0000
0000
0000
3001
0000
0200
0300
0010
0000
1000
0100
2000
3100
0010
0000
,  // measure 38
0001
0000
0000
0000
0000
0000
0200
0000
0000
0300
0000
0000
1000
0000
0000
0000
0000
0000
0200
0000
0000
0300
0000
0000
0001
0000
0000
0000
0100
0000
0000
0000
0010
0000
0000
0000
1000
0000
0000
0000
0000
0000
0100
0000
0000
0000
0000
0000
,  // measure 39
0220
0330
0000
0000
0010
0000
0002
0003
0100
0000
0010
1000
0020
1030
0100
0000
,  // measure 40
0001
0000
0000
0000
0000
0000
0200
0000
0000
0300
0000
0000
0010
0000
0000
0000
0000
0000
0002
0000
0000
0003
0000
0000
1000
0000
0000
0000
0010
0000
0000
0000
0100
0000
0000
0000
0001
0000
0000
0000
0000
0000
0100
0000
0000
0000
0000
0000
,  // measure 41
0220
0330
0000
0000
1000
0000
0200
0300
0010
0000
0001
0100
0002
0103
0010
0000
,  // measure 42
1000
0000
0000
0000
0000
0000
0200
0000
0000
0300
0000
0000
0001
0000
0000
0000
0000
0000
0200
0000
0000
0300
0000
0000
0010
0000
0000
0000
0001
0000
0000
0000
0100
0000
0000
0000
0010
0000
0000
0000
0000
0000
1000
0000
0000
0000
0000
0000
,  // measure 43
2020
3030
0000
0000
0001
0000
0200
0000
0301
0000
0200
0000
1300
0000
0200
0000
,  // measure 44
0310
0200
0300
0002
0000
0000
0000
0000
,  // measure 45
0003
0000
0000
0000
0001
0000
0000
0001
0100
0000
0010
1000
0010
1000
0010
0000
,  // measure 46
0100
0100
0001
0000
1100
0100
0010
0001
,  // measure 47
0100
0001
0100
0010
1000
0000
0000
1000
0100
0000
0010
0001
0010
0001
0010
0000
,  // measure 48
0100
0100
1000
0000
0101
0100
0001
1000
,  // measure 49
0001
0010
0100
1000
0001
0000
0000
0001
0010
0000
0001
1000
0001
1000
0001
0000
,  // measure 50
0100
0100
0010
0000
1010
0010
0100
0001
,  // measure 51
0010
0100
0010
0100
1000
0000
0000
1000
0010
0000
1000
0001
1000
0001
1000
0000
,  // measure 52
0100
0100
0010
0000
0011
0010
0100
1000
,  // measure 53
0001
0100
0020
0000
0000
0000
0000
0000
,  // measure 54
0000
0030
1010
1001
,  // measure 55
0011
0220
0000
0000
,  // measure 56
0330
0000
0000
0000
1000
0100
1000
0100
1000
0000
0001
0100
0001
0100
0010
1000
,  // measure 57
0001
0000
0010
0000
0100
0000
0010
0100
0010
0000
0100
0000
1000
0000
0010
0000
,  // measure 58
0001
0010
1000
0100
0010
0100
1000
0100
,  // measure 59
0011
0000
0000
0000
0001
0100
0010
1000
0001
0000
0100
0000
0001
0000
0010
0000
,  // measure 60
1000
0010
0001
0100
0010
0100
1000
0100
,  // measure 61
0101
0000
0000
0000
1000
0000
0100
0010
0100
0000
0010
0000
0001
0000
0100
0000
,  // measure 62
1000
0100
0001
0010
0001
0100
0001
0010
,  // measure 63
1100
0000
0000
0000
1000
0100
0010
0001
1000
0000
0010
0000
1000
0000
0100
0000
,  // measure 64
0001
0000
0100
0000
1000
0000
1000
0000
0001
0000
0001
0000
1000
0010
1000
0010
,  // measure 65
0100
0001
0100
0001
2000
0000
0000
3200
0000
0320
0000
0000
0032
0000
0000
2003
,  // measure 66
0000
3020
0000
0000
0230
0000
0000
0000
0300
0000
0000
0000
0220
0000
0330
0000
,  // measure 67
2002
3003
1000
0001
0100
0010
0100
1000
,  // measure 68
0100
0010
1000
0100
0001
1000
0010
0001
,  // measure 69
0100
0010
2000
0001
0001
0000
0010
0000
,  // measure 70
3001
1100
0011
1010
,  // measure 71
0101
0000
0100
0010
1000
0000
0100
0000
0010
0000
0001
0100
0000
0001
0100
0000
,  // measure 72
1000
0000
0100
0000
0001
0000
0100
0000
0010
0000
1000
0100
0000
1000
0100
0000
,  // measure 73
0001
0000
0100
0000
1000
0000
0010
0000
0100
0000
0001
1000
0000
1000
0001
0000
,  // measure 74
0100
0000
0001
0000
0020
0000
0100
0000
0130
0000
1000
0010
0200
0000
0001
0000
,  // measure 75
0001
0000
0310
0100
1000
0001
0010
1000
,  // measure 76
0100
0001
0100
1000
0010
0001
1000
0001
,  // measure 77
0010
0000
1000
0000
0200
0000
0000
0000
0000
0000
0000
0000
0310
0100
0010
0100
,  // measure 78
0010
0100
1000
0000
0001
0000
1000
0010
0100
0001
1000
0000
2001
0000
0000
0000
,  // measure 79
3100
0010
0000
0010
0001
0000
1000
0000
,  // measure 80
0001
0100
0000
0010
1000
0000
0001
0000
,  // measure 81
1000
0100
0000
0100
0010
0000
0001
0000
,  // measure 82
0100
0000
0010
0000
0000
0000
1000
0002
2000
0000
0000
0000
0000
0000
0000
0000
,  // measure 83
0000
0000
3003
0000
;

//---------------dance-single - ----------------
#NOTEDATA:;
#CHARTNAME:;
#STEPSTYPE:dance-single;
#DESCRIPTION:;
#CHARTSTYLE:;
#DIFFICULTY:Hard;
#METER:9;
#RADARVALUES:0.638681,0.654324,0.329946,0.626897,0.164973,542.000000,502.000000,40.000000,76.000000,0.000000,0.000000,0.000000,0.000000,0.000000,0.638681,0.654324,0.329946,0.626897,0.164973,542.000000,502.000000,40.000000,76.000000,0.000000,0.000000,0.000000,0.000000,0.000000;
#CREDIT:;
#NOTES:
// measure 0
0000
0000
0000
0000
,  // measure 1
0000
0000
0000
0000
,  // measure 2
0000
0000
0000
0000
,  // measure 3
0000
0000
0000
0000
,  // measure 4
1000
0000
0000
1000
0010
0000
1000
0000
0001
0000
1000
0000
0100
0000
1000
0000
,  // measure 5
0001
0000
1000
1000
0010
0010
0100
0100
,  // measure 6
0001
0000
0000
0001
0010
0000
0001
0000
1000
0000
0001
0000
0100
0000
0001
0000
,  // measure 7
1000
0000
0001
0001
0010
0010
0100
0100
,  // measure 8
2000
0000
0000
0000
0000
0000
0000
0000
3000
0000
0000
0000
0010
0000
1000
0001
,  // measure 9
1000
1010
0101
0011
,  // measure 10
2200
0000
0000
3300
,  // measure 11
1100
0000
0000
0101
0000
1000
0010
0100
,  // measure 12
0001
0200
0310
0001
0020
0130
0001
0020
,  // measure 13
0130
0000
0000
2000
0000
0000
3001
0000
0100
0000
0001
0000
0100
0000
0000
0010
0000
0000
2020
0000
0000
3030
0000
0000
,  // measure 14
1000
0200
0310
1000
0020
0130
1000
0020
,  // measure 15
0130
0000
0000
0002
0000
0000
1003
0000
0100
0000
1000
0000
0100
0000
0000
0010
0000
0000
0022
0000
0000
0033
0000
0000
,  // measure 16
0001
0200
1300
0100
0020
1030
0100
0002
,  // measure 17
0103
0000
0000
2000
0000
0000
3001
0000
0100
0000
0001
0000
0100
0000
0000
0001
0000
0000
2002
0000
0000
3003
0000
0000
,  // measure 18
0002
0023
0000
2030
0000
3020
0000
0031
,  // measure 19
0011
0000
0000
1010
0000
0001
0100
0010
,  // measure 20
1000
0100
0001
0100
1000
0000
1100
0000
,  // measure 21
1000
0010
0000
0001
0010
1000
0100
0000
,  // measure 22
0010
0000
0110
0000
0010
0001
0100
0000
,  // measure 23
1000
0100
0001
0010
0200
1000
0000
0310
,  // measure 24
0001
0100
1000
0100
0001
0000
0101
0000
,  // measure 25
0001
0010
0000
1000
0010
0001
0100
0000
,  // measure 26
0010
0000
0110
0000
0010
1000
0100
0000
,  // measure 27
0020
0000
0031
0001
0100
0100
0010
0010
,  // measure 28
1000
1000
0001
0001
,  // measure 29
0010
0000
0100
0010
0100
0000
0010
0000
1001
0000
0000
0000
0001
0000
0100
0000
,  // measure 30
0010
0000
0000
0100
0000
0100
0010
0000
1000
0000
0000
0000
1000
0000
0010
0000
,  // measure 31
1000
0000
0001
0000
1000
0000
0001
0000
0000
0010
0000
0000
0100
0000
0000
0000
0000
0000
1000
0000
0000
0100
0000
0000
,  // measure 32
0010
0000
0000
0100
0000
0100
0010
0000
0001
0000
0000
0000
0001
0000
0100
0000
,  // measure 33
0010
0000
0000
1000
0100
0000
0010
0000
0001
0000
0000
0000
1000
0000
0010
0000
,  // measure 34
0100
0000
0000
0010
0000
0010
0100
0000
0001
0000
0000
0000
0001
0000
0010
0000
,  // measure 35
0001
0000
1000
0000
0001
0000
1000
0000
0000
0001
0000
0000
0100
0000
0000
0000
0000
0000
0010
0000
0000
1000
0000
0000
,  // measure 36
0100
0000
0000
0010
0000
0010
0001
0000
0100
0000
0000
0000
0200
0000
0000
0000
,  // measure 37
0000
0000
0301
0200
0310
0001
0020
0130
,  // measure 38
0010
0000
0000
2000
0000
0000
3100
0000
0000
0020
0000
0000
0031
0000
0100
0000
0001
0000
0100
0000
0000
0010
0000
0000
,  // measure 39
2020
3030
1000
0200
0310
1000
0020
0130
,  // measure 40
0010
0000
0000
0002
0000
0000
0103
0000
0000
0020
0000
0000
1030
0000
0100
0000
1000
0000
0100
0000
0000
1000
0000
0000
,  // measure 41
2002
3003
0001
0200
1300
0001
0020
1030
,  // measure 42
0100
0000
0000
0020
0000
0000
0031
0000
0000
2000
0000
0000
3010
0000
0100
0000
0010
0000
0100
0000
0000
0001
0000
0000
,  // measure 43
2002
3003
0000
0011
0000
1100
0000
1010
,  // measure 44
0000
0101
0000
2002
0000
0000
0000
0000
,  // measure 45
3003
0000
0000
0000
1000
0000
0000
1000
0010
0000
1000
0000
0001
0000
0010
0000
,  // measure 46
0100
1000
0001
0000
0001
0100
1000
0100
,  // measure 47
0010
0000
0100
0000
0001
0000
0000
0001
0010
0000
0001
0000
1000
0000
0010
0000
,  // measure 48
0100
0001
1000
0000
1000
0100
0001
0100
,  // measure 49
0010
0000
0001
0000
0100
0000
0000
0100
0010
0000
1000
0000
0001
0000
1000
0000
,  // measure 50
0100
0010
0001
0000
0001
0010
1000
0010
,  // measure 51
0001
0000
0100
0000
0010
0000
0000
0010
1000
0000
0001
0000
0010
0000
0001
0000
,  // measure 52
0100
0010
1000
0000
1000
0010
0001
0010
,  // measure 53
1000
0100
0020
0000
0000
0000
0000
0000
,  // measure 54
0000
0030
0011
1100
,  // measure 55
1010
0202
0000
0000
,  // measure 56
0303
0000
0101
0000
0000
1100
0000
0001
,  // measure 57
0100
0010
1000
0100
0010
0100
1000
0100
,  // measure 58
0001
0100
1000
0100
0010
0100
1000
0100
,  // measure 59
0011
0000
0001
0100
0010
1000
0001
0010
,  // measure 60
1000
0010
0001
0100
0010
1000
0100
0010
,  // measure 61
1001
0000
0001
0100
0010
0100
0001
0100
,  // measure 62
1000
0100
0001
0100
0010
0100
0001
0100
,  // measure 63
1010
0000
1000
0100
0010
0001
1000
0010
,  // measure 64
0001
0010
1000
1000
0100
0100
0010
0001
,  // measure 65
0100
0000
0010
0000
2000
0000
0000
3200
0000
0320
0000
0000
0032
0000
0000
2003
,  // measure 66
0000
3020
0000
0000
0230
0000
0000
0000
0300
0000
0000
0000
0220
0000
0330
0000
,  // measure 67
2002
3003
1000
0010
0100
0001
0010
0100
,  // measure 68
1000
0001
0100
0010
1000
0100
1000
0010
,  // measure 69
0001
0010
2000
0000
0010
0000
0100
0000
,  // measure 70
3010
1010
1001
0011
,  // measure 71
1001
0000
2000
3010
0100
2000
3000
0200
,  // measure 72
1300
0100
0002
0013
0100
0002
0003
0200
,  // measure 73
0301
0000
0100
0000
2000
0000
0000
0000
3001
0000
0000
0100
0000
0100
0010
0000
,  // measure 74
1000
0010
0002
0000
0013
1000
0200
0010
,  // measure 75
0310
0000
0001
0100
0010
1000
0100
0001
,  // measure 76
0100
1000
0001
0100
1000
0100
0001
0010
,  // measure 77
1000
0010
0002
0000
0000
0000
1003
0010
,  // measure 78
1000
0100
0001
0100
1000
0010
1002
0000
,  // measure 79
0103
0001
0000
0100
0001
0000
1000
0000
,  // measure 80
1000
0100
0000
0010
0001
0000
1000
0000
,  // measure 81
0100
1000
0000
0100
1000
0000
0001
0000
,  // measure 82
0100
0000
0010
0000
0000
0000
0100
0020
0200
0000
0000
0000
0000
0000
0000
0000
,  // measure 83
0000
0000
0330
0000
;

//---------------dance-single - ----------------
#NOTEDATA:;
#CHARTNAME:;
#STEPSTYPE:dance-single;
#DESCRIPTION:;
#CHARTSTYLE:;
#DIFFICULTY:Medium;
#METER:7;
#RADARVALUES:0.474886,0.551010,0.222713,0.338195,0.016497,403.000000,376.000000,27.000000,41.000000,0.000000,0.000000,0.000000,0.000000,0.000000,0.474886,0.551010,0.222713,0.338195,0.016497,403.000000,376.000000,27.000000,41.000000,0.000000,0.000000,0.000000,0.000000,0.000000;
#CREDIT:;
#NOTES:
// measure 0
0000
0000
0000
0000
,  // measure 1
0000
0000
0000
0000
,  // measure 2
0000
0000
0000
0000
,  // measure 3
0000
0000
0000
0000
,  // measure 4
0001
0100
1000
0100
,  // measure 5
0001
1000
1000
0010
,  // measure 6
1000
0100
0001
0100
,  // measure 7
1000
0001
0001
0100
,  // measure 8
0020
0000
0000
0000
0030
0000
1000
0001
,  // measure 9
0010
0011
1001
1010
,  // measure 10
2002
0000
0000
3003
,  // measure 11
0110
0000
0000
1001
0000
1000
0100
0010
,  // measure 12
0001
0100
0000
0100
0010
0000
0100
0001
,  // measure 13
0000
0001
2000
0000
3100
0010
0001
0000
,  // measure 14
1000
0100
0000
0100
0010
0000
0100
1000
,  // measure 15
0000
1000
0002
0000
0103
0010
1000
0000
,  // measure 16
0001
0010
0000
0010
0100
0000
0010
0001
,  // measure 17
0000
0001
0200
0000
0310
1000
0001
0000
,  // measure 18
2000
3200
0000
0320
0000
0032
0000
0003
,  // measure 19
0110
0000
0000
1001
0000
0001
0100
0010
,  // measure 20
1000
0000
0100
1000
0010
0000
0010
0000
,  // measure 21
1000
0100
0000
0100
1000
0010
0000
1000
,  // measure 22
0001
0000
0010
0000
0010
0100
1000
0000
,  // measure 23
0010
0100
0001
1000
0200
0000
0310
0000
,  // measure 24
0001
0000
0100
0001
0010
0000
0010
0000
,  // measure 25
0001
0100
0000
0100
0001
0010
0000
0001
,  // measure 26
1000
0000
0010
0000
0010
0100
0001
0000
,  // measure 27
2002
0000
0000
3003
,  // measure 28
1000
1000
0001
0001
,  // measure 29
1000
0100
0010
0001
0100
0000
0001
0100
,  // measure 30
0001
0000
0100
0010
0100
0000
0010
1000
,  // measure 31
0010
0000
1000
0001
1000
0000
0001
0010
,  // measure 32
0001
0000
0010
0100
0010
0000
0100
1000
,  // measure 33
0100
0000
1000
0001
1000
0000
0001
0100
,  // measure 34
0001
0000
0100
1000
0100
0000
1000
0010
,  // measure 35
1000
0000
0010
0001
0010
0000
0001
0100
,  // measure 36
0001
0000
1000
0100
1000
0000
0002
0000
,  // measure 37
0000
0000
1003
0100
0000
0100
0010
0000
,  // measure 38
0100
1000
0000
1000
0020
0000
0130
0010
,  // measure 39
1000
0000
0001
0100
0000
0100
1000
0000
,  // measure 40
1000
0100
0000
0100
0002
0000
0013
0100
,  // measure 41
1000
0000
0001
0010
0000
0010
0100
0000
,  // measure 42
0010
0001
0000
0001
0200
0000
0310
1000
,  // measure 43
0001
0000
0000
0001
0000
1000
0000
0001
,  // measure 44
0000
1000
0000
0200
0000
0000
0000
0000
,  // measure 45
0300
1000
0100
0001
,  // measure 46
0100
0000
1000
0000
0001
0100
0001
0100
,  // measure 47
0010
1000
0001
0000
0100
0000
1000
0000
,  // measure 48
0100
0000
0001
0000
1000
0100
1000
0100
,  // measure 49
0010
0001
1000
0000
0010
0000
0001
0000
,  // measure 50
0010
0000
1000
0000
0100
0010
0100
0010
,  // measure 51
0001
1000
0001
0000
0010
0000
1000
0000
,  // measure 52
0010
0000
0001
0000
0100
0010
0100
0010
,  // measure 53
1000
0001
2000
0000
0000
0000
0000
0000
,  // measure 54
0000
3000
1010
1001
,  // measure 55
0011
2002
0000
0000
,  // measure 56
3003
0000
0110
0000
0000
1001
0000
0001
,  // measure 57
0010
0100
1000
0000
1000
0000
1000
0000
,  // measure 58
0101
1000
1000
1000
,  // measure 59
0110
0000
0001
0010
0100
1000
0001
0000
,  // measure 60
0101
1000
1000
1000
,  // measure 61
0110
0001
0001
0001
,  // measure 62
1100
0001
0001
0001
,  // measure 63
0110
0000
1000
0010
0100
0001
1000
0000
,  // measure 64
1100
0000
0001
0100
0001
0100
0010
1000
,  // measure 65
0010
0000
1000
0000
0002
0000
0000
2003
0000
3002
0000
0000
0023
0000
0000
0032
,  // measure 66
0000
0203
0000
0000
0320
0000
0000
0000
0030
0000
0000
0000
0220
0000
0330
0000
,  // measure 67
2002
3003
0001
0100
0001
0000
1000
0010
,  // measure 68
1000
0000
0001
0010
0001
0000
1000
0100
,  // measure 69
0010
0001
2000
0000
0001
0000
0001
0000
,  // measure 70
3001
0100
1000
0100
,  // measure 71
0001
0000
1000
0000
0010
1000
0010
1000
,  // measure 72
0100
0000
0010
0000
0001
0100
0001
0100
,  // measure 73
0010
0200
1000
0010
,  // measure 74
0301
0012
1003
2010
,  // measure 75
3001
0000
1000
0100
0010
0000
0001
0100
,  // measure 76
0010
0000
1000
0001
0010
0000
0100
1000
,  // measure 77
0001
0100
0020
0000
0000
0000
1030
0010
,  // measure 78
1000
0010
0100
0001
1000
0000
2002
0000
,  // measure 79
0000
0000
0000
0000
,  // measure 80
0000
0000
3003
1000
,  // measure 81
0100
0010
0000
0100
0010
0000
0001
0000
,  // measure 82
0100
0010
0000
2000
0002
0000
0000
0000
,  // measure 83
0000
0000
3003
0000
;

//---------------dance-single - ----------------
#NOTEDATA:;
#CHARTNAME:;
#STEPSTYPE:dance-single;
#DESCRIPTION:;
#CHARTSTYLE:;
#DIFFICULTY:Easy;
#METER:5;
#RADARVALUES:0.309913,0.378819,0.107232,0.272205,0.000000,263.000000,250.000000,13.000000,33.000000,0.000000,0.000000,0.000000,0.000000,0.000000,0.309913,0.378819,0.107232,0.272205,0.000000,263.000000,250.000000,13.000000,33.000000,0.000000,0.000000,0.000000,0.000000,0.000000;
#CREDIT:;
#NOTES:
// measure 0
0000
0000
0000
0000
,  // measure 1
0000
0000
0000
0000
,  // measure 2
0000
0000
0000
0000
,  // measure 3
0000
0000
0000
0000
,  // measure 4
1000
0000
0100
0000
,  // measure 5
0010
0001
0001
0001
,  // measure 6
0100
0000
0010
0000
,  // measure 7
1000
0001
0001
0001
,  // measure 8
0020
0000
0030
0001
,  // measure 9
1000
1010
0110
0101
,  // measure 10
2002
0000
0000
3003
,  // measure 11
1000
0000
0000
0001
0000
0000
1000
0000
,  // measure 12
0100
0000
0000
0000
0010
0000
0000
0001
,  // measure 13
0000
1000
0001
0100
,  // measure 14
0000
0100
0000
0000
0010
0000
0000
1000
,  // measure 15
0000
0001
1000
0100
,  // measure 16
0000
1000
0000
0000
0010
0000
0000
0100
,  // measure 17
0000
0001
0010
0100
,  // measure 18
2000
0000
0000
3020
0000
0230
0000
0000
,  // measure 19
0301
0000
0000
1000
0000
0000
0001
0000
,  // measure 20
1000
0100
0010
0000
,  // measure 21
0100
1000
0010
0000
,  // measure 22
1000
0001
0001
0000
,  // measure 23
0001
0100
1000
0100
,  // measure 24
0001
0010
0100
0000
,  // measure 25
1000
0010
0100
0000
,  // measure 26
0001
1000
1000
0000
,  // measure 27
0200
0000
0000
0000
,  // measure 28
0310
0010
0100
0100
,  // measure 29
1000
0001
0100
0001
,  // measure 30
0001
0100
0100
0010
,  // measure 31
0010
1000
1000
0001
,  // measure 32
0001
0010
0010
0100
,  // measure 33
0100
1000
1000
0001
,  // measure 34
0100
0010
0100
0010
,  // measure 35
1000
0001
1000
0001
,  // measure 36
0010
0100
1000
0002
,  // measure 37
0000
1003
0000
0010
,  // measure 38
0000
0100
0000
0000
0010
0000
1000
0000
,  // measure 39
0100
0000
0000
0010
0000
0000
0001
0000
,  // measure 40
0000
1000
0000
0000
0001
0000
0100
0000
,  // measure 41
0010
0000
0000
1000
0000
0000
0001
0000
,  // measure 42
0000
0010
0000
0000
0001
0000
0100
0000
,  // measure 43
0010
0000
0000
0010
0000
0010
0000
1000
,  // measure 44
0000
0001
0000
0020
0000
0000
0000
0000
,  // measure 45
0030
0001
0001
0100
,  // measure 46
0100
0010
1000
0100
,  // measure 47
1000
0010
0010
0100
,  // measure 48
0100
0001
0010
1000
,  // measure 49
0010
0001
0001
1000
,  // measure 50
1000
0010
0100
0001
,  // measure 51
0010
0100
0100
1000
,  // measure 52
1000
0001
0100
1000
,  // measure 53
0100
0002
0000
0000
,  // measure 54
0000
0003
0011
0110
,  // measure 55
1100
2002
0000
0000
,  // measure 56
3003
0000
1000
0000
0000
0001
0000
0000
,  // measure 57
1000
0010
0010
0010
,  // measure 58
1000
0100
0100
0100
,  // measure 59
0001
0100
1000
0010
,  // measure 60
0100
0001
0001
1000
,  // measure 61
0001
0010
0010
0010
,  // measure 62
0001
0100
0100
0100
,  // measure 63
1000
0100
0001
0010
,  // measure 64
0100
1000
0010
0100
,  // measure 65
0001
0000
0000
0000
2000
0000
0000
0000
0000
3000
0000
0000
0002
0000
0000
0000
,  // measure 66
0000
0003
0000
0000
0020
0000
0000
0000
0030
0000
0000
0000
0220
0000
0330
0000
,  // measure 67
2002
3003
0001
0000
0100
0000
0010
0000
,  // measure 68
0100
1000
0100
0010
,  // measure 69
1000
0002
0000
0010
,  // measure 70
0000
0013
0001
0100
,  // measure 71
0010
0000
2000
0000
0000
3100
0000
0020
,  // measure 72
0000
0000
0032
0000
0000
0103
0000
0020
,  // measure 73
0000
2030
0000
3010
,  // measure 74
1000
2002
3003
0220
,  // measure 75
0330
0001
0010
1000
,  // measure 76
0010
0001
0100
1000
,  // measure 77
0100
0002
0000
0013
,  // measure 78
0100
0010
0100
2002
,  // measure 79
0000
0000
0000
0000
,  // measure 80
0000
0000
3003
1000
,  // measure 81
0000
0001
0000
0000
1000
0000
0001
0000
,  // measure 82
0000
0100
0000
0000
0200
0000
0000
0000
,  // measure 83
0000
0000
0300
0000
;

//---------------dance-single - ----------------
#NOTEDATA:;
#CHARTNAME:;
#STEPSTYPE:dance-single;
#DESCRIPTION:;
#CHARTSTYLE:;
#DIFFICULTY:Beginner;
#METER:2;
#RADARVALUES:0.176757,0.233127,0.057741,0.197968,0.000000,150.000000,143.000000,7.000000,24.000000,0.000000,0.000000,0.000000,0.000000,0.000000,0.176757,0.233127,0.057741,0.197968,0.000000,150.000000,143.000000,7.000000,24.000000,0.000000,0.000000,0.000000,0.000000,0.000000;
#CREDIT:;
#NOTES:
// measure 0
0000
0000
0000
0000
,  // measure 1
0000
0000
0000
0000
,  // measure 2
0000
0000
0000
0000
,  // measure 3
0000
0000
0000
0000
,  // measure 4
1000
0000
0000
0000
,  // measure 5
0100
0000
0000
0000
,  // measure 6
0010
0000
0000
0000
,  // measure 7
0001
0000
0000
0000
,  // measure 8
0100
0000
0000
0010
,  // measure 9
0010
0000
1000
0000
,  // measure 10
2002
0000
3003
0000
,  // measure 11
0220
0000
0330
0000
,  // measure 12
1000
0000
0100
0000
,  // measure 13
1000
0000
0001
0000
,  // measure 14
0100
0000
0010
0000
,  // measure 15
1000
0000
0001
0000
,  // measure 16
0010
0000
0001
0000
,  // measure 17
0100
0000
0010
0000
,  // measure 18
2000
0000
3000
0000
,  // measure 19
0220
0000
0330
0000
,  // measure 20
0001
0001
0001
0000
,  // measure 21
0010
0000
0010
0000
,  // measure 22
0001
0000
0100
0000
,  // measure 23
0001
0001
0001
0000
,  // measure 24
1000
1000
1000
0000
,  // measure 25
0010
0000
0010
0000
,  // measure 26
1000
0000
0100
0000
,  // measure 27
0020
0000
0030
0000
,  // measure 28
0100
0000
0100
0000
,  // measure 29
0100
0100
0100
1000
,  // measure 30
0000
1000
0000
0010
,  // measure 31
0000
0010
0000
0100
,  // measure 32
0000
0100
0000
0001
,  // measure 33
0000
0001
0000
0010
,  // measure 34
0000
0010
0000
0100
,  // measure 35
0000
0100
0000
1000
,  // measure 36
0000
1000
0000
0002
,  // measure 37
0003
0001
0000
0100
,  // measure 38
0000
0001
0000
1000
,  // measure 39
0000
0100
0000
0010
,  // measure 40
0000
0001
0000
1000
,  // measure 41
0000
0010
0000
1000
,  // measure 42
0000
0001
0000
0010
,  // measure 43
0000
0200
0000
0000
,  // measure 44
0000
0300
0000
0000
,  // measure 45
0000
1000
0000
0010
,  // measure 46
0000
0100
0000
0001
,  // measure 47
0001
0001
0000
0010
,  // measure 48
0000
0100
0000
1000
,  // measure 49
1000
1000
0000
0001
,  // measure 50
0000
0100
0000
0010
,  // measure 51
0010
0010
0000
1000
,  // measure 52
0000
0001
0000
0010
,  // measure 53
0010
0020
0000
0000
,  // measure 54
0000
0030
0000
0100
,  // measure 55
0000
2002
0000
3003
,  // measure 56
0000
0220
0000
0330
,  // measure 57
0000
0001
0000
0001
,  // measure 58
0000
0001
0000
0001
,  // measure 59
0000
1000
0000
1000
,  // measure 60
0000
1000
0000
1000
,  // measure 61
0000
0100
0000
0100
,  // measure 62
0000
0100
0000
0100
,  // measure 63
0000
0010
0000
0010
,  // measure 64
0000
0001
0000
0100
,  // measure 65
0000
0020
0030
2000
,  // measure 66
3000
0002
0003
0010
,  // measure 67
0100
1000
0000
1000
,  // measure 68
0000
0010
0000
0100
,  // measure 69
0000
0002
0000
0003
,  // measure 70
0000
0001
0001
0001
,  // measure 71
0000
0010
0000
0010
,  // measure 72
0000
0100
0000
0100
,  // measure 73
0000
1000
0000
0001
,  // measure 74
0000
0100
0000
0010
,  // measure 75
0000
1000
0000
1000
,  // measure 76
0000
0100
0000
0010
,  // measure 77
0000
0002
0003
0220
,  // measure 78
0000
0330
0000
2002
,  // measure 79
0000
0000
0000
0000
,  // measure 80
0000
0000
0000
3003
;
