#TITLE:MAX 301;
#SUBTITLE:;
#ARTIST:Axis;
#TITLETRANSLIT:;
#SUBTITLETRANSLIT:;
#ARTISTTRANSLIT:;
#GENRE:;
#CREDIT:;
#BANNER:MAX 301-bn.png;
#BACKGROUND:MAX 301-bg.png;
#LYRICSPATH:;
#CDTITLE:./CDTitles/Maglot Original.png;
#MUSIC:MAX 301.ogg;
#OFFSET:-0.022;
#SAMPLESTART:24.956;
#SAMPLELENGTH:20.060;
#SELECTABLE:YES;
#BPMS:0.000=301.000;
#STOPS:;
#TIMESIGNATURES:0.000=4=4
;
#BGCHANGES:0.000=MAX 301-bg.png=1.000=0=0=1=====,
128.000=MAX 301-bg.png=1.000=0=0=1=SongBgWithMovieViz====,
136.000=MAX 301-bg.png=1.000=0=0=1=====,
139.000=MAX 301-bg.png=1.000=0=0=1=SongBgWithMovieViz====,
144.000=MAX 301-bg.png=1.000=0=0=1=====,
160.000=MAX 301-bg.png=1.000=0=0=1=SongBgWithMovieViz====,
168.000=MAX 301-bg.png=1.000=0=0=1=====,
171.000=MAX 301-bg.png=1.000=0=0=1=SongBgWithMovieViz====,
176.000=MAX 301-bg.png=1.000=0=0=1=====,
99999=-nosongbg-=1.000=0=0=0 // don't automatically add -songbackground-
;
#KEYSOUNDS:;

//---------------dance-single - ----------------
#NOTES:
     dance-single:
     :
     Beginner:
     1:
     0.131,0.255,0.000,0.114,0.000,84.000,0.000,12.000,0.000,0.000,0.000,0.131,0.255,0.000,0.114,0.000,84.000,0.000,12.000,0.000,0.000,0.000:
0000
0000
0000
0000
,
0000
0000
0000
0000
,
0000
0000
0000
0000
,
0000
0000
0000
0000
,
0000
0000
0000
0000
,
0000
0000
0000
0000
,
0000
0000
0000
0000
,
0000
0000
0000
0000
,
0001
0000
0000
0000
,
1000
0000
0000
0000
,
0001
0000
0000
0000
,
1000
0000
0000
0000
,
0010
0000
0000
0000
,
0100
0000
0000
0000
,
0010
0000
0010
0000
,
0010
0000
0010
0000
,
0010
0000
0000
0000
,
0010
0000
0000
0000
,
0010
0000
0000
0000
,
0000
0000
0000
0000
,
0100
0000
0000
0000
,
0100
0000
0000
0000
,
0100
0000
0000
0000
,
0000
0000
0000
0000
,
0001
0000
0000
0000
,
0001
0000
0000
0000
,
0001
0000
0000
0000
,
0000
0000
0000
0000
,
1000
0000
0000
0000
,
1000
0000
0000
0000
,
0020
0000
0000
0000
,
0000
0030
0000
0000
,
0100
0000
0000
0000
,
0000
0000
0000
0000
,
0010
0000
0000
0000
,
0000
0000
0000
0000
,
1000
0000
0000
0000
,
0000
0000
0000
0000
,
0001
0000
0000
0000
,
0000
0000
0000
0000
,
1000
0000
0000
0000
,
0000
0000
0000
0000
,
0100
0000
0000
0000
,
0000
0000
0000
0000
,
0010
0000
0000
0000
,
0000
0000
0000
0000
,
0001
0000
0000
0000
,
0000
0000
0000
0000
,
2000
0000
0000
0000
,
3000
0000
0000
0000
,
0002
0000
0000
0000
,
0003
0000
0000
0000
,
0200
0000
0000
0000
,
0300
0000
0000
0000
,
0020
0000
0000
0000
,
0030
0000
0000
0000
,
2000
0000
0000
0000
,
3000
0000
0000
0000
,
0002
0000
0000
0000
,
0003
0000
0000
0000
,
2000
0000
0000
0000
,
3000
0000
0000
0000
,
0200
0000
0000
0000
,
0300
0000
0000
0000
,
0010
0000
0000
0000
,
0010
0000
0000
0000
,
0010
0000
0000
0000
,
0000
0000
0100
0000
,
0100
0000
0000
0000
,
0100
0000
0000
0000
,
0100
0000
0000
0000
,
0000
0000
1000
0000
,
1000
0000
0000
0000
,
1000
0000
0000
0000
,
1000
0000
0000
0000
,
0000
0000
0001
0000
,
0001
0000
0000
0000
,
0001
0000
0000
0000
,
0001
0000
0000
0000
,
0000
0000
0000
0000
,
2000
0000
0000
0000
,
0000
0000
0000
0000
,
3000
0000
0000
0000
,
0000
0000
0000
0000
,
0010
0000
0000
0000
,
0100
0000
0000
0000
,
0010
0000
0000
0000
,
0100
0000
0000
0000
,
0002
0000
0000
0000
,
0000
0000
0000
0000
,
0003
0000
0000
0000
,
0000
0000
0000
0000
,
0001
0000
0000
0000
,
0010
0000
0000
0000
,
0100
0000
0000
0000
,
0100
0000
0000
0000
,
1000
0000
0000
0000
,
0000
0000
0000
0000
,
0001
0000
0000
0000
,
1000
0000
0000
0000
,
0001
0000
0000
0000
,
0000
0000
0000
0000
,
1000
0000
0000
0000
,
0010
0000
0000
0000
,
1000
0000
0000
0000
,
0000
0000
0000
0000
,
0001
0000
0000
0000
,
0100
0000
0000
0000
,
0001
0000
0000
0000
,
0000
0000
0000
0000
,
1000
0000
0000
0000
,
0001
0000
0000
0000
,
1000
0000
0000
0000
,
0000
0000
0000
0000
,
0001
0000
0000
0000
,
0000
0000
0000
0000
,
0100
0000
0000
0000
,
0000
0000
0000
0000
,
0010
0000
0000
0000
,
0000
0000
0000
0000
,
1000
0000
0000
0000
,
0000
0000
0000
0000
,
0100
0000
0000
0000
,
0000
0000
0000
0000
,
0010
0000
0000
0000
,
0000
0000
0000
0000
,
0001
0000
0000
0000
,
0000
0000
0000
0000
,
2000
0000
0000
0000
,
0000
0000
0000
0000
,
0000
0000
0000
0000
,
0000
0000
0000
0000
,
0000
0000
0000
0000
,
0000
0000
0000
0000
,
3000
0000
0000
0000
;

//---------------dance-single - ----------------
#NOTES:
     dance-single:
     :
     Easy:
     4:
     0.200,0.319,0.000,0.152,0.000,131.000,0.000,16.000,0.000,0.000,0.000,0.200,0.319,0.000,0.152,0.000,131.000,0.000,16.000,0.000,0.000,0.000:
0000
0000
0000
0000
,
0000
0000
0000
0000
,
0000
0000
0000
0000
,
0000
0000
0000
0000
,
0000
0000
0000
0000
,
0000
0000
0000
0000
,
0000
0000
0000
0000
,
0000
0000
0000
0000
,
0001
0000
0000
0000
,
0001
0000
0000
0000
,
1000
0000
0000
0000
,
1000
0000
0000
0000
,
0010
0000
0000
0000
,
0010
0000
0000
0000
,
0100
0000
0100
0000
,
0100
0000
0100
0000
,
0001
0000
0000
0000
,
1000
0000
0000
0000
,
0001
0000
0000
0000
,
1000
0000
0010
0000
,
1000
0000
0000
0000
,
0001
0000
0000
0000
,
1000
0000
0000
0000
,
0001
0000
0010
0000
,
0001
0000
0000
0000
,
1000
0000
0000
0000
,
0001
0000
0000
0000
,
1000
0000
0100
0000
,
1000
0000
0000
0000
,
0002
0000
0000
0000
,
2000
0000
0000
0000
,
0000
0000
0000
3003
,
1000
0000
0000
0000
,
0000
0000
0000
0000
,
0001
0000
0000
0001
,
0000
0000
0000
0000
,
0100
0000
0000
0000
,
0100
0000
0000
0000
,
0010
0000
0000
0000
,
0010
0000
0010
0000
,
0010
0000
0000
0000
,
0000
0000
0000
0000
,
1000
0000
0000
1000
,
0000
0000
0000
0000
,
0001
0000
0000
0000
,
1000
0000
0000
0000
,
0001
0000
1000
0000
,
0001
0000
2000
0000
,
0020
0000
0000
0000
,
3030
0000
0000
0000
,
0010
0000
0000
0100
,
0000
0000
0000
0000
,
0010
0000
0000
0000
,
0010
0000
0000
0000
,
1000
0000
0000
0000
,
0001
0000
0001
0000
,
2000
0000
0000
0000
,
3000
0000
0000
0000
,
0002
0000
0000
2003
,
0000
0000
0000
0000
,
3020
0000
0000
0000
,
0000
0000
0000
0030
,
0100
0000
0100
0000
,
0010
0000
0010
0000
,
0100
0000
0001
0000
,
1000
1000
0000
0000
,
0001
0000
0000
0000
,
1000
0000
0000
0000
,
0001
0000
0010
0000
,
0001
0001
0000
0000
,
1000
0000
0000
0000
,
0001
0000
0000
0000
,
1000
0000
0100
0000
,
1000
1000
0000
0000
,
0001
0000
0000
0000
,
1000
0000
0000
0000
,
0001
0000
0100
0000
,
0001
0001
0000
0000
,
1000
0000
0010
0000
,
0100
0000
0020
0000
,
0200
0000
0000
0000
,
0330
0000
0000
0000
,
0010
0000
0000
0010
,
0000
0000
0000
0000
,
0200
0000
0000
0000
,
0000
0000
0000
0000
,
0000
0000
0000
0000
,
0300
0000
0000
0000
,
0010
0000
0000
0000
,
0000
0000
0000
0000
,
1000
0000
0000
0002
,
0000
0000
0000
0000
,
0020
0000
0000
0000
,
0000
0000
0000
0000
,
0033
0000
0000
0000
,
0000
0000
0000
0000
,
0010
0000
0000
0000
,
0010
0000
0000
0000
,
0001
0000
0000
0000
,
1000
0000
0001
0000
,
1000
0000
0000
0000
,
0001
0000
0000
0000
,
0100
0000
0000
0000
,
0010
1000
0010
1000
,
0010
0000
0000
0000
,
1000
0000
0000
0000
,
0001
0000
0000
0000
,
1000
0000
0001
0000
,
1000
0000
0000
0000
,
0001
0000
0000
0020
,
0000
0000
0000
0000
,
0000
0000
0000
0030
,
0100
0000
0000
0000
,
0000
1000
0000
1000
,
0000
0000
0000
0000
,
0000
0001
0000
0001
,
0000
0000
0000
0000
,
0000
0100
0000
0100
,
0000
0000
0000
0000
,
0000
0010
0000
0010
,
0000
0000
0000
0000
,
0000
1000
0000
1000
,
0000
0000
0000
0000
,
0000
0001
0000
0001
,
0000
0000
0000
0000
,
0000
1000
0000
0000
,
0002
0000
0000
0000
,
0000
0000
0000
0000
,
2000
0000
0000
0000
,
0000
0000
0000
0000
,
0000
0000
0000
0000
,
0000
0000
0000
0000
,
0000
0000
0000
0000
,
0000
0000
0000
0000
,
3003
0000
0000
0000
;

//---------------dance-single - ----------------
#NOTES:
     dance-single:
     :
     Medium:
     6:
     0.341,0.574,0.000,0.238,0.000,226.000,0.000,25.000,0.000,0.000,0.000,0.341,0.574,0.000,0.238,0.000,226.000,0.000,25.000,0.000,0.000,0.000:
0000
0000
0000
0000
,
0000
0000
0000
0000
,
0000
0000
0000
0000
,
0000
0000
0000
0000
,
0000
0000
0000
0000
,
0000
0000
0000
0000
,
0000
0000
0000
0000
,
0000
0000
0000
0000
,
0000
0001
0000
0001
,
0000
1000
0000
1000
,
0000
0001
0000
0001
,
0000
1000
0000
1000
,
0000
0010
0000
0010
,
0000
0100
0000
0100
,
0010
0000
0010
0000
,
0100
0000
0100
0000
,
0001
0000
0001
0000
,
1000
0000
1000
0000
,
0001
0000
0001
0000
,
1000
0001
1000
0000
,
0001
0000
0001
0000
,
0010
0000
0010
0000
,
0001
0000
0001
0000
,
1000
0100
1000
0100
,
0010
0000
0010
0000
,
0100
0000
0100
0000
,
1000
0000
1000
0000
,
0001
1000
0001
0000
,
1000
0000
1000
0000
,
0010
0000
0020
0200
,
0000
0000
0000
0000
,
0000
0330
0000
0000
,
0010
0000
0100
0000
,
0001
0000
1000
0000
,
0001
0000
0000
0010
,
0000
0000
0000
0000
,
0001
0000
1000
0000
,
0001
0000
0100
0000
,
0010
0000
1000
0000
,
0001
0100
0001
0100
,
0001
0000
0010
0000
,
0001
0000
1000
0000
,
0100
0000
0000
1000
,
0000
0000
0100
0000
,
1000
0000
0001
0000
,
1000
0000
0010
0000
,
0100
0001
0100
0000
,
0010
1000
0010
1000
,
0020
0000
0000
0000
,
0000
0000
0000
0000
,
0230
0000
0000
0302
,
0000
0000
0000
0000
,
0013
0000
0010
0000
,
0100
0000
0100
0000
,
1000
0000
1000
0000
,
0001
1000
0001
1000
,
0020
0000
0000
0000
,
0000
0000
0000
0000
,
0230
0000
0000
2300
,
0000
0000
0000
0000
,
3100
0000
0001
0000
,
1000
0000
0001
0000
,
0010
0000
0100
0000
,
1000
0000
0001
0000
,
1000
0000
0010
0000
,
0100
0001
0000
0100
,
0010
0100
0010
0100
,
0000
0001
1000
0001
,
1000
0000
0001
0000
,
0010
0001
0000
1000
,
0100
1000
0100
1000
,
0000
0001
1000
0001
,
1000
0000
0001
0000
,
0100
0010
0000
1000
,
0010
1000
0010
1000
,
0000
0001
0100
0001
,
0100
0000
0001
0000
,
1000
0001
0000
1000
,
0100
0010
0001
1000
,
0000
0001
0010
0200
,
2000
0000
0000
0000
,
0000
0000
0000
0000
,
0000
0000
0000
0000
,
0000
0000
0000
0000
,
0000
0000
0000
0000
,
0000
0000
0000
0000
,
0000
0000
0000
0000
,
3300
0000
0000
0000
,
0200
0000
0000
0000
,
0000
0000
0000
0000
,
2300
0000
0000
3002
,
0000
0000
0000
0000
,
0203
0000
0000
0000
,
0320
0000
0000
0000
,
2030
0000
3002
0000
,
0103
0001
0100
0001
,
0100
0000
0001
0000
,
0010
0000
0001
0000
,
1000
0000
0010
0000
,
1000
0100
1000
0100
,
1000
0000
0001
0000
,
0010
0000
0001
0000
,
1000
0000
0001
0000
,
0100
0010
0100
0010
,
0100
0000
0001
0000
,
1000
0000
0010
0000
,
1000
0000
0100
0000
,
1000
0001
1000
0001
,
1000
0000
0001
0000
,
0010
0000
0001
2000
,
0000
0000
0000
0000
,
0000
0000
0000
0000
,
3001
0000
0000
0000
,
0000
0100
0000
0010
,
0000
0000
0000
0000
,
0000
1000
0000
0001
,
0000
0000
0000
0000
,
0000
1000
0000
0100
,
0000
0000
0000
0000
,
0000
0010
0000
0001
,
0000
0000
0000
0000
,
0000
2000
0000
3002
,
0000
0003
0000
0000
,
0000
0200
0000
0320
,
0000
0030
0000
0000
,
0000
2000
0000
3001
,
1000
0001
1000
0001
,
1000
0001
1000
0002
,
0020
0000
0000
0000
,
0000
0000
0000
0000
,
0000
0000
0000
0000
,
0000
0000
0000
0000
,
0000
0000
0000
0000
,
0000
0000
0000
0000
,
0033
0000
0000
0000
;

//---------------dance-single - ----------------
#NOTES:
     dance-single:
     :
     Hard:
     7:
     0.424,0.574,0.000,0.267,0.000,284.000,0.000,28.000,0.000,0.000,0.000,0.424,0.574,0.000,0.267,0.000,284.000,0.000,28.000,0.000,0.000,0.000:
0000
0000
0000
0000
,
0000
0000
0000
0000
,
0000
0000
0000
0000
,
0000
0000
0000
0000
,
0000
0000
0000
0000
,
0000
0000
0000
0000
,
0000
0000
0000
0000
,
0000
0000
0000
0000
,
0001
0000
0100
0000
,
0001
0000
0010
0000
,
0001
0000
0100
0000
,
0010
1000
0100
1000
,
0010
0000
0100
0000
,
0001
0000
1000
0000
,
0001
0010
0001
0010
,
0100
1000
0100
1000
,
0001
1000
0000
0001
,
0100
0001
0000
1000
,
0010
1000
0000
0001
,
0100
0001
0010
0010
,
0001
1000
0000
0001
,
1000
0001
0000
1000
,
0100
1000
0000
0001
,
1000
0001
0100
0100
,
0001
1000
0000
0001
,
0010
0001
0000
1000
,
0100
1000
0000
0001
,
0100
0001
1000
1000
,
0010
1000
0000
0001
,
0100
0002
0000
2000
,
0000
0000
0000
0000
,
0000
0000
0000
3003
,
2000
0000
0000
0000
,
0000
0000
0000
0000
,
3002
0000
0000
0203
,
0000
0000
0000
0000
,
0310
1000
0000
0010
,
1000
0010
0000
1000
,
0100
1000
0000
0001
,
0010
0001
0010
0010
,
0002
0000
0000
0000
,
0000
0000
0000
0000
,
0203
0000
0000
0320
,
0000
0000
0000
0000
,
0130
0010
0000
1000
,
0010
1000
0000
0001
,
0100
0001
0000
1000
,
0100
1000
0100
1000
,
0002
0000
0000
0000
,
0000
0000
0000
0000
,
2003
0000
0000
3020
,
0000
0000
0000
0000
,
0130
0010
0000
0100
,
0001
0100
0000
0001
,
0010
0001
0000
1000
,
0100
1000
0001
0001
,
0200
0000
0000
0000
,
0000
0000
0000
0000
,
0320
0000
0000
2030
,
0000
0000
0000
0000
,
3001
0100
0000
0001
,
1000
0001
0000
2000
,
0000
0000
0000
0000
,
0000
0000
0000
0000
,
3100
0000
1000
0000
,
0001
0010
0000
0001
,
1000
0001
1000
1000
,
0000
0001
0100
0001
,
0100
0000
0001
0000
,
1000
0010
0000
1000
,
0100
0100
1000
0001
,
0000
1000
1000
0001
,
0001
0000
0100
0000
,
0010
1000
0000
0001
,
0100
0001
0010
0001
,
0000
1000
1000
0001
,
0001
0000
0100
0000
,
0001
0010
0000
0001
,
1000
0001
0010
0001
,
0000
1000
0100
1000
,
0200
0000
0000
0000
,
0000
0000
0000
0000
,
0320
0000
0000
0032
,
0000
0000
0000
0000
,
0203
0000
0000
0000
,
0320
0000
0000
0000
,
2030
0000
0000
0000
,
3001
0100
0001
0010
,
0002
0000
0000
0000
,
0000
0000
0000
0000
,
2003
0000
0000
3002
,
0000
0000
0000
0000
,
0203
0000
0010
0000
,
0010
0000
0310
0000
,
0100
0000
0100
0000
,
0001
1000
0001
1000
,
0001
0010
0000
0001
,
0010
0001
0000
1000
,
0100
1000
0000
0001
,
1000
0001
1000
0001
,
0100
0001
0000
1000
,
0010
1000
0000
0001
,
0100
0001
0000
1000
,
0100
1000
0001
0001
,
0010
0001
0010
0000
0000
0000
0001
0000
,
0100
0001
0000
1000
,
0001
0100
0000
0001
,
1000
0010
1000
0100
,
1000
0001
0000
0100
,
0001
0010
0000
0002
,
0000
0000
0000
0000
,
0000
0000
0000
0000
,
1003
0000
0001
0000
,
0000
0100
0000
0100
,
0010
0000
1000
0000
,
0001
0100
0000
0001
,
0100
0000
0001
0000
,
0010
0001
0000
0010
,
0001
0000
1000
0000
,
0100
1000
0000
0100
,
1000
0000
0010
0000
,
0100
0001
0000
0100
,
0001
0000
1000
0000
,
0001
0010
0000
0001
,
0010
0000
0001
0000
,
1000
0010
0000
0100
,
0010
0010
0100
0100
,
0010
0010
1000
2000
,
0002
0000
0000
0000
,
0000
0000
0000
0000
,
0000
0000
0000
0000
,
0000
0000
0000
0000
,
0000
0000
0000
0000
,
0000
0000
0000
0000
,
3003
0000
0000
0000
;

//---------------dance-single - ----------------
#NOTES:
     dance-single:
     :
     Challenge:
     10:
     0.732,1.000,0.229,0.267,0.086,477.000,24.000,28.000,19.000,9.000,12.000,0.732,1.000,0.229,0.267,0.086,477.000,24.000,28.000,19.000,9.000,12.000: // measure 1
0000
0000
0000
0000
,  // measure 2
0000
0000
0000
0000
,  // measure 3
0000
0000
0000
0000
,  // measure 4
0000
0000
0000
0000
,  // measure 5
0000
0000
0000
0000
,  // measure 6
0000
0000
0000
0000
,  // measure 7
0000
0000
0000
0000
,  // measure 8
0000
0000
0000
0000
,  // measure 9
0001
0000
0000
0000
0000
0000
0000
0000
0000
0000
0000
0000
1000
0000
0000
0000
0000
0000
0000
0100
0000
0000
0000
0000
1000
0000
0000
0000
0000
0000
0000
0000
0000
0000
0000
0000
0001
0000
0000
0000
0000
0000
0000
0000
0000
0000
0000
0000
,  // measure 10
0100
0000
0000
0000
0000
0000
0000
0000
0000
0000
0000
0000
0001
0000
0000
0000
0000
0000
0000
0010
0000
0000
0000
0000
0001
0000
0000
0000
0000
0000
0000
0000
0000
0000
0000
0000
1000
0000
0000
0000
0000
0000
0000
0000
0000
0000
0000
0000
,  // measure 11
0100
0000
0000
0000
0000
0000
0000
0000
0000
0000
0000
0000
1000
0000
0000
0000
0000
0000
0000
0010
0000
0000
0000
0000
1000
0000
0000
0000
0000
0000
0000
0000
0000
0000
0000
0000
0001
0000
0000
0000
0000
0000
0000
0000
0000
0000
0000
0000
,  // measure 12
0100
0000
0000
0000
0000
0000
0000
0000
0000
0000
0000
0000
0001
0000
0000
0000
0000
0000
0000
0010
0000
0000
0000
0000
0001
0000
0000
0000
0000
0000
0000
0000
0000
0000
0000
0000
0100
0000
0000
0000
0000
0000
0000
0000
0000
0000
0000
0000
,  // measure 13
0001
0000
0000
0000
0000
0000
0000
0000
0000
0000
0000
0000
1000
0000
0000
0000
0000
0000
0000
0100
0000
0000
0000
0000
1000
0000
0000
0000
0000
0000
0000
0000
0000
0000
0000
0000
0001
0000
0000
0000
0000
0000
0000
0000
0000
0000
0000
0000
,  // measure 14
0100
0000
0000
0000
0000
0000
0000
0000
0000
0000
0000
0000
0001
0000
0000
0000
0000
0000
0000
0010
0000
0000
0000
0000
0001
0000
0000
0000
0000
0000
0000
0000
0000
0000
0000
0000
1000
0000
0000
0000
0000
0000
0000
0000
0000
0000
0000
0000
,  // measure 15
0002
0100
0103
0000
0002
0010
0013
0000
,  // measure 16
0001
0000
0000
0010
0000
0000
0001
0000
0000
1000
0000
0000
0001
0000
0000
1000
0000
0000
0100
0000
1000
0000
0100
0000
,  // measure 17
1000
0000
1000
0000
0001
0100
0000
0001
,  // measure 18
0100
0000
0001
0000
0010
0001
0000
0010
,  // measure 19
0001
0000
1000
0000
0100
1000
0000
0020
,  // measure 20
1000
0000
1000
0000
1000
0000
1000
0030
,  // measure 21
0010
0000
1000
0000
0001
0100
0000
0001
,  // measure 22
0010
0000
0001
0000
1000
0100
0000
1000
,  // measure 23
0001
0000
0100
0000
0001
0010
0000
0002
,  // measure 24
0100
1000
0010
1003
,  // measure 25
0001
0100
0001
0000
1000
0100
0000
1000
,  // measure 26
0010
0000
0100
0000
0001
0010
0000
0001
,  // measure 27
0010
0000
0100
0000
1000
0010
0000
1000
,  // measure 28
0002
0000
0010
0000
1000
0000
0103
0001
,  // measure 29
1000
0000
0100
0000
1000
0010
0000
1000
,  // measure 30
0100
0000
1000
0000
0001
0010
0000
0004
,  // measure 31
4000
0000
0000
0000
,  // measure 32
0000
0000
3003
0000
,  // measure 33
1011
0000
0000
0000
,  // measure 34
0000
0000
0000
0000
,  // measure 35
0111
0000
0000
1101
,  // measure 36
0000
0000
0000
0000
,  // measure 37
1110
0000
0000
0000
0000
0010
0000
1000
,  // measure 38
0100
0000
1000
0000
0000
0010
0000
0100
,  // measure 39
0001
0000
0010
0000
0000
0001
0000
0100
,  // measure 40
0001
0010
0100
1000
,  // measure 41
1110
0000
0000
0000
,  // measure 42
0000
0000
0000
0000
,  // measure 43
1101
0000
0000
0111
,  // measure 44
0000
0000
0000
0000
,  // measure 45
1011
0000
0000
0000
0000
0010
0000
1000
,  // measure 46
0001
0000
0100
0000
0000
0001
0000
0001
,  // measure 47
1000
0100
1000
0000
0001
0010
0001
0000
,  // measure 48
1000
0100
1000
0100
1000
0010
1000
0010
,  // measure 49
0100
0000
0010
1000
0010
0000
0100
0010
,  // measure 50
0100
0000
0001
0100
0001
0000
1000
0100
,  // measure 51
1000
0001
0010
0001
2000
0000
3002
0000
,  // measure 52
0000
0010
0010
0000
,  // measure 53
1003
0000
0001
0000
1000
0010
0000
0100
,  // measure 54
0010
0000
1000
0000
0001
0100
0000
0001
,  // measure 55
0010
0000
0001
0000
0100
0001
0000
0010
,  // measure 56
0200
0000
1000
0000
0010
0000
1000
0300
,  // measure 57
0100
0000
0010
0001
0010
0000
0001
0100
,  // measure 58
0001
0000
1000
0010
1000
0000
0010
0100
,  // measure 59
0001
0100
0010
0100
0002
0000
0023
0000
,  // measure 60
0000
0100
0001
0030
,  // measure 61
0001
0000
0100
0000
0001
0010
0000
0001
,  // measure 62
1000
0000
1000
0000
0001
0100
0000
0004
,  // measure 63
4000
0000
0000
0000
,  // measure 64
0000
0000
3003
0000
,  // measure 65
1001
1000
0010
0100
,  // measure 66
0001
0010
0001
0000
0100
0000
0001
0010
,  // measure 67
0001
0000
1000
0000
0100
1000
0002
0000
,  // measure 68
0000
0000
0000
0010
0000
0000
0013
0000
0000
0010
0001
0010
,  // measure 69
0001
1000
0100
1000
,  // measure 70
0001
0100
0001
0000
1000
0000
0010
1000
,  // measure 71
0010
0000
1000
0000
0100
2000
0100
0000
,  // measure 72
0000
0000
0000
0100
0000
0000
3100
0000
0000
1000
0100
1000
,  // measure 73
0100
0010
0001
1000
,  // measure 74
0010
0100
0010
0000
1000
0000
0001
0100
,  // measure 75
0001
0000
0100
0000
0001
0010
0002
0000
,  // measure 76
0000
0000
0000
1000
0000
0000
1003
0000
0000
1000
0010
1000
,  // measure 77
0010
1000
0001
0100
,  // measure 78
0001
0010
0001
0000
0100
0000
0002
0000
,  // measure 79
0100
1000
0013
0001
,  // measure 80
0000
0000
0000
0010
0000
0000
0001
0000
0000
1000
0100
1000
,  // measure 81
0100
0000
1000
0000
0001
0100
0000
0001
,  // measure 82
0010
0000
0001
0000
0100
0001
0000
0010
,  // measure 83
0002
0000
0000
0203
,  // measure 84
0000
0000
0000
0000
,  // measure 85
0310
0000
1000
0000
0000
0001
0000
0100
,  // measure 86
0010
0000
1000
0000
0000
0010
0000
0100
,  // measure 87
0010
0000
1000
0000
0000
0010
0000
0100
,  // measure 88
0002
0010
1000
0103
,  // measure 89
0002
0000
0000
0000
,  // measure 90
0000
0000
0000
0000
,  // measure 91
0020
0003
0000
2000
,  // measure 92
0000
0030
0000
0000
,  // measure 93
0200
0000
3000
0000
,  // measure 94
0002
0000
0300
0000
,  // measure 95
0023
0000
0230
0000
,  // measure 96
1300
0000
0000
0001
0000
0000
0100
0000
0000
0001
0010
0001
,  // measure 97
0010
0000
0100
0000
1000
0010
0000
1000
,  // measure 98
0010
0000
0100
0000
0001
0010
0000
0001
,  // measure 99
1000
0000
0001
0000
1000
0100
0000
1000
,  // measure 100
0020
0100
0001
0130
,  // measure 101
0010
0000
1000
0000
0001
0100
0000
0001
,  // measure 102
0100
0000
0001
0000
0010
0100
0000
0010
,  // measure 103
0100
0000
1000
0000
0001
0100
0000
0002
,  // measure 104
0010
1000
0100
1003
,  // measure 105
0001
0010
0001
0000
1000
0100
0000
1000
,  // measure 106
0010
0000
0100
0000
0001
0010
0000
0001
,  // measure 107
1000
0000
0100
0000
0010
0001
0000
2000
,  // measure 108
0100
0000
0001
0000
0010
0000
3001
1000
,  // measure 109
0001
0000
0001
0000
0100
0001
0000
0010
,  // measure 110
0001
0000
1000
0000
0001
0100
0000
0004
,  // measure 111
0400
0000
0000
0000
,  // measure 112
0000
0000
0303
0000
,  // measure 113
0001
0000
0400
0010
0000
0010
0000
0010
,  // measure 114
0000
0310
0000
0101
,  // measure 115
0100
0000
0004
0010
0000
0010
0000
0010
,  // measure 116
0000
0013
0000
1100
,  // measure 117
1000
0000
0004
0100
0000
0100
0000
0100
,  // measure 118
0000
0013
0000
1100
,  // measure 119
1000
0000
0004
0010
0000
0010
0000
0010
,  // measure 120
0000
0013
0000
1100
,  // measure 121
1000
0000
0040
1000
0000
0100
0000
1000
,  // measure 122
0000
1030
0000
0101
,  // measure 123
0100
0000
0004
0010
0000
0100
0000
0010
,  // measure 124
0000
1003
0000
0110
,  // measure 125
0100
0000
0001
0100
0010
1000
0001
0100
,  // measure 126
0001
0100
0000
0001
,  // measure 127
M1M1
1M1M
1MM1
MM11
,  // measure 128
11MM
1MM1
M1M1
M11M
,  // measure 129
1M21
0000
0000
0000
,  // measure 130
M00M
0000
0000
0000
,  // measure 131
0000
0000
0000
0000
,  // measure 132
0000
0000
0000
0000
,  // measure 133
0000
0000
0000
0000
,  // measure 134
0000
0000
0000
0000
,  // measure 135
0000
0000
0000
0000
,  // measure 136
0000
0000
0000
0000
,  // measure 137
0030
0000
0000
0000
;
