#VERSION:0.83;
#TITLE:MATADOR;
#SUBTITLE:;
#ARTIST:cranky;
#TITLETRANSLIT:;
#SUBTITLETRANSLIT:;
#ARTISTTRANSLIT:;
#GENRE:;
#ORIGIN:;
#CREDIT:;
#BANNER:matador_bn.png;
#BACKGROUND:matador_bg.png;
#PREVIEWVID:;
#JACKET:matador_jacket.png;
#CDIMAGE:;
#DISCIMAGE:;
#LYRICSPATH:;
#CDTITLE:cdtitle.png;
#MUSIC:matador.ogg;
#OFFSET:0.000000;
#SAMPLESTART:15.714286;
#SAMPLELENGTH:22.857143;
#SELECTABLE:YES;
#BPMS:0.000=168.000;
#STOPS:;
#DELAYS:;
#WARPS:;
#TIMESIGNATURES:0.000=4=4;
#TICKCOUNTS:0.000=4;
#COMBOS:0.000=1;
#SPEEDS:0.000=1.000=0.000=0;
#SCROLLS:0.000=1.000;
#FAKES:;
#LABELS:0.000=Song Start;
#BGCHANGES:;
#KEYSOUNDS:;
#ATTACKS:
;

//---------------dance-single - ----------------
#NOTEDATA:;
#CHARTNAME:;
#STEPSTYPE:dance-single;
#DESCRIPTION:;
#CHARTSTYLE:;
#DIFFICULTY:Hard;
#METER:9;
#RADARVALUES:0.745072,0.758632,0.571452,0.233410,0.450722,648.000000,577.000000,71.000000,29.000000,0.000000,0.000000,0.000000,0.000000,0.000000,0.745072,0.758632,0.571452,0.233410,0.450722,648.000000,577.000000,71.000000,29.000000,0.000000,0.000000,0.000000,0.000000,0.000000;
#CREDIT:DigitalBasic;
#NOTES:
// measure 0
0000
0000
0000
0000
,  // measure 1
0000
0000
0000
0000
,  // measure 2
0000
0000
0000
0000
,  // measure 3
0000
0000
0000
0000
,  // measure 4
0001
0000
1000
0000
0001
0100
0000
0010
,  // measure 5
1000
0000
0000
0000
0100
0000
0000
0000
0010
0000
0100
0000
0100
0000
0000
0100
,  // measure 6
0010
0000
0000
0010
0001
0000
0000
0001
1000
0000
0000
1000
0001
0000
0000
0000
,  // measure 7
1001
0000
0000
1000
0001
0000
0100
0000
0101
0000
0000
0001
1000
0000
0100
0000
,  // measure 8
1100
0000
0000
1000
0001
0000
0010
0000
0011
0000
0000
0001
1000
0000
0010
0000
,  // measure 9
1010
0000
0000
1000
0001
0000
0100
0000
0101
0000
0000
0001
1000
0000
0010
0000
,  // measure 10
1000
0000
0001
0000
0100
0010
0100
0000
0000
0110
0000
0000
,  // measure 11
0102
0000
0000
0000
1003
0000
0000
1000
0100
0000
0010
0000
0100
0000
1000
0000
,  // measure 12
1200
0000
0000
0000
0310
0000
0000
0010
0001
0000
0100
0000
0010
0000
0100
0000
,  // measure 13
0102
0000
0000
0000
1003
0000
0000
1000
0001
0000
0100
0000
0010
0000
1000
0000
,  // measure 14
1020
0000
0000
0000
0130
0000
0000
0100
0001
0000
0010
0000
0100
0000
1000
0000
,  // measure 15
1200
0000
0000
0000
0310
0000
0000
0010
0100
0000
1000
0000
0010
0000
1000
0000
,  // measure 16
1020
0000
0000
0000
0130
0000
0000
0010
0100
0000
0001
0000
0010
0000
0001
0000
,  // measure 17
0021
0000
0000
0000
0130
0000
0000
0100
1000
0000
0010
0000
0100
0000
0001
0000
,  // measure 18
1000
0000
0000
0100
0000
0000
0010
0000
0000
0000
0001
0000
1000
0000
0100
0000
,  // measure 19
1200
0000
0000
0000
1300
0000
0000
1000
0100
0000
0001
0000
0100
0000
0010
0000
,  // measure 20
0021
0000
0000
0000
0031
0000
0000
0001
0100
0000
1000
0000
0100
0000
0010
0000
,  // measure 21
1020
0000
0000
0000
0130
0000
0000
0100
1000
0000
0100
0000
0001
0000
0100
0000
,  // measure 22
0102
0000
0000
0000
1003
0000
0000
1000
0100
0000
0001
0000
0100
0000
0010
0000
,  // measure 23
0120
0000
0000
0000
0031
0000
0000
0001
0100
0000
1000
0000
0100
0000
0001
0000
,  // measure 24
0201
0000
0000
0000
0310
0000
0000
0010
1000
0000
0100
0000
0001
0000
0100
0000
,  // measure 25
0210
0000
0000
0000
1300
0000
0000
1000
0100
0000
0001
0000
0100
0000
0010
0000
,  // measure 26
0001
0000
0000
0100
0000
0000
0010
0000
0000
0000
0000
0000
0000
0000
0000
0000
,  // measure 27
0010
1000
0010
0100
0010
1000
0010
0100
,  // measure 28
0001
0000
0000
0001
0100
0000
0000
0100
0010
0000
0000
0010
1000
0000
0000
1000
,  // measure 29
0001
0010
0100
0010
0001
0010
0100
1000
,  // measure 30
0100
0000
0000
0100
0010
0000
0000
0010
0001
0000
0000
0001
0010
0000
0000
0010
,  // measure 31
0100
1000
0010
0100
0010
1000
0100
0010
,  // measure 32
0001
0000
0000
0001
0100
0000
0000
0100
0010
0000
0000
0010
1000
0000
0000
1000
,  // measure 33
0100
0010
0001
0100
0010
0100
0001
0010
,  // measure 34
0100
0000
0000
0100
1000
0000
0000
1000
0001
0000
0000
0000
1000
0000
1000
0000
,  // measure 35
0001
0100
0010
0100
1000
0100
0010
0100
,  // measure 36
0001
0000
0000
0001
0100
0000
0000
0010
1000
0000
0000
0001
0100
0000
0000
0010
,  // measure 37
1000
0100
0010
0100
0001
0100
0010
0100
,  // measure 38
1000
0000
0000
1000
0100
0000
0000
0010
0001
0000
0000
1000
0100
0000
0000
0010
,  // measure 39
0001
0100
0010
0001
0010
0100
0001
0010
,  // measure 40
0100
0000
0000
0100
0001
0000
0000
0100
1000
0000
0000
0100
0001
0000
0000
0100
,  // measure 41
1000
0010
0100
1000
0100
0010
1000
0100
,  // measure 42
1000
0010
0100
0010
1000
0100
0010
0100
2000
0000
0000
0000
3000
0000
0000
0000
,  // measure 43
0001
0000
0000
0000
0100
0000
0000
0100
0010
0000
0100
0000
0000
0000
0001
0000
,  // measure 44
1000
0000
0000
0000
0100
0000
0000
0010
0100
0000
0010
0000
0010
0000
0000
0000
,  // measure 45
0001
0000
0000
0000
0100
0000
0000
0010
1000
0000
0010
0000
0000
0000
0100
0000
,  // measure 46
0001
0000
0000
0000
1000
0000
0000
1000
0100
0000
1000
0000
1000
0000
0000
0000
,  // measure 47
1100
0000
0000
0000
1000
0000
0000
1000
0001
0000
0000
0000
0101
0000
0000
0001
,  // measure 48
0100
0000
0000
0000
0001
0100
0010
1000
0001
0000
0100
0000
0010
0000
0100
0000
,  // measure 49
0001
0000
0000
0000
1000
0000
0000
1000
0100
0000
0000
0000
0010
0000
0000
0000
,  // measure 50
1001
0000
0000
0001
1000
0000
0010
0000
1010
0000
0000
1000
0001
0000
0010
0000
,  // measure 51
0011
0000
0000
0001
1000
0000
0100
0000
1100
0000
0000
1000
0001
0000
0100
0000
,  // measure 52
0101
0000
0000
0001
1000
0000
0010
0000
1010
0000
0000
1000
0001
0000
0100
0000
,  // measure 53
0001
0000
1000
0000
0010
0100
0010
0000
0000
0110
0000
0000
,  // measure 54
2010
0000
0000
0000
3001
0000
0000
0001
0010
0000
0100
0000
0010
0000
0001
0000
,  // measure 55
0021
0000
0000
0000
0130
0000
0000
0100
1000
0000
0010
0000
0100
0000
0010
0000
,  // measure 56
2010
0000
0000
0000
3001
0000
0000
0001
1000
0000
0010
0000
0100
0000
0001
0000
,  // measure 57
0201
0000
0000
0000
0310
0000
0000
0010
1000
0000
0100
0000
0010
0000
0001
0000
,  // measure 58
0021
0000
0000
0000
0130
0000
0000
0100
0010
0000
0001
0000
0100
0000
0001
0000
,  // measure 59
0201
0000
0000
0000
0310
0000
0000
0100
0010
0000
1000
0000
0100
0000
1000
0000
,  // measure 60
1200
0000
0000
0000
0310
0000
0000
0010
0001
0000
0100
0000
0010
0000
1000
0000
,  // measure 61
0001
0000
0000
0010
0000
0000
0100
0000
0000
0000
1000
0000
0001
0000
0010
0000
,  // measure 62
0021
0000
0000
0000
0031
0000
0000
0001
0010
0000
1000
0000
0010
0000
0100
0000
,  // measure 63
1200
0000
0000
0000
1300
0000
0000
1000
0010
0000
0001
0000
0010
0000
0100
0000
,  // measure 64
0201
0000
0000
0000
0310
0000
0000
0010
0001
0000
0010
0000
1000
0000
0010
0000
,  // measure 65
2010
0000
0000
0000
3001
0000
0000
0001
0010
0000
1000
0000
0010
0000
0100
0000
,  // measure 66
0210
0000
0000
0000
1300
0000
0000
1000
0010
0000
0001
0000
0010
0000
1000
0000
,  // measure 67
1020
0000
0000
0000
0130
0000
0000
0100
0001
0000
0010
0000
1000
0000
0010
0000
,  // measure 68
0120
0000
0000
0000
0031
0000
0000
0001
0010
0000
1000
0000
0010
0000
0100
0000
,  // measure 69
1000
0000
0000
0010
0000
0000
0100
0000
0000
0000
0001
0000
1000
0000
0010
0000
,  // measure 70
0100
0000
0000
0000
0110
0000
0000
0100
0010
0000
1000
0000
0001
0000
0010
0000
,  // measure 71
0110
0000
0000
0000
0011
0000
0000
0010
0001
0000
0100
0000
0010
0000
0100
0000
,  // measure 72
0110
0000
0000
0000
1010
0000
0000
1000
0010
0000
0100
0000
0001
0000
0100
0000
,  // measure 73
0110
0000
0000
0000
0101
0000
0000
0001
0100
0000
0001
0000
0010
0000
0001
0000
,  // measure 74
0011
0000
0000
0000
0110
0000
0000
0100
1000
0000
0001
0000
0010
0000
0100
0000
,  // measure 75
0110
0000
0000
0000
1100
0000
0000
1000
0100
0000
1000
0000
0001
0000
0100
0000
,  // measure 76
0101
0000
0000
0000
0110
0000
0000
0100
0001
0000
1000
0000
0010
0000
1000
0000
,  // measure 77
0001
0000
0000
0010
0000
0000
0100
0000
1000
0000
0001
1000
0001
0000
0000
0000
,  // measure 78
1001
0000
0000
0000
0101
0000
0000
0100
0010
0000
1000
0000
0001
0000
0010
0000
,  // measure 79
0011
0000
0000
0000
1010
0000
0000
0010
1000
0000
0010
0000
0100
0000
1000
0000
,  // measure 80
1100
0000
0000
0000
0101
0000
0000
0001
0100
0000
0010
0000
0001
0000
0100
0000
,  // measure 81
0101
0000
0000
0000
1100
0000
0000
1000
0100
0000
0001
0000
0100
0000
0010
0000
,  // measure 82
0110
0000
0000
0000
0011
0000
0000
0001
0010
0000
1000
0000
0010
0000
1000
0000
,  // measure 83
1010
0000
0000
0000
1100
0000
0000
1000
0100
0000
0001
0000
0100
0000
0010
0000
,  // measure 84
0110
0000
0000
0000
0011
0000
0000
0001
0100
0000
1000
0000
0100
0000
0010
0000
,  // measure 85
1000
0000
0000
0100
0000
0000
0010
0000
0000
0010
0000
0100
0000
0000
0000
0000
;

//---------------dance-single - ----------------
#NOTEDATA:;
#CHARTNAME:;
#STEPSTYPE:dance-single;
#DESCRIPTION:;
#CHARTSTYLE:;
#DIFFICULTY:Medium;
#METER:8;
#RADARVALUES:0.559954,0.552135,0.265604,0.466820,0.048292,487.000000,454.000000,33.000000,58.000000,0.000000,0.000000,0.000000,0.000000,0.000000,0.559954,0.552135,0.265604,0.466820,0.048292,487.000000,454.000000,33.000000,58.000000,0.000000,0.000000,0.000000,0.000000,0.000000;
#CREDIT:DigitalBasic;
#NOTES:
0000
0000
0000
0000
,
0000
0000
0000
0000
,
0000
0000
0000
0000
,
0000
0000
0000
0000
,
1001
0000
0000
0000
0000
0100
0000
0010
,
0100
0000
0000
0000
,
0110
0000
0000
0000
0000
1000
0000
0000
,
1001
0000
0001
0100
0001
0000
0100
1000
,
0100
0000
1000
0010
1000
0000
0010
0001
,
0010
0000
0001
0100
0001
0000
0001
1000
,
0100
0000
0010
0000
0100
0000
0100
0000
0000
1001
0000
0000
,
0002
0000
2003
0000
3001
1000
0100
0010
,
0200
0000
0320
0000
0130
1000
0010
0100
,
0020
0000
0230
0000
0301
0100
0010
1000
,
0002
0000
0023
0000
0130
0010
0001
0100
,
0020
0000
2030
0000
3001
0100
0010
0100
,
0002
0000
2003
0000
3100
0010
0100
1000
,
0200
0000
0320
0000
0031
0010
0001
0100
,
0020
0000
0030
0110
,
2000
0000
3200
0000
0301
0100
0010
0001
,
0200
0000
0320
0000
0031
0010
1000
0010
,
0200
0000
0302
0000
0013
1000
0010
0001
,
2000
0000
3020
0000
0130
1000
0100
0010
,
2000
0000
3002
0000
0013
1000
0010
0100
,
0020
0000
0032
0000
0103
0010
0001
0010
,
0200
0000
2300
0000
3100
0001
0100
0010
,
1000
0000
0000
0001
0000
0000
1000
0000
0000
0000
0000
0000
0000
0000
0000
0000
,
0010
1000
0010
1000
0010
0100
0010
0100
,
0001
0010
1000
0100
,
0001
0100
0001
0100
0001
1000
0001
1000
,
0001
0010
1000
0100
,
0001
1000
0001
1000
0100
0010
0100
0010
,
0100
1000
0010
0001
,
0100
1000
0100
1000
0001
1000
0001
1000
,
0001
0100
1000
0010
,
0001
0100
0001
1000
0001
0100
0001
1000
,
0001
0010
0100
0001
,
0010
0100
0010
1000
0010
0100
0010
1000
,
0010
0100
1000
0010
,
0100
0010
0100
1000
0100
0010
0100
1000
,
0100
0001
1000
0100
,
0001
0100
0010
0100
0001
0100
0010
0100
,
0001
0000
0000
0001
1000
0000
0000
1000
0001
0000
0000
0000
0000
0000
0000
0000
,
0001
0000
1000
0000
1000
1000
0000
0001
,
1000
1100
1001
0101
,
1001
0000
1000
0000
0010
0010
0000
0100
,
0001
0011
1001
1010
,
1001
0000
0000
0000
1000
0000
0000
1000
0001
0000
0000
0000
0001
0000
0000
0001
,
1000
1001
0010
0110
,
0001
0000
0010
0100
0010
0000
0010
0000
,
1001
0000
1000
0010
1000
0000
0010
0001
,
0010
0000
0001
0100
0001
0000
0100
1000
,
0100
0000
1000
0010
1000
0000
1000
0001
,
0010
0000
0100
0000
0010
0000
0010
0000
0000
1001
0000
0000
,
2000
0000
3002
0000
1003
0001
0010
0100
,
0020
0000
0230
0000
0310
0001
0100
0010
,
0200
0000
0320
0000
1030
0010
0100
0001
,
2000
0000
3200
0000
0310
0100
1000
0010
,
0200
0000
0302
0000
1003
0010
0100
0010
,
2000
0000
3002
0000
0013
0100
0010
0001
,
0020
0000
0230
0000
1300
0100
1000
0010
,
0200
0000
0300
0110
,
0002
0000
0023
0000
1030
0010
0100
1000
,
0020
0000
0230
0000
1300
0100
0001
0100
,
0020
0000
2030
0000
3100
0001
0100
1000
,
0002
0000
0203
0000
0310
0001
0010
0100
,
0002
0000
2003
0000
3100
0001
0100
0010
,
0200
0000
2300
0000
3010
0100
1000
0100
,
0020
0000
0032
0000
0013
1000
0010
0100
,
0001
0000
0000
1000
0000
0000
0001
0000
0000
0000
0001
0000
1000
0000
0000
0000
,
0100
0000
0100
0000
0010
0001
0100
0010
,
1000
0000
1100
0000
1000
0100
0010
0001
,
0100
0000
0101
0000
0001
0100
0010
1000
,
0010
0000
0110
0000
0010
1000
0100
0010
,
0100
0000
0110
0000
0100
0010
0001
0100
,
0001
0000
1001
0000
0001
0100
0010
0100
,
0010
0000
1010
0000
1000
0100
0010
0001
,
1000
0000
0000
0010
0000
0000
0100
0000
0000
0000
0000
0000
0110
0000
0000
0000
,
0001
0000
0101
0000
0001
0100
1000
0100
,
0010
0000
1010
0000
1000
0010
0001
0010
,
0100
0000
1010
0000
1000
0100
0001
0100
,
0010
0000
0011
0000
0001
0010
1000
0010
,
0001
0000
0011
0000
0001
0100
1000
0100
,
0010
0000
1010
0000
1000
0100
0001
0100
,
0010
0000
0011
0000
0001
0100
1000
0100
,
0010
0000
0000
0100
0000
0000
0010
0000
0000
0000
0000
0000
0110
0000
0000
0000
;

//---------------dance-single - ----------------
#NOTEDATA:;
#CHARTNAME:;
#STEPSTYPE:dance-single;
#DESCRIPTION:;
#CHARTSTYLE:;
#DIFFICULTY:Easy;
#METER:5;
#RADARVALUES:0.382884,0.448610,0.370236,0.040243,0.000000,333.000000,287.000000,46.000000,5.000000,0.000000,0.000000,0.000000,0.000000,0.000000,0.382884,0.448610,0.370236,0.040243,0.000000,333.000000,287.000000,46.000000,5.000000,0.000000,0.000000,0.000000,0.000000,0.000000;
#CREDIT:DigitalBasic;
#NOTES:
0000
0000
0000
0000
,
0000
0000
0000
0000
,
0000
0000
0000
0000
,
0000
0000
0000
0000
,
1000
0000
0100
0000
,
0010
0000
0001
0000
,
0002
0000
0000
0003
,
1001
0000
0101
0000
,
1100
0000
1010
0000
,
0011
0000
0101
0000
,
2002
0000
3003
1001
,
0001
0001
1000
0100
,
0010
0010
0001
1000
,
0010
0010
0100
0010
,
1000
1000
0100
0010
,
0001
0001
0100
0010
,
0100
0100
0001
0010
,
0100
0100
1000
0010
,
0100
0000
0000
0110
0000
0000
0000
0000
,
1000
1000
0100
0001
,
0100
0100
0010
1000
,
0010
0010
0001
0100
,
1000
1000
0100
0010
,
0001
0001
0010
1000
,
0001
0001
0010
1000
,
0010
0010
0100
0001
,
0100
0000
0000
0110
0000
0000
0000
0000
,
0001
0100
0001
0100
,
0001
0010
0100
1000
,
0100
1000
0100
1000
,
0100
1000
0010
0100
,
0001
0010
0001
0010
,
0001
0100
0010
1000
,
0010
1000
0010
1000
,
0010
0100
0110
0000
,
0001
0100
1000
0100
,
0010
0010
0100
0100
,
0001
0010
1000
0010
,
0001
0001
1000
1000
,
0010
0100
1000
0100
,
0001
0001
1000
1000
,
0100
0001
0100
0010
,
0001
1000
1001
0000
,
0001
1000
0001
0000
,
0010
0110
1001
0110
,
0010
0100
0010
0000
,
1000
1001
0110
1001
,
1000
0000
1000
0000
,
0001
1001
0000
0110
,
0000
0010
0100
0010
,
1001
0000
1010
0000
,
0011
0000
0101
0000
,
1100
0000
1010
0000
,
2002
0000
3003
1001
,
1000
1000
0001
0010
,
0100
0100
1000
0001
,
0100
0100
0010
0100
,
0001
0001
0010
0100
,
1000
1000
0010
0100
,
0010
0010
1000
0100
,
0010
0010
0001
0100
,
0010
0000
0000
0110
0000
0000
0000
0000
,
0001
0001
0010
1000
,
0010
0010
0100
0001
,
0100
0100
1000
0010
,
0001
0001
0010
0100
,
1000
1000
0100
0001
,
1000
1000
0100
0001
,
0100
0100
0010
1000
,
0010
0000
0000
0110
0000
0000
0000
0000
,
1000
1000
0001
0100
,
0010
0110
1000
1001
,
0010
0010
0100
0010
,
0001
0001
1000
0010
,
0100
0100
0010
1000
,
0001
0101
1000
1100
,
0001
0011
1000
1010
,
0010
0000
0000
0110
0000
0000
0100
0000
,
0001
1001
0001
0100
,
0010
0110
0010
1000
,
0100
1100
1000
0001
,
0100
0101
0100
0010
,
1000
1010
1000
0100
,
0010
0110
0010
0001
,
0100
0101
0100
1000
,
0100
0000
0000
0110
0000
0000
1001
0000
;
