#TITLE:Like+it!;
#SUBTITLE:;
#ARTIST:Ryu*;
#TITLETRANSLIT:;
#SUBTITLETRANSLIT:;
#ARTISTTRANSLIT:;
#GENRE:;
#CREDIT:;
#BANNER:Banner.jpg;
#BACKGROUND:back.jpg;
#LYRICSPATH:;
#CDTITLE:;
#MUSIC:Likeit.ogg;
#OFFSET:-0.237000;
#SAMPLESTART:68.980003;
#SAMPLELENGTH:12.000000;
#SELECTABLE:YES;
#BPMS:0.000000=165.000000
;
#STOPS:
;
#BGCHANGES:;
#KEYSOUNDS:;
#ATTACKS:;

//---------------dance-single - ----------------
#NOTES:
     dance-single:
     :
     Hard:
     7:
     0.516581,0.587865,0.234280,0.112047,0.040744,355.000000,332.000000,23.000000,11.000000,0.000000,0.000000,0.516581,0.587865,0.234280,0.112047,0.040744,355.000000,332.000000,23.000000,11.000000,0.000000,0.000000:
// measure 0
0000
0000
0000
0000
,  // measure 1
0000
0000
0000
0000
,  // measure 2
0000
0000
0000
0000
,  // measure 3
0000
0000
0000
0000
,  // measure 4
0000
0000
0010
0001
0010
0100
1000
0001
,  // measure 5
0000
0001
0010
0001
0010
0001
1000
0100
,  // measure 6
0000
1000
0100
0010
0100
1000
0001
0100
,  // measure 7
0000
0100
0001
1000
0001
1000
0010
0100
,  // measure 8
0000
0000
0000
0000
0001
0000
1000
0000
0010
0000
0000
0000
0100
0000
0000
0001
,  // measure 9
0000
0000
1000
0000
0000
0000
0000
0000
0001
0000
0000
0000
0010
0000
0000
0001
,  // measure 10
0000
0000
1000
0000
0100
0000
0000
0000
0001
0000
1000
0000
0001
0000
0000
1000
,  // measure 11
0000
0001
0010
0100
0010
0100
1000
0001
,  // measure 12
0100
1000
1000
0001
,  // measure 13
0001
0010
0010
1000
,  // measure 14
1000
0100
0100
0001
,  // measure 15
1000
0010
0110
1000
,  // measure 16
1001
0000
0010
1000
0100
0000
0001
0000
,  // measure 17
0010
0000
0100
1000
0100
0000
0001
0000
,  // measure 18
1000
0000
0010
0100
0010
0000
0001
0000
,  // measure 19
1000
0000
0001
0010
0100
0000
0001
0000
,  // measure 20
0100
0000
1000
0100
0001
0000
0001
0100
,  // measure 21
1000
0000
0100
1000
0100
0000
0001
0010
,  // measure 22
0001
0000
1000
0100
0100
0000
0010
0010
,  // measure 23
0001
0000
1000
0100
0010
0000
0001
0010
,  // measure 24
0100
0000
1000
0001
1001
0000
0010
0100
,  // measure 25
0110
1100
1001
0101
,  // measure 26
0011
0000
1000
0001
1001
0000
0100
1000
,  // measure 27
1010
0000
0100
0001
0011
1000
0001
0010
,  // measure 28
0100
0010
0001
0000
1001
0000
0001
0000
,  // measure 29
1001
0100
1010
0100
,  // measure 30
0101
1000
1001
0100
,  // measure 31
1100
0010
0011
0100
,  // measure 32
1001
0000
0010
0000
0001
0100
0010
1000
,  // measure 33
0001
0000
0010
0001
1000
0100
0001
0010
,  // measure 34
0100
0000
0001
1000
0100
0010
0001
1000
,  // measure 35
0001
0000
0100
0001
0010
0000
0001
0010
,  // measure 36
0100
0000
1000
0010
0100
0010
0000
1000
,  // measure 37
0001
0000
1000
0001
0000
0001
0010
0000
,  // measure 38
0001
0000
0010
0100
0000
0100
1000
0000
,  // measure 39
0100
0010
0000
0100
0010
0000
0001
1000
,  // measure 40
0010
0000
0100
0000
0010
0000
0000
0000
1000
0000
0001
0000
0100
0000
0000
0010
,  // measure 41
0000
0000
1000
0000
0010
0000
0000
0000
1000
0000
0000
0000
0001
0000
0000
0010
,  // measure 42
0000
0000
0100
0000
0000
0000
0001
0000
1000
0000
0000
0000
0010
0000
0000
0100
,  // measure 43
0000
0000
0100
0000
0000
0000
0001
0000
1000
0000
0000
0000
1000
0000
0000
0100
,  // measure 44
0000
0000
0001
0000
1000
0000
0001
0000
0100
0000
0000
0000
0001
0000
0000
0010
,  // measure 45
0000
0100
2000
0000
3002
0000
0203
0000
,  // measure 46
0310
0000
1001
0000
0000
0000
0010
0001
,  // measure 47
0010
0000
1000
0001
0100
0000
0001
0100
,  // measure 48
0010
2000
3002
0023
,  // measure 49
0130
0000
1000
0010
0100
0000
0001
0010
,  // measure 50
1000
0002
0203
0320
,  // measure 51
1030
0000
0001
1000
0010
0000
0001
1000
,  // measure 52
0001
0000
1000
0010
0100
0000
0001
0010
,  // measure 53
0100
0000
1000
0100
0001
0000
0010
0100
,  // measure 54
1000
0000
1000
0001
0010
0000
0001
0100
,  // measure 55
0010
0000
1000
0001
0100
0010
1000
0001
,  // measure 56
1000
0000
0001
0010
1000
0010
0001
0100
,  // measure 57
1000
0000
0001
0010
0001
1000
0100
1000
,  // measure 58
0100
0001
1001
0010
,  // measure 59
1100
0000
0001
0100
0010
0010
1000
0010
,  // measure 60
0100
0000
0001
0100
0001
0010
0100
1000
,  // measure 61
0001
0000
1000
0100
0010
0000
0001
0100
,  // measure 62
1000
0001
0010
0100
0010
0100
1000
0001
,  // measure 63
1000
2002
0000
0000
,  // measure 64
0000
3003
0000
0000
0000
0000
0000
0000
;
