#TITLE:Kiss Kiss;
#SUBTITLE:;
#ARTIST:Hanna;
#TITLETRANSLIT:;
#SUBTITLETRANSLIT:;
#ARTISTTRANSLIT:;
#GENRE:Happy hardcore;
#CREDIT:TiKAL;
#BANNER:[Short] - Kiss Kiss.png;
#BACKGROUND:[Short] - Kiss Kiss-bg.png;
#LYRICSPATH:;
#CDTITLE:[Short] - Kiss Kiss-cdtitle.png;
#MUSIC:[Short] - Kiss Kiss.ogg;
#OFFSET:-0.011156;
#SAMPLESTART:68.344002;
#SAMPLELENGTH:18.851000;
#SELECTABLE:YES;
#DISPLAYBPM:204.000000;
#BPMS:0.000000=203.707
;
#STOPS:
;
#BGCHANGES:;
#KEYSOUNDS:;
#ATTACKS:;

//---------------dance-single - TiKAL----------------
#NOTES:
     dance-single:
     TiKAL:
     Beginner:
     2:
     0.162602,0.289190,0.101174,0.000000,0.000000,135.000000,123.000000,12.000000,0.000000,0.000000,0.000000,0.162602,0.289190,0.101174,0.000000,0.000000,135.000000,123.000000,12.000000,0.000000,0.000000,0.000000:
0000
0000
0000
0000
,
0000
0000
0000
0000
,
0000
0000
0000
0000
,
0000
0000
0000
0000
,
0000
0000
0000
0000
,
0000
0000
0000
0000
,
0000
0000
0000
0000
,
0000
0000
0000
0000
,
1000
0000
0000
0000
,
1000
0000
0000
0000
,
0001
0000
0000
0000
,
0001
0000
0001
0000
,
0100
0000
0000
0000
,
0100
0000
0000
0000
,
0010
0000
0000
0000
,
0010
0000
0010
0000
,
1000
0000
0000
0000
,
0100
0000
0000
0000
,
0010
0000
0000
0000
,
0001
0000
0000
0000
,
1000
0000
0000
0000
,
0010
0000
0000
0000
,
0100
0000
0000
0000
,
0001
0000
0000
0000
,
1000
0000
0001
0000
,
1001
0000
0000
0000
,
1000
0000
0000
0000
,
1000
0000
1000
0000
,
0010
0000
0000
0000
,
0010
0000
0010
0000
,
0100
0000
0000
0000
,
0100
0000
0100
0000
,
0001
0000
1000
0000
,
1001
0000
0000
0000
,
0001
0000
0000
0000
,
0001
0000
0001
0000
,
0100
0000
0000
0000
,
0100
0000
0100
0000
,
0010
0000
0000
0000
,
0010
0000
0010
0000
,
1000
0000
0001
0000
,
1001
0000
1001
0000
,
1000
0000
0000
0000
,
1000
0000
0000
0000
,
0100
0000
0000
0000
,
0100
0000
0000
0000
,
0010
0000
0000
0000
,
0010
0000
0000
0000
,
0001
0000
0000
0000
,
0001
0000
0000
0000
,
1000
0000
0000
0000
,
1000
0000
0000
0000
,
0010
0000
0000
0000
,
0010
0000
0000
0000
,
0100
0000
0000
0000
,
0100
0000
0000
0000
,
0001
0000
1000
0000
,
1001
0000
0000
0000
,
0001
0000
0000
0000
,
0001
0000
0001
0000
,
0100
0000
0000
0000
,
0100
0000
0100
0000
,
0010
0000
0000
0000
,
0010
0000
0010
0000
,
1000
0000
0001
0000
,
1001
0000
0000
0000
,
1000
0000
0000
0000
,
1000
0000
1000
0000
,
0010
0000
0000
0000
,
0010
0000
0010
0000
,
0100
0000
0000
0000
,
0100
0000
0100
0000
,
0001
0000
1000
0000
,
1001
0000
1001
0000
,
1000
0000
0000
0000
,
1000
0000
1000
0000
,
0010
0000
0000
0000
,
0010
0000
0010
0000
,
0100
0000
0000
0000
,
0100
0000
0100
0000
,
0001
0000
1000
0000
,
1001
0000
0000
0000
,
0001
0000
0000
0000
,
0001
0000
0001
0000
,
0100
0000
0000
0000
,
0100
0000
0100
0000
,
0010
0000
0000
0000
,
0010
0000
0010
0000
,
1000
0000
0001
0000
,
1001
0000
1001
0000
,
1000
0000
0000
0000
,
0001
0000
0000
0000
,
1000
0000
0000
0000
,
0001
0000
0000
0000
,
0100
0000
0000
0000
,
0010
0000
0000
0000
,
0100
0000
0000
0000
,
0010
0000
1000
0000
,
1001
0000
0000
0000
;

//---------------dance-single - TiKAL----------------
#NOTES:
     dance-single:
     TiKAL:
     Easy:
     4:
     0.251732,0.330503,0.050587,0.193918,0.000000,209.000000,203.000000,6.000000,23.000000,0.000000,0.000000,0.251732,0.330503,0.050587,0.193918,0.000000,209.000000,203.000000,6.000000,23.000000,0.000000,0.000000:
0000
0000
0000
0000
,
0000
0000
0000
0000
,
0000
0000
0000
0000
,
0000
0000
0000
0000
,
0000
0000
0000
0000
,
0000
0000
0000
0000
,
0000
0000
0000
0000
,
0000
0000
0000
0000
,
1000
0000
0001
0000
,
1000
0000
0001
0000
,
0100
0000
0010
0000
,
1000
0001
1000
0000
,
0010
0000
0100
0000
,
0010
0000
0100
0000
,
0001
0000
1000
0000
,
0010
0100
0010
0000
,
1000
0000
0100
0000
,
0010
0001
0010
0000
,
0001
0000
0100
0000
,
0010
1000
0010
0000
,
1000
0000
0001
0000
,
0100
0010
0100
0000
,
0001
0000
1000
0000
,
0020
0000
0230
0000
,
0302
0000
2003
3000
,
2002
0000
0000
3003
,
1000
0000
0001
0000
,
0100
0100
0100
0000
,
0001
0000
1000
0000
,
0100
0100
0100
0000
,
1000
0000
0001
0000
,
0010
0010
0010
0000
,
0001
0000
0010
0200
,
0000
1000
1300
0000
,
0001
0000
1000
0000
,
0010
0010
0010
0000
,
1000
0000
0001
0000
,
0010
0010
0010
0000
,
0001
0000
1000
0000
,
0100
0100
0100
0000
,
1000
0000
0100
0010
,
0001
1000
1001
0000
,
1000
0000
0010
0000
,
0200
0000
0300
0000
,
0001
0000
0100
0000
,
0020
0000
0030
0000
,
1000
0000
0001
0000
,
0200
0000
0300
0000
,
0001
0000
0010
0000
,
0200
2000
0000
3300
,
0001
0000
0010
0000
,
0200
0000
0300
0000
,
1000
0000
0100
0000
,
0020
0000
0030
0000
,
0001
0000
1000
0000
,
0200
0000
0300
0000
,
1000
0000
0001
0000
,
2002
0000
0000
3003
,
1000
0000
0001
0000
,
0100
0100
0100
0000
,
0001
0000
1000
0000
,
0100
0100
0100
0000
,
1000
0000
0001
0000
,
0010
0010
0010
0000
,
0001
0000
0010
0200
,
0000
1000
1300
0000
,
0001
0000
1000
0000
,
0010
0010
0010
0000
,
1000
0000
0001
0000
,
0010
0010
0010
0000
,
0001
0000
1000
0000
,
0100
0100
0100
0000
,
1000
0000
0100
0010
,
0220
0000
0000
0330
,
0001
0000
1000
0000
,
0010
0010
0010
0000
,
1000
0000
0001
0000
,
0010
0010
0010
0000
,
0001
0000
1000
0000
,
0100
0100
0100
0000
,
1000
0000
0100
0020
,
0000
0001
0031
0000
,
1000
0000
0001
0000
,
0100
0100
0100
0000
,
0001
0000
1000
0000
,
0100
0100
0100
0000
,
1000
0000
0001
0000
,
0010
0010
0010
0000
,
0001
0000
0010
0100
,
0220
0000
0000
0330
,
1000
0001
0000
0001
,
0000
1000
0000
1000
,
0000
0010
0000
0010
,
0000
0100
0000
0100
,
0000
0001
0000
0001
,
0000
0010
0000
0010
,
0000
0100
0000
0100
,
0000
1000
0001
1000
,
1001
0000
0000
0000
;

//---------------dance-single - TiKAL----------------
#NOTES:
     dance-single:
     TiKAL:
     Medium:
     6:
     0.415538,0.495755,0.177055,0.202349,0.000000,345.000000,324.000000,21.000000,24.000000,0.000000,0.000000,0.415538,0.495755,0.177055,0.202349,0.000000,345.000000,324.000000,21.000000,24.000000,0.000000,0.000000:
0000
0000
0000
0000
,
0000
0000
0000
0000
,
0000
0000
0000
0000
,
0000
0000
0000
0000
,
0000
0000
0000
0000
,
0000
0000
0000
0000
,
0000
0000
0000
0000
,
0000
0000
0000
0000
,
0001
0001
1000
1000
,
0010
0100
0001
1000
,
0001
0010
0100
1000
,
0001
0100
0110
0000
,
0100
0100
0010
0010
,
1000
0100
0010
0001
,
1000
0010
0100
0001
,
1000
0001
1001
0000
,
0002
0000
2003
0000
,
3001
0001
1000
1000
,
0020
0000
0230
0000
,
0301
1000
1001
0000
,
2000
0000
3200
0000
,
0310
0010
0001
0001
,
2000
0000
3020
0000
,
0130
0001
0010
0001
,
1000
1000
0001
0001
,
2002
0000
0000
3003
,
1001
0100
0010
0001
,
0010
0010
0001
0001
,
1000
0010
0100
0001
,
0100
0100
0010
0010
,
1000
0001
0100
0010
,
1000
1000
0001
0001
,
1000
0010
0100
0202
,
0300
1000
1000
0003
,
1001
0010
0100
1000
,
0100
0100
1000
1000
,
0001
0100
0010
1000
,
0010
0010
0100
0100
,
0001
1000
0010
0100
,
0001
0001
1000
1000
,
0001
0100
0010
1000
,
1001
0110
1001
0000
,
1000
0100
1000
0001
,
0100
0000
0000
0100
0010
0000
0000
0000
,
1000
0100
0010
0001
,
0010
0000
0000
0010
0100
0000
0000
0000
,
1000
0001
0100
0001
,
1000
0000
0000
1000
0001
0000
0000
0000
,
1000
0000
0000
1000
0100
0000
0000
0100
,
0010
0220
0000
0330
,
0001
0010
0001
1000
,
0010
0000
0000
0010
0100
0000
0000
0000
,
0001
0010
0100
1000
,
0100
0000
0000
0100
0010
0000
0000
0000
,
0001
1000
0010
1000
,
0001
0000
0000
0001
1000
0000
0000
0000
,
0001
0010
0100
1000
,
2002
0000
0000
3003
,
1001
0100
0010
0001
,
0010
0010
0001
0001
,
1000
0010
0100
0001
,
0100
0100
0010
0010
,
1000
0001
0100
0010
,
1000
1000
0001
0001
,
1000
0010
0100
0202
,
0300
1000
1000
0003
,
1001
0010
0100
1000
,
0100
0100
1000
1000
,
0001
0100
0010
1000
,
0010
0010
0100
0100
,
0001
1000
0010
0100
,
0001
0001
1000
1000
,
0001
0100
0010
1000
,
2002
0000
0000
3003
,
0110
1000
0001
0100
,
0001
0001
0100
0100
,
0010
1000
0001
0100
,
0001
0001
1000
1000
,
0010
0100
0001
1000
,
0010
0010
0100
0100
,
0010
1000
0001
0202
,
0003
0010
0010
0300
,
0110
0001
1000
0010
,
1000
1000
0010
0010
,
0100
0001
1000
0010
,
1000
1000
0001
0001
,
0100
0010
1000
0001
,
0100
0100
0010
0010
,
0100
0001
1000
0010
,
0220
0000
0000
0330
,
1000
0010
1000
0010
,
0100
0001
0100
0001
,
1000
0100
1000
0100
,
0010
0001
0010
0001
,
1000
0010
0100
0001
,
1000
0100
0010
0001
,
1000
0010
0100
0001
,
1000
0000
0001
0000
1000
0001
1000
0000
,
1001
0000
0000
0000
;

//---------------dance-single - TiKAL----------------
#NOTES:
     dance-single:
     TiKAL:
     Hard:
     9:
     0.709426,0.784945,0.590184,0.590184,0.075881,589.000000,519.000000,70.000000,70.000000,0.000000,0.000000,0.709426,0.784945,0.590184,0.590184,0.075881,589.000000,519.000000,70.000000,70.000000,0.000000,0.000000:
// measure 0
0000
0000
0000
0000
,  // measure 1
0000
0000
0000
0000
,  // measure 2
0000
0000
0000
0000
,  // measure 3
0000
0000
0000
0000
,  // measure 4
0000
0000
0000
0000
,  // measure 5
0000
0000
0000
0000
,  // measure 6
0000
0000
0000
0000
,  // measure 7
0000
0000
0000
0000
,  // measure 8
0002
0000
0203
0000
0310
1000
0100
0000
,  // measure 9
1000
0100
0001
0100
1000
0000
0001
0000
,  // measure 10
0100
0010
1000
0001
1000
0000
0100
0010
,  // measure 11
0002
0203
2300
3100
,  // measure 12
0002
0000
2003
0000
3100
0010
0001
1000
,  // measure 13
0100
0001
0100
1000
0100
0001
0100
0000
,  // measure 14
1000
0001
0100
0010
1000
0100
0010
0000
,  // measure 15
0002
0023
2030
3010
,  // measure 16
0002
0000
0003
0000
0201
0000
0000
0310
,  // measure 17
1000
0100
0010
0001
1000
0000
0001
0000
,  // measure 18
1000
0000
0200
0300
0120
0000
0000
0000
,  // measure 19
0032
0000
0023
0000
0130
1000
0010
0100
,  // measure 20
0002
0003
0201
0000
,  // measure 21
0310
1000
0100
0010
0001
0000
1000
0000
,  // measure 22
0020
0000
0030
0000
0120
0000
0000
1030
,  // measure 23
1100
0000
0100
0010
0110
0000
0010
0001
,  // measure 24
0012
0203
0320
2030
,  // measure 25
3001
1000
0001
1000
0010
0100
0010
0100
,  // measure 26
0001
0000
1000
0010
1010
0000
1000
0001
,  // measure 27
0010
0001
0010
0001
1000
0010
0100
0000
,  // measure 28
0101
0000
0001
0010
1000
0000
1000
0010
,  // measure 29
0002
0000
0203
0000
0320
0000
1030
0010
,  // measure 30
2010
3200
0320
0032
,  // measure 31
1003
0010
1000
0010
0100
0001
0010
0100
,  // measure 32
1000
0001
1000
0010
1000
0000
2002
0000
,  // measure 33
0000
3003
0110
0000
0101
0000
1001
0000
,  // measure 34
0001
0000
0010
0100
0110
0000
0100
1000
,  // measure 35
0001
0100
0001
0100
0010
1000
0100
0010
,  // measure 36
0011
0000
0001
1000
0020
0000
2030
0000
,  // measure 37
3001
0010
0001
0010
0001
0000
1000
0000
,  // measure 38
1001
0000
0001
1000
0010
0100
0001
0010
,  // measure 39
0100
1000
0100
1000
0100
1000
0010
0100
,  // measure 40
0101
0000
0001
1000
0020
0000
0230
0300
,  // measure 41
0101
0000
0000
1001
0000
0000
1010
0000
0110
0000
0000
0000
1000
0000
0001
0000
,  // measure 42
1001
0000
0001
0010
0100
0000
1000
0000
,  // measure 43
0001
0000
0100
1000
0000
0100
0001
1000
,  // measure 44
0001
0100
0001
0010
0001
0000
1000
0010
,  // measure 45
0100
0000
0010
1000
0000
0001
0010
0001
,  // measure 46
1001
0000
1000
0010
0100
0000
0010
0000
,  // measure 47
1000
0000
0001
0010
0000
1000
0010
0001
,  // measure 48
2000
0000
3000
0010
0200
0000
0300
0001
,  // measure 49
0010
0002
2000
0000
0000
0000
3003
0000
,  // measure 50
0110
0010
1000
0001
0010
0000
0001
0000
,  // measure 51
2000
0000
3010
1000
0001
0010
1000
0000
,  // measure 52
0010
0001
1000
0010
0100
0000
0001
0000
,  // measure 53
1000
0000
0001
0100
1000
0100
0001
0000
,  // measure 54
1001
0000
1000
0100
0010
0001
0100
0000
,  // measure 55
0010
0000
1000
0010
0001
0010
1000
0000
,  // measure 56
0001
0010
0001
0100
0001
1000
0010
2000
,  // measure 57
0002
0000
0000
3003
,  // measure 58
1001
0000
0001
0100
0101
0000
0001
1000
,  // measure 59
0100
1000
0100
1000
0001
0100
0010
0000
,  // measure 60
1010
0000
1000
0100
0001
0000
0001
0100
,  // measure 61
2000
0000
3020
0000
0230
0000
0301
0100
,  // measure 62
0102
0023
0230
2300
,  // measure 63
3001
0100
0001
0100
0010
1000
0100
0010
,  // measure 64
0001
1000
0001
0100
0001
0000
2002
0000
,  // measure 65
0000
3003
0110
0000
1010
0000
1001
0000
,  // measure 66
1000
0000
0100
0010
0110
0000
0010
0001
,  // measure 67
1000
0010
1000
0010
0100
0001
0010
0100
,  // measure 68
1100
0000
1000
0001
0200
0000
0302
0000
,  // measure 69
1003
0100
1000
0100
1000
0000
0001
0000
,  // measure 70
1001
0000
1000
0001
0100
0010
1000
0100
,  // measure 71
0010
0001
0010
0001
0010
0001
0100
0010
,  // measure 72
1010
0000
1000
0001
0200
0000
0320
0030
,  // measure 73
1010
0000
1001
0000
0001
0100
0010
1000
,  // measure 74
1001
0000
1000
0100
1100
0000
1000
0001
,  // measure 75
0100
0001
0100
0001
1000
0100
0010
0000
,  // measure 76
0011
0000
0001
0100
1000
0000
1000
0100
,  // measure 77
0002
0000
0023
0000
0230
0000
1300
0100
,  // measure 78
2100
3020
0230
0302
,  // measure 79
1003
0100
1000
0100
0010
0001
0100
0010
,  // measure 80
1000
0001
1000
0100
1000
0000
2002
0000
,  // measure 81
0000
3003
0110
0000
0011
0000
1001
0000
,  // measure 82
0001
0000
0100
0010
0110
0000
0010
1000
,  // measure 83
0001
0010
0001
0010
0100
1000
0010
0100
,  // measure 84
0101
0000
0001
1000
0200
0000
2300
0000
,  // measure 85
3001
0100
0001
0100
0001
0000
1000
0000
,  // measure 86
1001
0000
0001
1000
0100
0010
0001
0100
,  // measure 87
0010
1000
0010
1000
0010
1000
0100
0010
,  // measure 88
0011
0000
0001
1000
0200
0000
0320
0030
,  // measure 89
0011
0000
1001
0000
1000
0100
0010
0001
,  // measure 90
1001
0000
0000
0000
0001
0010
0000
0000
1001
0000
0000
0000
1000
0010
0000
0000
,  // measure 91
1001
0000
0000
0000
0001
0100
0000
0000
1001
0000
0000
0000
1000
0100
0000
0000
,  // measure 92
0110
0000
0000
0000
0010
0001
0000
0000
0110
0000
0000
0000
0100
1000
0000
0000
,  // measure 93
0110
0000
0000
0000
0010
0001
0000
0000
0110
0000
0000
0000
0100
1000
0000
0000
,  // measure 94
1001
0000
0000
0000
0001
1000
0000
0000
0110
0000
0000
0000
1000
0001
0000
0000
,  // measure 95
0110
0000
0000
0000
0010
0100
0000
0000
1001
0000
0000
0000
0100
0010
0000
0000
,  // measure 96
0011
0000
0000
0000
0100
1000
0000
0000
1010
0000
0000
0000
0100
0001
0000
0000
,  // measure 97
1100
0000
0000
0000
0010
0001
0000
0000
1000
0001
1000
0001
1000
0000
0000
0000
,  // measure 98
1001
0000
0000
0000
;
