#TITLE:IF;
#SUBTITLE:;
#ARTIST:R5;
#TITLETRANSLIT:;
#SUBTITLETRANSLIT:;
#ARTISTTRANSLIT:;
#GENRE:;
#CREDIT:;
#BANNER:;
#BACKGROUND:[Short] - IF-bg.png;
#LYRICSPATH:;
#CDTITLE:;
#MUSIC:[Short] - IF.ogg;
#OFFSET:0.277882;
#SAMPLESTART:44.935375;
#SAMPLELENGTH:12.000000;
#SELECTABLE:YES;
#BPMS:0.000000=116.000000
;
#STOPS:184.500000=0.520000
;
#BGCHANGES:1.500=[Short] - IF.avi=1.000=0=0=1=====,
99999=-nosongbg-=1.000=0=0=0 // don't automatically add -songbackground-
;
#KEYSOUNDS:;
#ATTACKS:;

//---------------dance-single - ----------------
#NOTES:
     dance-single:
     :
     Hard:
     7:
     0.340768,0.457907,0.383364,0.170384,0.187422,280.000000,235.000000,45.000000,20.000000,0.000000,0.000000,0.340768,0.457907,0.383364,0.170384,0.187422,280.000000,235.000000,45.000000,20.000000,0.000000,0.000000:
// measure 0
0000
0000
0000
0000
,  // measure 1
0000
0000
0000
0000
,  // measure 2
0000
0000
0000
0000
,  // measure 3
0000
0000
0000
0000
,  // measure 4
0000
0000
0000
0000
,  // measure 5
0000
0000
0000
0000
,  // measure 6
0000
0000
1000
0000
,  // measure 7
1000
0000
0001
0000
,  // measure 8
0001
0000
0011
0000
0001
0010
0100
1000
,  // measure 9
0010
0100
0002
0000
1000
0000
0103
0000
,  // measure 10
1100
0010
0001
0001
,  // measure 11
0100
1000
1000
0100
,  // measure 12
0001
0000
0011
0000
0100
1000
0010
0100
,  // measure 13
0001
0010
0002
0000
1000
0000
0103
0000
,  // measure 14
0100
0000
0000
0000
0101
0000
0000
0000
0101
0000
0000
0000
0001
1000
0000
0001
,  // measure 15
0000
0010
0100
0000
0110
0000
0000
0000
0110
0000
0000
0000
0100
1000
0000
0010
,  // measure 16
0000
1000
0010
0000
1010
0000
0000
0000
1010
0000
0000
0000
1000
0000
0000
0000
,  // measure 17
0001
0000
1000
0100
0001
0100
1000
0100
,  // measure 18
0100
0000
0000
0000
0011
0000
0000
0000
1001
0000
0000
0000
0001
0100
0000
0010
,  // measure 19
0000
1000
0100
0000
1100
0000
0000
0000
1001
0000
0000
0000
0010
1000
0000
0001
,  // measure 20
0000
0010
0100
0000
0110
0000
0000
0000
0011
0000
0000
0000
0001
0000
0000
0000
,  // measure 21
0001
0000
0000
0000
1000
0000
0000
0100
0000
0000
1000
0000
0010
0100
0000
0000
,  // measure 22
0010
0000
0010
0000
1000
0000
0000
0100
0000
0000
0010
0000
0100
0000
0000
1000
,  // measure 23
0000
0000
0000
0000
0001
0000
0000
0100
0000
0000
0010
0000
0100
0000
0000
0001
,  // measure 24
0000
0000
0000
0000
1000
0000
0000
0100
0000
0000
0001
0000
0100
0000
0000
1000
,  // measure 25
0000
0000
2002
0000
0000
0000
3003
0000
0001
0000
0100
0000
0010
0000
0000
0010
,  // measure 26
0100
0000
0100
0000
0010
0000
0000
1000
0000
0000
0001
0000
0100
0000
0000
0010
,  // measure 27
0000
0000
0000
0000
1000
0000
0000
0100
0000
0000
0010
0000
0001
0000
0000
0010
,  // measure 28
0000
0000
0000
0000
0001
0000
0000
0100
0000
0000
1000
0000
0100
0000
0000
0001
,  // measure 29
0000
0220
0000
0000
0330
0000
0000
0000
,  // measure 30
1010
0002
0100
0100
,  // measure 31
0013
0200
0001
0001
,  // measure 32
1300
0020
0100
0100
,  // measure 33
1030
2000
0100
0100
,  // measure 34
3010
1001
1001
0000
,  // measure 35
0000
0101
0101
0000
,  // measure 36
0000
1010
1010
0000
,  // measure 37
0000
0000
0000
0000
1000
0000
0000
0100
0000
0000
1000
0000
0001
0100
0000
0000
,  // measure 38
0001
1000
0001
1000
0001
0000
0000
0010
0000
0000
1000
0000
0010
0000
0000
0011
,  // measure 39
0000
0000
0001
0000
0100
0000
0000
1000
0000
0000
0100
0000
0001
0000
0000
1001
,  // measure 40
0000
0000
0001
0000
1000
0000
0000
0100
0000
0000
0001
0000
1000
0000
0000
0010
,  // measure 41
0000
0000
2002
0000
0000
0000
3003
0000
0001
0000
0100
0000
0010
0000
0000
0010
,  // measure 42
0100
0000
0100
0000
0001
0000
0000
0100
0000
0000
1000
0000
0100
0000
0000
0110
,  // measure 43
0000
0000
0010
0000
1000
0000
0000
0001
0000
0000
1000
0000
0010
0000
0000
1010
,  // measure 44
0000
0000
0001
0000
1000
0000
0000
0100
0000
0000
0001
0000
1000
0000
0000
0010
,  // measure 45
0000
2002
0000
0000
0000
0000
3003
0000
,  // measure 46
0000
0101
1010
2100
,  // measure 47
3010
0100
0001
0000
0011
0000
0102
0000
,  // measure 48
0103
0001
1000
0000
1010
0000
0210
0000
,  // measure 49
0301
0100
1000
0000
0100
0000
1001
0000
,  // measure 50
0001
0010
0100
0000
1100
0000
2001
0000
,  // measure 51
3001
1000
0010
0000
0101
0000
0012
0000
,  // measure 52
0013
0100
1000
0000
1100
0000
0120
0000
,  // measure 53
1030
0010
0001
0000
0001
0100
0110
0000
;

//---------------dance-single - ----------------
#NOTES:
     dance-single:
     :
     Medium:
     5:
     0.244623,0.320535,0.221499,0.144826,0.017038,201.000000,175.000000,26.000000,17.000000,0.000000,0.000000,0.244623,0.320535,0.221499,0.144826,0.017038,201.000000,175.000000,26.000000,17.000000,0.000000,0.000000:
0000
0000
0000
0000
,
0000
0000
0000
0000
,
0000
0000
0000
0000
,
0000
0000
0000
0000
,
0000
0000
0000
0000
,
0000
0000
0000
0000
,
0000
0000
0010
0000
,
0010
0000
0001
0000
,
0001
1001
1000
0100
,
0001
0000
0100
0000
1000
0000
0001
0100
,
0001
0020
0130
1000
,
1000
0002
0013
0100
,
0100
0020
1030
0100
,
0010
0000
0001
0000
1000
0000
0001
0100
,
0010
0000
1000
0000
1000
0000
0100
0010
,
0100
0000
0010
0000
0010
0000
0001
0100
,
0001
0100
0100
0010
,
1000
0100
0001
0100
,
0100
0000
0010
0000
0010
0000
0001
0100
,
0001
0000
0100
0000
0100
0000
0010
0100
,
0010
0010
0010
1000
,
0001
2002
0000
0000
,
3003
0000
0001
0100
1000
0000
0100
0000
,
0101
0000
0001
0010
1000
0000
0010
0000
,
0011
0000
0000
0000
0001
0000
0000
0000
1000
0000
0000
0000
0001
0000
0000
0001
,
0000
0002
0000
0000
0000
0000
0103
0000
,
0001
0000
1000
0010
0001
0000
0010
0000
,
1010
0000
0001
0100
1000
0000
0100
0000
,
1001
0000
0000
0000
0001
0000
0000
0000
0100
0000
0000
0000
0010
0000
0000
0010
,
0000
0020
0000
0000
0000
0000
0030
0000
,
0000
1000
1000
1000
,
1000
0001
0001
0001
,
0001
0100
0100
0100
,
0100
0010
0010
0010
,
0010
0100
0100
0000
,
0000
0010
0010
0000
,
0000
1001
1001
0000
,
0000
0000
0000
0000
,
0000
0000
1000
0100
0001
0000
0100
0000
,
0110
0000
0010
0001
0100
0001
0010
0000
,
1100
0000
0000
0000
0010
0000
1000
0000
0001
0000
0000
0000
1000
0000
0000
1000
,
0000
2000
0000
0000
0000
0000
3000
0000
,
0000
0000
0001
0100
1000
0000
0100
0000
,
0110
0000
0010
1000
0010
0100
0001
0000
,
0101
0000
0000
0000
0001
0000
1000
0000
0100
0000
0000
0000
0010
0000
0000
0010
,
0000
0020
0000
0000
0000
0000
0030
0000
,
0000
1100
0011
0202
,
0303
0000
0110
2002
,
3003
0000
1100
0011
,
0001
1000
0001
0000
0000
0000
0000
0000
,
1000
0100
1000
0000
0101
0000
0202
0000
,
0303
0000
1010
0220
,
0330
0000
1010
1100
,
0010
0001
0010
0000
0001
0000
1001
0000
;

//---------------dance-single - ----------------
#NOTES:
     dance-single:
     :
     Easy:
     3:
     0.184988,0.251849,0.161865,0.068154,0.000000,152.000000,133.000000,19.000000,8.000000,0.000000,0.000000,0.184988,0.251849,0.161865,0.068154,0.000000,152.000000,133.000000,19.000000,8.000000,0.000000,0.000000:
0000
0000
0000
0000
,
0000
0000
0000
0000
,
0000
0000
0000
0000
,
0000
0000
0000
0000
,
0000
0000
0000
0000
,
0000
0000
0000
0000
,
0000
0000
0010
0000
,
0010
0000
0010
0000
,
0010
1001
0000
1000
,
1000
1000
0001
0000
,
0100
0000
0001
0000
,
0010
0000
0100
0000
,
0010
0000
0000
0100
,
0100
0100
1000
0000
,
0010
0100
0100
0000
,
0000
0001
0001
0000
,
0000
1000
1000
0000
,
0000
0000
0001
0100
,
1000
0100
0100
0000
,
0000
0010
0010
0000
,
0000
0100
0100
0000
,
0000
0001
0010
1000
,
1001
0001
0100
1000
,
0100
0001
0010
1000
,
0010
0001
1000
0001
,
1000
2002
3003
0000
,
0000
1000
0010
0001
,
0010
1000
0100
0001
,
0100
1000
0010
0100
,
0001
0220
0330
0000
,
0000
0000
1000
1000
,
1000
0000
0001
0001
,
0001
0000
0100
0100
,
0100
0000
0010
0010
,
0010
1000
0001
0000
,
0000
0001
1000
0000
,
0000
0010
0100
0000
,
0000
0100
0010
0010
,
1001
1000
0100
0001
,
0100
0010
0010
0010
,
0001
1000
0010
0100
,
0001
0022
0033
0000
,
0000
0001
0010
1000
,
0010
0100
0100
0100
,
0010
0001
0100
0010
,
1000
2020
3030
0000
,
0000
0000
0101
0101
,
0000
0000
1010
1010
,
0000
0000
1001
1001
,
0001
0100
1000
0100
,
0001
0000
0011
0011
,
0000
0000
1100
1100
,
0000
0000
1001
1001
,
1000
0010
0001
0010
;
