#TITLE:FEMBOT;
#SUBTITLE:;
#ARTIST:ROBYN;
#TITLETRANSLIT:;
#SUBTITLETRANSLIT:;
#ARTISTTRANSLIT:;
#CREDIT:;
#BANNER:[Short] - FEMBOT.png;
#BACKGROUND:[Short] - FEMBOT-bg.png;
#LYRICSPATH:;
#CDTITLE:cdtitle.png;
#MUSIC:[Short] - FEMBOT.mp3;
#OFFSET:-0.032;
#SAMPLESTART:38.791;
#SAMPLELENGTH:12.000;
#SELECTABLE:YES;
#BPMS:0.000=123.000;
#STOPS:;
#BGCHANGES:;

//---------------dance-single - ----------------
#NOTES:
     dance-single:
     :
     Hard:
     8:
     0.410,0.521,0.145,0.029,0.077:
0000
0000
0000
0000
,
0000
0000
0000
0000
,
0000
0000
0000
0000
,
0000
0000
0000
0000
,
0101
0000
0101
0000
0000
0000
0000
0001
,
0010
0000
0010
0100
0000
0000
0000
0000
,
1100
0000
1100
0000
0000
0000
0000
1000
,
0010
0000
0010
0100
0000
0000
0002
0000
,
0013
0001
0010
0001
0010
0001
0010
0001
,
0010
0001
0010
0001
0010
0001
2000
0000
,
3020
0000
1030
0010
1000
0010
1000
0010
,
1000
1001
0110
1001
,
0010
0000
0000
1000
0100
0000
0010
0000
0001
0000
0010
0000
0100
1000
0100
1000
,
0100
0000
0010
0000
0001
0000
0100
0000
0010
0000
1000
0000
0100
1000
0100
1000
,
0100
0010
0001
0100
0010
0100
0000
0000
,
0000
0000
0010
0000
0010
0000
1000
0000
0010
0000
1000
0000
0001
0010
0001
0010
,
0001
0000
0010
0000
0100
0000
1000
0000
0010
0000
0100
0000
0001
0010
0001
0010
,
0001
0000
0100
0000
0010
0000
1000
0000
0010
0000
0100
0000
0001
0010
0001
0010
,
0001
1000
0010
0100
0001
0010
0100
0000
,
0000
0000
0100
1000
0100
0000
1000
0000
0100
0000
1000
0000
0000
0000
0000
0000
,
0011
0000
1010
0000
0000
0000
0000
0010
,
1000
0000
1000
0100
0000
0000
0001
0000
,
1100
0000
1100
0000
0000
0000
0000
0010
,
0001
0000
0001
0100
0000
0000
1000
0000
,
0110
0000
1001
0000
0000
0000
0000
0010
,
1000
0000
1000
0100
0000
0000
0001
0000
,
0011
0000
0011
0000
0000
0000
0000
1000
,
0010
0000
0010
0100
0000
0000
0000
0001
,
0010
0010
0010
0001
0100
0100
0100
0010
,
1000
0010
0100
0001
0010
0100
0100
0100
,
1000
0010
1000
0000
0000
0001
0010
0010
,
0001
0100
0010
1000
0001
0001
1000
1000
,
0010
1000
0100
0010
0010
0001
0001
0001
,
0100
0010
1000
0010
0100
0100
0001
0001
,
0010
0010
0010
0000
0010
0000
0010
0010
,
0001
0001
0100
0010
0010
0100
0100
0001
,
1000
1000
1000
0010
0100
0100
0100
0001
,
0010
0100
1000
0001
0010
0100
0100
0100
,
1000
0010
1000
0000
0000
0001
0001
0001
,
0100
0001
0100
0010
1000
1000
0100
0100
,
0010
0001
0010
0100
0100
1000
1000
1000
,
0010
0010
0100
0100
0001
0100
0010
0010
,
1000
1000
1000
0000
1000
0000
1000
1000
,
0001
0010
0100
0010
0010
0100
0100
1000
,
0010
0000
0000
0010
0000
0000
0000
0000
0100
0000
0000
0000
0000
0000
0000
0000
,
0010
0000
0000
0010
0000
0000
0000
0000
0100
0000
0000
0000
0000
0000
0000
0000
,
0001
0000
0000
0001
0000
0000
0000
0000
1000
0000
0000
0000
0000
0000
0000
0000
,
0001
0000
0000
0001
0000
0000
0000
0000
1000
0000
0000
0000
0000
0000
0000
0000
,
0010
0000
0010
0000
0000
0000
0000
0010
,
1000
0000
1000
0100
0000
0000
0000
0000
,
0010
0000
0010
0000
0000
0000
0000
0010
,
0001
0000
0001
0100
0000
0000
0000
0000
;

//---------------dance-single - ----------------
#NOTES:
     dance-single:
     :
     Medium:
     5:
     0.304,0.372,0.164,0.048,0.000:
0000
0000
0000
0000
,
0000
0000
0000
0000
,
0000
0000
0000
0000
,
0000
0000
0000
0000
,
0011
0000
0011
0000
0000
0000
0000
0100
,
1000
0000
1000
0001
0000
0000
0000
0000
,
1010
0000
1010
0000
0000
0000
0000
0001
,
0010
0000
0010
0100
0000
0000
2000
0000
,
3010
1000
0010
0000
1000
0010
1000
0000
,
0010
1000
0010
0000
1000
0010
0100
0000
,
0002
0000
0013
0000
0001
0010
0001
0000
,
0010
0010
0010
0010
,
1001
0000
0010
0100
0010
0000
0002
0000
,
1003
0100
1000
0100
1000
0000
0002
0000
,
0013
0100
0010
0100
0010
0000
0000
0000
,
0000
0001
1000
0001
1000
0000
0010
0000
,
1000
0100
1000
0000
0100
0000
0020
0000
,
0031
0000
1000
0010
1000
0000
0100
0000
,
0010
0001
0010
0100
1000
0000
0000
0000
,
0000
0001
0001
0000
0001
0000
0000
0000
,
1100
1100
0000
0000
,
0001
0010
0100
0000
1000
0000
0000
0000
,
0011
0011
0000
0000
,
1000
0010
0100
0000
0001
0000
0000
0000
,
1001
1001
0000
0000
,
0010
1000
0100
0000
0010
0000
0000
0000
,
0110
0110
0000
0000
,
0001
0010
0100
0000
1000
0000
0000
0000
,
0010
0100
0010
0000
1000
0000
1000
0000
,
0001
0001
0001
0000
0010
0100
0010
0000
,
0001
0001
0000
1000
,
0010
0010
0010
0000
0100
0100
0100
0000
,
0001
0000
0001
0000
1000
0100
1000
0000
,
0010
0000
0010
0000
0010
0010
0010
0000
,
1001
1001
1001
0000
1001
0000
0001
0000
,
0010
0000
0010
0000
1000
0001
1000
0000
,
0010
0000
0010
0000
1000
0100
1000
0000
,
0001
0010
0001
0000
0010
0000
0010
0000
,
0100
0100
0000
0100
,
0010
0001
0010
0000
0001
0001
0001
0000
,
1000
0010
1000
0000
1000
0000
1000
0000
,
0010
1000
0010
0000
0001
0100
0001
0000
,
0010
0010
0010
0000
0010
0000
0010
0000
,
0001
0010
0100
0000
0010
0100
1000
0000
,
0010
0000
0100
0000
,
0010
0000
0100
0000
,
0001
0000
1000
0000
,
0001
0000
1000
0000
,
0001
0000
0001
0000
0000
0000
0000
0001
,
0010
0000
0010
0100
0000
0000
0000
0000
,
1000
0000
1000
0000
0000
0000
0000
1000
,
0010
0000
0010
0100
0000
0000
0000
0000
;

//---------------dance-single - ----------------
#NOTES:
     dance-single:
     :
     Easy:
     3:
     0.247,0.297,0.155,0.058,0.000:
0000
0000
0000
0000
,
0000
0000
0000
0000
,
0000
0000
0000
0000
,
0000
0000
0000
0000
,
0011
0000
0011
0000
0000
0000
0000
0100
,
1000
0000
1000
0001
0000
0000
0000
0000
,
1010
0000
1010
0000
0000
0000
0000
0001
,
0010
0000
0010
0100
0000
0000
2000
0000
,
3010
0010
1000
1000
,
0010
0010
1000
2000
,
3002
0013
0001
0001
,
0010
0100
0100
0100
,
1001
0010
0010
0002
,
1003
1000
1000
0002
,
0013
0010
0010
0000
,
0000
1000
1000
0010
,
1000
1000
1000
0002
,
0103
0010
0010
0100
,
0010
1000
0100
0000
,
0000
0001
0001
0000
0001
0000
0000
0000
,
1100
1100
0000
0000
,
0001
0001
0000
0000
,
0011
0011
0000
0000
,
1000
1000
0000
0000
,
1001
1001
0000
0000
,
0010
0100
0000
0000
,
0110
0110
0000
0000
,
0001
1000
0000
0000
,
0010
0010
1000
1000
,
0001
0001
0010
0010
,
0001
0001
0001
0000
0000
0000
1000
0000
,
0010
0010
0010
0000
0100
0000
0100
0000
,
0001
0000
0001
0000
1000
1000
1000
0000
,
0010
0000
0010
0000
0010
0010
0010
0000
,
1001
1001
1001
0000
,
0010
0010
0001
0001
,
1000
1000
0100
0100
,
0001
0001
0010
0010
,
0100
0100
0000
0100
,
0010
0010
0010
0000
0001
0000
0001
0000
,
1000
1000
0010
0010
,
0100
0000
0100
0000
0001
0001
0001
0000
,
0010
0010
0010
0000
0010
0000
0010
0000
,
0001
0010
0100
1000
,
0010
0000
0100
0000
,
0010
0000
0100
0000
,
0001
0000
1000
0000
,
0001
0000
1000
0000
,
0001
0001
0000
0000
,
0010
0010
0000
0000
,
1000
1000
0000
0000
,
0010
0010
0000
0000
;

//---------------dance-single - ----------------
#NOTES:
     dance-single:
     :
     Beginner:
     1:
     0.059,0.097,0.019,0.019,0.000:
0000
0000
0000
0000
,
0000
0000
0000
0000
,
0000
0000
0000
0000
,
0000
0000
0000
0000
,
1000
1000
0000
0000
,
1000
0000
0000
0000
,
0001
0001
0000
0000
,
0001
0000
0000
0000
,
0020
0000
0000
0000
,
0030
0000
0000
0000
,
0020
0000
0000
0000
,
0030
0000
0000
0000
,
1001
0000
0000
0000
,
0000
0000
0000
0000
,
0010
0000
0000
0000
,
0000
0000
0000
0000
,
0100
0000
0000
0000
,
0100
0000
0000
0000
,
0001
0000
0000
0000
,
0000
0000
0000
0000
,
0010
0000
0000
0000
,
0100
0000
0000
0000
,
0010
0000
0000
0000
,
0100
0000
0000
0000
,
0010
0000
0000
0000
,
0100
0000
0000
0000
,
0010
0000
0000
0000
,
0000
0000
0000
0000
,
1001
0000
0000
0000
,
0000
0000
0000
0000
,
0010
0000
0000
0000
,
0010
0000
0000
0000
,
0100
0000
0000
0000
,
0100
0000
0000
0000
,
0010
0000
0000
0000
,
0000
0000
0000
0000
,
1000
0000
0000
0000
,
0001
0000
0000
0000
,
0000
0000
0000
0000
,
1000
0000
0000
0000
,
0001
0000
0000
0000
,
0010
0000
0000
0000
,
0000
0000
0000
0000
,
0100
0000
0000
0000
,
0010
0000
0000
0000
,
0010
0000
0000
0000
,
0010
0000
0000
0000
,
0010
0000
0000
0000
,
0010
0000
0000
0000
,
0010
0000
0000
0000
,
0010
0000
0000
0000
;
