#TITLE:Everglow;
#SUBTITLE:;
#ARTIST:Coldplay;
#TITLETRANSLIT:;
#SUBTITLETRANSLIT:;
#ARTISTTRANSLIT:;
#GENRE:;
#CREDIT:;
#BANNER:everglow.png;
#BACKGROUND:everlong-bg.png;
#LYRICSPATH:;
#CDTITLE:;
#MUSIC:Coldplay - Everglow Lyrics).ogg;
#OFFSET:-0.399000;
#SAMPLESTART:37.796001;
#SAMPLELENGTH:10.274000;
#SELECTABLE:YES;
#BPMS:0.000000=146.000000
;
#STOPS:
;
#BGCHANGES:;
#KEYSOUNDS:;
#ATTACKS:;

//---------------dance-single - ----------------
#NOTES:
     dance-single:
     :
     Beginner:
     1:
     0.057008,0.089788,0.000000,0.000000,0.000000,59.000000,59.000000,0.000000,0.000000,0.000000,0.000000,0.057008,0.089788,0.000000,0.000000,0.000000,59.000000,59.000000,0.000000,0.000000,0.000000,0.000000:
0000
0000
0000
0000
,
0000
0000
0000
0000
,
0000
0000
0010
0000
,
0000
0000
0000
0000
,
0000
0000
1000
0000
,
0000
0000
0000
0000
,
0000
0000
0100
0000
,
0000
0000
0000
0000
,
0000
0000
0010
0000
,
0000
0000
0000
0000
,
0000
0000
1000
0000
,
0000
0000
0000
0000
,
0000
0000
0100
0000
,
0000
0000
0000
0000
,
0000
0000
0001
0000
,
0000
0000
0000
0000
,
0000
0000
0100
0000
,
0000
0000
0000
0000
,
0000
0000
1000
0000
,
0000
0000
0000
0000
,
0000
0000
0010
0000
,
0000
0000
0000
0000
,
0000
0000
0100
0000
,
0000
0000
0000
0000
,
0000
0000
1000
0000
,
0000
0000
0000
0000
,
0000
0000
0001
0000
,
0000
0000
0000
0000
,
0000
0000
0100
0000
,
0000
0000
0000
0000
,
0000
0000
0100
0000
,
0000
0000
0000
0000
,
0000
0000
0010
0000
,
0000
0000
0000
0000
,
0000
0000
1000
0000
,
0000
0000
0000
0000
,
0000
0000
0100
0000
,
0000
0000
0100
0000
,
0000
0000
0010
0000
,
0000
0000
0010
0000
,
0000
0000
0100
0000
,
0000
0000
1000
0000
,
0000
0000
0010
0000
,
0000
0000
0001
0000
,
0000
0000
0100
0000
,
0000
0000
0000
0000
,
0000
0000
0010
0000
,
0000
0000
0000
0000
,
0000
0000
1000
0000
,
0000
0000
0000
0000
,
0000
0000
0100
0000
,
0000
0000
0000
0000
,
0000
0000
0010
0000
,
0000
0000
0000
0000
,
0000
0000
0100
0000
,
0000
0000
0000
0000
,
0000
0000
1000
0000
,
0000
0000
0000
0000
,
0000
0000
0010
0000
,
0000
0000
0000
0000
,
0000
0000
0100
0000
,
0000
0000
0000
0000
,
0000
0001
0000
0000
,
0000
0000
0000
0000
,
0000
0000
0100
0000
,
0000
0000
0000
0000
,
0000
0000
1000
0000
,
0000
0000
1000
0000
,
0000
0000
0010
0000
,
0000
0000
0010
0000
,
0000
0000
0100
0000
,
0000
0000
0100
0000
,
0000
0000
0010
0000
,
0000
0000
0010
0000
,
0000
0000
1000
0000
,
0000
0000
1000
0000
,
0000
0000
0100
0000
,
0000
0000
0100
0000
,
0000
0000
0001
0000
,
0000
0000
0001
0000
,
0000
0000
0100
0000
,
0000
0000
0010
0000
,
0000
0000
1000
0000
,
0000
0000
0100
0000
,
0000
0000
1000
0000
,
0000
0000
0010
0000
,
0000
0000
0100
0000
,
0000
0000
0010
0000
,
0000
0000
1000
0000
;

//---------------dance-single - ----------------
#NOTES:
     dance-single:
     :
     Easy:
     2:
     0.114982,0.209504,0.013527,0.175855,0.000000,119.000000,117.000000,2.000000,26.000000,0.000000,0.000000,0.114982,0.209504,0.013527,0.175855,0.000000,119.000000,117.000000,2.000000,26.000000,0.000000,0.000000:
0000
0000
0000
0000
,
0000
0000
0000
0000
,
0000
0000
0010
0000
,
0010
0000
0010
0000
,
0000
0000
1000
0000
,
1000
0000
1000
0000
,
0000
0000
0001
0000
,
0001
0000
0001
0000
,
0000
0000
0100
0000
,
0100
0000
0100
0000
,
0000
0000
0010
0000
,
0010
0000
0010
0000
,
0000
0000
1000
0000
,
1000
0000
1000
0000
,
0000
0000
0002
0000
,
0000
0000
0000
0003
,
0000
0000
1000
0000
,
1000
0000
1000
0000
,
0000
0000
0010
0000
,
0010
0000
0000
0000
,
0000
0000
0200
0000
,
0300
0100
0000
0000
,
0000
0000
0020
0000
,
0030
0010
0000
0000
,
0000
0000
2000
0000
,
3000
1000
0000
0100
,
0000
0000
0020
0000
,
0030
0010
0000
0000
,
0000
0000
2000
0000
,
3000
1000
0000
0000
,
0000
0000
0200
0000
,
0300
0100
0000
0000
,
0000
0000
0020
0000
,
0030
0010
0000
0001
,
0200
0000
0000
0300
,
0000
0000
0000
0000
,
0000
0000
1000
0000
,
1000
0000
1000
0000
,
0000
0000
0100
0000
,
0100
0000
0100
0000
,
0000
0000
0010
0000
,
0010
0000
0010
0000
,
0000
0000
1000
0000
,
1000
0000
1000
0000
,
0000
0000
0200
0000
,
0300
0100
0000
0000
,
0000
0000
0020
0000
,
0030
0010
0000
0000
,
0000
0000
2000
0000
,
3000
1000
0000
0000
,
0000
0000
0002
0000
,
0003
0001
0000
0000
,
0000
0000
2000
0000
,
3000
1000
0000
0000
,
0000
0000
0220
0000
,
0330
0110
0000
0000
,
0000
0000
0002
0000
,
0003
0001
0000
0100
,
0010
0002
0000
0000
,
0003
0000
0000
0000
,
0000
0000
2000
0000
,
3000
1000
0000
0100
,
0000
0020
0000
0000
,
0000
0030
0000
0000
,
0010
0000
0000
0000
,
0100
0000
0000
0000
,
0010
0000
0020
0000
,
0000
0000
0030
0000
,
0000
0000
2000
0000
,
0000
0000
3000
0000
,
0200
0000
0320
0000
,
0000
0000
0030
0000
,
0000
0000
2000
0000
,
0000
0000
3000
0000
,
0000
0000
1000
1000
,
1000
1000
0000
1000
,
0000
0000
0100
0100
,
0100
0100
0000
0000
,
0000
0000
0001
0001
,
0001
0001
0000
0100
,
0000
0000
0100
0200
,
0000
0000
0000
0300
,
0000
0000
0010
1000
,
1000
0100
0010
0000
,
0001
0000
0100
0010
,
0010
1000
0010
0000
,
0100
0000
1000
0100
,
0100
0010
0001
0000
,
0001
0000
1000
0000
;

//---------------dance-single - ----------------
#NOTES:
     dance-single:
     :
     Medium:
     4:
     0.212572,0.302674,0.000000,0.216437,0.000000,220.000000,220.000000,0.000000,32.000000,0.000000,0.000000,0.212572,0.302674,0.000000,0.216437,0.000000,220.000000,220.000000,0.000000,32.000000,0.000000,0.000000:
0000
0000
0000
0000
,
0000
0000
0000
0000
,
0000
0000
2000
0100
,
0100
0010
3000
0000
,
0000
0000
1000
0001
0001
0000
1000
0000
,
0100
0020
0000
1030
,
0000
0000
0000
0000
1000
0001
0000
0001
,
1000
2000
3000
0000
,
0000
0000
1000
0100
,
0010
1000
0000
0100
,
0000
0000
0010
0001
,
0100
0010
0000
1000
,
0000
0000
0100
0100
0010
0000
0001
0000
,
0010
0020
0000
1030
,
0000
0100
0000
0000
1000
0000
0000
1000
,
0000
0000
0000
0000
,
0000
0000
0010
0100
,
0010
1000
0000
0100
,
0000
0000
0000
0000
0010
0000
0000
1000
,
0000
0000
0000
0000
,
0000
0000
0100
0100
,
0100
0200
0000
0300
,
0000
0000
0010
0010
,
0010
0020
0000
0030
,
0000
0000
1000
1000
,
1000
2000
0000
3010
,
0000
0100
0000
0100
,
0000
0010
0000
0000
0000
0000
0000
0000
,
0000
0000
0100
0100
,
0100
0200
0000
0300
,
0000
0000
0010
0010
,
0010
0020
0000
0030
,
0000
0000
0001
0001
,
0001
0002
0000
0103
,
0000
0200
0000
0000
0000
0000
0000
0000
,
0000
0300
0000
0000
0000
0000
0000
0000
,
0000
0000
1000
0100
,
0010
1000
0100
0100
,
0200
0000
0301
0100
,
0010
0100
0010
0010
,
0020
0000
0130
0010
,
1000
0001
0001
0001
,
0002
0000
1003
0100
,
0010
1000
1000
1000
,
2000
0000
3000
0100
0010
0000
0001
0000
,
0010
0200
0000
1300
,
0000
1000
0100
0000
0010
0000
0100
0000
,
0001
0000
0020
0000
0000
0000
0030
0100
,
0010
0000
1000
0100
0010
0000
0100
0000
,
0010
2000
0000
3001
,
0000
0000
1000
0100
,
0010
0000
0200
0000
0000
0300
0000
0000
,
0000
1000
0100
0010
,
1000
0200
0000
0310
,
0000
0000
0001
0000
0001
0010
0100
0000
,
0100
0000
2000
0000
3000
0000
1000
0100
,
0010
0010
0100
0100
,
0100
0020
0000
1030
,
1000
0200
0000
0300
,
0000
0000
0000
0000
,
0000
0000
0010
0100
1000
0000
0100
0000
,
0010
1000
0000
0100
,
0000
0100
0200
0000
0000
0000
0000
0000
,
0000
0000
0000
0000
,
0300
0000
1000
0100
,
0000
1000
0000
0000
,
0100
1000
0000
0000
0200
0000
0000
0000
,
0000
0300
0000
0000
,
0000
0000
0020
1000
,
0000
0130
0000
0000
,
0100
0010
0000
2000
0000
0000
0000
0000
,
0000
0000
0000
3000
0000
0000
0000
0000
,
0000
0000
0000
0000
0100
0000
0010
1000
,
0000
0100
0000
0000
,
0000
0000
2000
0100
,
0010
0100
0000
3010
,
0000
0000
0002
0010
,
0100
0010
0000
0103
,
0000
0000
1000
0100
0020
0000
0100
0000
,
1000
0100
0030
1000
,
0000
0000
0000
0000
0100
0000
0010
0200
,
0000
0000
0000
0000
0000
0000
0000
0300
,
0000
0000
1000
0100
,
0010
0000
1000
0000
0100
1000
0100
0000
,
0010
0000
1000
0100
,
0001
0000
0010
0000
0100
1000
0100
0000
,
0010
0000
1000
0100
,
0010
0000
0001
0000
0010
0100
0010
0000
,
1000
0000
1000
0000
,
0020
0000
0030
0000
;

//---------------dance-single - ----------------
#NOTES:
     dance-single:
     :
     Hard:
     5:
     0.273445,0.423743,0.006764,0.480220,0.000000,283.000000,282.000000,1.000000,71.000000,0.000000,0.000000,0.273445,0.423743,0.006764,0.480220,0.000000,283.000000,282.000000,1.000000,71.000000,0.000000,0.000000:
// measure 0
0000
0000
0000
0000
,  // measure 1
0000
0000
0000
0000
,  // measure 2
0000
0000
0000
0000
1000
1000
0100
0000
,  // measure 3
0100
0010
1000
0000
0000
0000
0100
0010
,  // measure 4
0000
0000
0001
0001
0020
0000
2030
0000
,  // measure 5
3200
0320
0000
1000
,  // measure 6
0030
0000
0000
0000
1000
0100
0000
0010
,  // measure 7
0100
0001
0000
0000
,  // measure 8
0000
0000
1000
1000
0100
0000
0100
0000
,  // measure 9
0020
2030
0000
3001
,  // measure 10
0000
0000
0010
0001
0020
0000
0032
0000
,  // measure 11
0203
0320
0000
0000
,  // measure 12
1030
0000
0001
0001
0020
0000
2030
0000
,  // measure 13
3200
0320
0000
1000
,  // measure 14
0030
0100
0000
0000
1000
0100
0000
0010
,  // measure 15
0100
0001
0000
0000
,  // measure 16
0000
0000
0001
0020
0000
2030
0000
3200
,  // measure 17
0000
0010
0000
0000
0000
1300
0000
0000
,  // measure 18
0000
0000
0000
1000
0100
0000
0010
0100
,  // measure 19
0000
0010
0000
0000
0000
0000
0000
0000
,  // measure 20
0000
0000
0000
0000
1000
0100
0000
0100
,  // measure 21
0010
1000
0000
0000
,  // measure 22
0000
0000
0000
0000
0100
0010
0000
0010
,  // measure 23
0100
0010
0000
0000
,  // measure 24
0000
0000
0001
0010
0002
0000
0023
0000
,  // measure 25
0230
0000
0320
0000
0030
2000
0000
3000
,  // measure 26
0000
0000
0000
0000
1000
0100
0020
0000
,  // measure 27
0030
0200
0300
0000
,  // measure 28
0000
0000
0000
0000
1000
0100
0000
0100
,  // measure 29
0010
0100
0000
0000
,  // measure 30
0000
0000
0000
0000
0001
0100
0000
0010
,  // measure 31
0100
1000
0000
0000
,  // measure 32
0000
0000
1000
0100
1000
0000
2000
0000
,  // measure 33
3200
2300
0000
3001
,  // measure 34
0020
0000
0000
0000
,  // measure 35
0030
0000
0000
0000
,  // measure 36
0000
0000
0000
0000
0100
1000
0010
1000
,  // measure 37
0100
0001
0010
0001
0100
0010
1000
0000
,  // measure 38
0200
0000
0000
0000
0310
0000
0100
1000
,  // measure 39
0010
0100
0001
0010
0010
1000
0100
0001
,  // measure 40
0020
0000
0030
0000
0010
0100
0100
0001
,  // measure 41
0010
1000
0100
0001
1000
0010
0100
0000
,  // measure 42
2000
0000
0000
0000
3100
0100
0010
0001
,  // measure 43
0100
1000
0010
0010
0001
0100
0010
0001
,  // measure 44
0100
0000
0000
0000
1000
0100
0000
0100
,  // measure 45
0010
0000
0001
0000
0000
0000
0001
0010
,  // measure 46
0000
0000
0000
0100
0010
0000
0010
0100
,  // measure 47
0000
0000
1000
0000
0000
0000
0000
0100
,  // measure 48
0010
0000
0010
0001
0020
0000
0230
0000
,  // measure 49
0302
2003
0000
3001
,  // measure 50
0000
0000
0000
0000
1000
0100
0000
0010
,  // measure 51
0000
0200
0000
0000
0300
0000
0000
0000
,  // measure 52
0010
0000
2000
3200
,  // measure 53
0320
1030
0000
0000
,  // measure 54
0100
0000
0200
0320
,  // measure 55
0032
1003
0000
0000
,  // measure 56
1000
0000
0100
0010
0100
0000
2000
0000
,  // measure 57
3020
0000
2030
0000
3000
0002
0000
0003
,  // measure 58
1000
0002
0000
0000
,  // measure 59
0003
0000
0000
0000
,  // measure 60
0000
0000
1000
0100
1000
0000
2000
0000
,  // measure 61
3200
0000
2300
0000
0000
0000
3100
0010
,  // measure 62
0000
0100
0020
0000
0000
0000
0000
0000
,  // measure 63
0000
0030
0000
0000
,  // measure 64
0000
0000
1000
0100
1000
0000
0001
0000
,  // measure 65
0000
0001
0000
0000
,  // measure 66
1000
0100
0000
0000
0020
0000
0000
0030
,  // measure 67
0000
0000
0000
0000
,  // measure 68
0000
0000
0000
0000
1000
0000
0100
0010
,  // measure 69
0000
0010
0001
0000
0000
0000
0001
0010
,  // measure 70
0000
0000
0002
0000
,  // measure 71
0003
0000
0000
0000
,  // measure 72
0000
0000
0000
0000
1000
0000
0100
0010
,  // measure 73
0000
2000
0000
0000
0000
3000
0000
0000
,  // measure 74
0000
0000
0200
0320
,  // measure 75
2030
3200
0000
0310
,  // measure 76
0000
0000
0002
2003
,  // measure 77
3200
0320
0030
0000
,  // measure 78
0000
0000
1000
0100
1000
0000
2000
0000
,  // measure 79
3200
2300
0000
3001
,  // measure 80
0000
0000
1000
0100
0000
0100
0020
0000
,  // measure 81
0000
0030
0000
0000
0000
0000
0000
0000
,  // measure 82
0000
0000
0000
0000
0100
1000
0010
1000
,  // measure 83
0100
0001
0010
0001
0100
0010
1000
0000
,  // measure 84
0200
0000
0000
0000
0310
0000
0100
1000
,  // measure 85
0010
0100
0001
0010
0010
1000
0100
0001
,  // measure 86
0020
0000
0030
0000
0010
0100
0100
0001
,  // measure 87
0010
1000
0100
0001
1000
0010
0100
0000
,  // measure 88
2000
0000
3100
0100
,  // measure 89
1000
0100
0220
0000
0330
0000
0000
0000
;
