#TITLE:End to End;
#SUBTITLE:;
#ARTIST:Noah;
#TITLETRANSLIT:;
#SUBTITLETRANSLIT:;
#ARTISTTRANSLIT:;
#GENRE:;
#CREDIT:;
#BANNER:[Short] - End2End;
#BACKGROUND:[Short] - End2End - BG;
#LYRICSPATH:;
#CDTITLE:cd-rikame.png;
#MUSIC:[Short] - End to End.ogg;
#OFFSET:-0.463;
#SAMPLESTART:45.932;
#SAMPLELENGTH:15.04;
#SELECTABLE:YES;
#BPMS:0.000=250.200,32.000=250.000,64.000=255.000;
#STOPS:;
#BGCHANGES:;
#KEYSOUNDS:;

//---------------dance-single - rikame----------------
#NOTES:
     dance-single:
     rikame:
     Challenge:
     16:
     1.000,1.000,0.525,0.623,0.953:
0000
0000
0000
0000
,
0000
0000
0000
0000
,
0000
0000
0000
0000
,
0000
0000
0000
0000
,
0000
0000
0000
0000
,
0000
0000
0000
0000
,
0000
0000
0000
0000
,
0000
0000
0000
0000
,
1001
0001
0040
0000
,
0000
0031
1000
0010
,
0400
0000
0302
0000
,
0013
1000
0010
0100
,
1000
0001
1000
0001
0100
0010
1000
0001
1000
0100
0010
0001
,
1000
0010
1000
0010
1000
0010
1000
0010
1000
0010
1000
0010
,
0200
0000
0000
0000
0000
0000
0301
0010
,
0200
0000
0000
0300
,
2001
0100
0010
0100
,
0001
0000
3010
0100
0000
0100
0001
1000
,
0002
0010
1000
0100
,
0010
0000
1000
0000
0013
0100
1000
0000
,
0020
0001
0100
1000
,
0230
1000
0010
0001
,
0320
0000
0000
0000
1000
0000
0000
0000
0130
0001
1000
0001
1000
0100
1000
0001
,
1000
0001
0100
0010
1000
0001
1000
0001
0010
0100
1000
0001
1000
0000
0000
0000
,
0010
0000
1100
0000
0001
0100
0011
0000
,
0100
0000
0000
0000
1010
0000
0000
0000
1001
0000
0001
0010
0001
0000
0000
0000
,
1000
0100
1010
0000
0001
0000
1100
0000
,
0001
0010
0101
0000
1000
0010
1100
0001
,
0011
0000
0010
0000
0100
0000
1000
0000
0001
0100
0001
0100
0010
0000
0000
0000
,
1001
0000
0000
0000
1000
0000
0100
0000
0010
0000
0001
1000
0001
0000
0100
0000
,
0010
0000
1000
0000
0100
0000
1000
0010
1000
0000
0001
0010
0001
0000
1000
0100
,
1000
0000
1001
0000
0001
0010
0001
0100
,
2001
0000
0000
0000
,
0000
0000
3010
0100
,
0002
0000
0000
0000
,
0000
0000
0000
0000
,
2003
0000
0000
0000
,
0000
3001
0010
0001
,
0200
0000
0000
0000
,
0301
0010
0001
1000
0010
1000
0001
0100
0001
1000
0100
1000
,
0010
0000
0000
0000
0110
0000
0000
0000
0100
0000
0001
1000
0001
0000
0010
0000
,
1100
0000
0000
0000
0101
0000
0000
0000
0001
0000
1000
0100
1000
0000
0001
0100
,
0001
0000
1010
0000
0001
0010
010M
M100
,
0001
0000
1000
0100
M010
001M
1000
0001
,
1100
0000
0000
0011
0000
0000
0001
0000
0100
0000
0010
0000
,
1001
0000
0000
0000
1000
0001
0010
0100
1000
0000
0000
0001
0000
0000
1000
0000
,
1001
0000
0001
0001
0200
0000
0310
0010
,
1000
0100
1000
0001
0100
0001
1000
0001
0010
0100
1000
0000
0001
0000
0000
0000
,
1002
0000
0000
0000
0103
0010
1000
0200
,
0000
2300
3002
0203
,
0320
0000
0000
0000
1030
0001
0010
0200
,
0000
0000
0000
0000
2300
0000
3001
0100
,
0020
0000
0000
0030
20M0
0000
0000
3002
,
0000
0000
0203
0000
0310
1000
0100
0020
,
0000
0000
0031
2000
0000
0000
0000
0000
,
0000
0000
0000
3010
,
2001
0000
0000
0000
3100
0001
0100
0010
,
0001
0100
0001
1000
0001
1000
0100
1000
0001
1000
0001
0100
0001
1000
0001
1000
,
0100
0010
0001
1000
0001
0010
0100
1000
0010
0000
0100
0000
0001
0000
0010
0000
,
0001
1000
0010
1000
0010
0100
0001
0100
0001
0010
0100
1000
0001
0000
0100
0000
,
0010
M001
M001
0100
0010
1000
0001
1000
,
0100
0000
M001
0000
M001
0000
0010
0000
0001
0000
0000
0101
0000
0000
0010
0000
,
2100
0000
3001
0100
0100
0010
1000
0100
,
0020
0000
0031
1000
2000
0000
3001
0000
,
1100
0000
0000
1010
0000
0000
0010
0100
0001
0010
0000
0000
,
0011
0000
0000
1100
0000
0000
1000
0010
1000
0100
0010
0001
,
0100
0000
0000
0110
0000
0000
0010
1000
0001
1000
0000
0000
,
1010
0000
0000
0101
0000
0000
0001
0010
0001
1000
0100
1000
,
0001
0000
0000
0011
0000
0000
0010
0100
0010
0001
0000
0000
,
0101
0000
0000
1010
0000
0000
1000
0100
1000
0001
1000
0010
,
0100
0001
0010
0100
1000
0100
0010
0001
0100
0001
1000
0010
,
0100
0000
0100
0001
0000
0000
1000
0001
1000
0100
0000
0100
,
0010
0001
1000
0010
0000
0000
0100
0001
1000
0100
0010
0001
,
1000
0100
1000
0010
0000
0010
0100
0001
0010
0001
0000
0000
,
0200
0000
0000
0310
0000
0000
1100
0000
0101
0000
0011
0000
,
2010
0000
0000
0000
,
3002
0023
0230
2300
,
3002
0000
0200
0000
,
0003
0320
2030
3200
,
0320
2030
3020
0230
,
2300
3020
0032
2003
,
3200
0000
0302
0000
,
4003
0000
0000
3100
0000
0100
0010
0001
0100
0010
1000
0100
,
0020
0001
0230
1000
,
0320
0032
0203
0320
,
2030
0100
3002
0100
,
1000
0043
0430
4300
,
3002
0000
0000
0000
0010
0000
0000
0000
1003
0100
1000
0001
0100
0001
0010
0001
,
1000
0000
0000
0010
0000
0000
1000
0000
0000
0100
0000
0000
1000
0000
0000
0001
0000
0000
0100
0000
0000
0001
0000
0000
1000
0000
0000
0000
0000
0000
0000
0000
0100
0000
0000
0000
0000
0000
0000
0000
0010
0000
0000
0000
0000
0000
0000
0000
,
0001
0100
0001
0100
0001
0100
0001
0100
0001
0100
0001
0100
0010
0000
1000
0000
,
1001
0000
0001
0000
0100
0000
0110
0000
1000
0001
1000
0000
0100
0000
0010
0000
,
2001
0001
0001
0001
,
0001
0001
0001
3001
,
4001
0001
0010
0010
,
0000
0001
0000
0010
0000
0001
0000
0100
0000
0010
0000
0100
0000
0001
0000
3010
,
1000
0001
1000
0100
0010
0001
1000
0001
1000
0100
0010
0001
1000
0001
0100
0010
,
0100
0001
1000
0010
0100
0010
1000
0001
1000
0100
1000
0001
0100
0001
0010
0001
,
2000
0000
0010
0000
3002
0000
0013
0100
,
1000
0000
1000
0000
0010
0000
0010
0000
0100
0001
0100
0000
0110
0000
0000
0000
,
1001
0000
1000
0100
M010
001M
1100
0000
,
0001
0100
1000
0100
0001
0010
0011
0000
,
1000
0000
0001
0010
010M
M100
0011
0000
,
1000
0001
0010
1000
0010
0100
1100
0000
,
1001
0000
0001
0100
001M
M010
0101
0000
,
1000
0010
0001
0010
1000
0100
0110
0001
,
0110
0000
0000
0000
0101
0000
0010
0000
1100
0000
0001
0010
0100
0000
0100
0000
,
1000
0001
0100
0020
0000
1030
0100
0010
,
2001
0000
0000
0000
3010
0001
0010
0100
,
0001
0010
0001
1000
0001
1000
0010
0100
0001
1000
0001
0010
0100
0010
0001
1000
,
0100
0010
0100
1000
0001
1000
0010
0100
0001
0000
0010
0000
0100
0000
2000
0000
,
0000
0001
3002
0000
0013
0100
0010
0001
,
1000
0100
1000
0010
1000
0010
0100
0001
1000
0001
0010
0100
1000
0001
1000
0010
,
0100
0001
0100
0001
1000
0001
1000
0001
1000
0100
1000
0100
1000
0001
1000
0001
,
0010
0001
1000
0001
1000
0010
0100
0001
1000
0001
1000
0100
0010
0001
2000
0000
,
0000
0000
3001
0100
0010
0100
0001
1000
0010
1000
0001
1000
0100
0010
0001
1000
,
0010
0000
0100
0000
0101
0000
0001
1000
,
0001
0010
0100
0000
1100
0000
1000
0000
,
0001
1000
0001
0010
0100
1000
0001
1000
0010
0100
0001
1000
0100
0010
0001
0100
,
0020
0000
0030
0000
;

//---------------dance-single - rikame----------------
#NOTES:
     dance-single:
     rikame:
     Hard:
     10:
     0.915,1.000,0.267,0.721,0.565:
0000
0000
0000
0000
,
0000
0000
0000
0000
,
0000
0000
0000
0000
,
0000
0000
0000
0000
,
0000
0000
0000
0000
,
0000
0000
0000
0000
,
0000
0000
0000
0000
,
0000
0000
0000
0000
,
1000
0010
0400
0000
,
0000
0301
0010
0100
,
4000
0000
3002
0000
,
0103
0010
0001
0010
,
1000
0100
1000
0001
0100
0001
0010
0100
1000
0100
0010
0001
,
4000
0000
0000
0000
,
3020
0000
0000
0000
0000
0000
0130
0001
,
2000
0000
0000
0000
,
3002
0010
1000
0100
,
1003
0000
0010
0100
0000
0100
0001
1000
,
0001
0010
0100
1000
,
0001
0100
0010
0100
,
1001
0001
1000
0100
,
0010
0000
0001
0100
0000
0100
0010
1000
,
1001
0001
0010
0100
,
1000
0010
1000
0001
0010
0001
0100
0000
,
0010
0000
1010
0000
1000
0100
1000
0000
,
0001
0000
0011
0000
0010
0100
1000
0000
,
0001
0101
1000
1100
,
0001
0000
0101
0000
1000
0001
0010
0100
,
2000
0000
0000
3010
0000
0000
0200
0000
,
0001
0320
2030
3002
,
0013
0000
0011
0000
0010
0100
1100
0000
,
1010
0000
0101
0000
0001
1000
0100
1000
,
0020
0000
0000
0000
,
0000
0000
0130
0001
,
0020
0000
0000
0000
,
0000
0000
0000
0000
,
0032
0000
0000
0000
,
0000
0000
0103
0010
,
1000
0200
0000
0000
,
4300
0000
0000
0000
3001
0010
0100
1000
,
0010
0000
0100
0000
0001
0010
0001
0000
,
1000
0000
0010
0000
1000
0100
1000
0001
,
0100
0000
0110
0000
0010
1000
0100
1000
,
0001
0000
0100
0010
1000
1000
0100
1000
,
0001
0000
0000
0011
0000
0000
0010
0000
0100
0000
1000
0000
,
1001
0000
0000
0000
0002
0000
0000
0000
0103
0000
0000
0010
0000
0000
0100
0000
,
0002
0000
1003
1000
0200
0000
0310
0010
,
0001
0100
0001
1000
0001
0010
0100
0000
,
1002
0000
0000
0000
0103
0010
1000
0200
,
0000
1300
0001
0100
,
0020
0000
0000
0000
1030
0001
0010
0200
,
0000
0000
0000
2300
0000
0000
3010
0100
,
0002
0000
0000
0000
2003
0000
0000
3200
,
0000
0000
1300
0000
0010
0100
0001
0020
,
0000
0000
0130
2000
0000
0000
0000
0000
,
0000
0000
0000
3010
,
2001
0000
0000
0000
3100
0001
0100
0010
,
0001
0100
0001
1000
0100
1000
0010
1000
0001
0010
0001
0100
,
0010
0000
1000
0000
0100
0000
0010
0000
0001
0000
1000
0000
0001
0000
0000
0100
0000
0000
0010
0000
0000
1000
0000
0000
,
0001
0000
0010
0000
0100
0000
1000
0000
0010
0000
0100
0000
0010
0000
1000
0000
0001
0000
1000
0000
0000
0100
0000
0000
,
0010
1000
0010
0001
0100
0010
1000
0001
,
0010
0000
0100
0000
0001
0000
0100
0000
1000
0000
0000
0001
0000
0000
0100
0000
,
0010
1010
1100
0101
,
1010
0000
1100
0000
0001
0010
0100
1000
,
0002
0000
0000
0203
0000
0000
0310
1000
0100
0020
0000
0000
,
0230
0000
0000
2300
0000
0000
3010
0100
0010
1000
0001
1000
,
0200
0000
0000
2300
0000
0000
3001
0010
0001
0200
0000
0000
,
0320
0000
0000
2030
0000
0000
3001
0100
0001
1000
0100
1000
,
0002
0000
0000
0023
0000
0000
0031
1000
0100
2000
0000
0000
,
3020
0000
0000
0230
0000
0000
0301
0010
0001
1000
0001
0100
,
0010
1000
0010
0100
0001
1000
0100
0010
0001
0010
0100
1000
,
0001
0000
0000
0101
0000
0000
1000
0000
1000
0100
0000
0000
,
1000
0010
1000
0002
0000
0000
0013
0100
0010
0001
1000
0001
,
0100
0000
0000
0110
0000
0000
0010
1000
0100
2000
0000
0000
,
3001
0000
0100
0000
0010
0000
1000
0000
0001
0000
0000
1000
0000
0000
0001
0000
,
2001
0000
0000
0000
,
3020
0230
2300
3002
,
0023
0000
2030
0000
,
0000
0000
3200
0320
,
0032
2003
3020
0230
,
0302
2003
3200
0320
,
0032
0000
2003
0000
,
3010
0000
0000
0100
0000
0100
0001
1000
0001
0010
0100
1000
,
0020
1000
0230
0001
,
0320
2030
3200
0320
,
0032
0100
2003
0100
,
0001
3040
0430
0304
,
2003
0000
0000
0010
0000
0000
3001
0010
0001
1000
0100
1000
,
0001
0000
0000
0000
0100
0000
0000
0000
0001
0000
0000
0000
1000
0000
0000
0000
0100
0000
0000
0000
0010
0000
0000
0000
0001
0000
0000
0000
0000
0000
0000
0000
0000
0100
0000
0000
0000
0000
0000
0000
0000
0000
0010
0000
0000
0000
0000
0000
,
4000
0000
0000
0000
0000
0000
3001
0100
,
0010
0010
1000
0100
0100
1000
0001
0000
,
1002
1000
1000
1000
,
1000
1000
1000
1003
,
4000
0010
0001
0100
,
0001
0010
0100
3001
,
1000
0100
0001
1000
0010
0001
0100
0010
,
1000
0010
0001
1000
0100
0001
0010
0100
,
2000
0000
3001
0100
0020
0000
1030
0100
,
1000
1000
0010
0010
0100
0100
0001
0000
,
1000
0000
0100
M00M
0100
0000
0001
0000
0010
M00M
0010
0000
1000
0000
0000
0000
,
0001
0010
0001
0100
1000
0100
0010
0000
,
1000
0000
0010
M00M
0010
0000
0001
0000
0100
M00M
0100
0000
1000
0000
0000
0000
,
0010
0100
0001
0010
1000
0010
0100
0000
,
1000
0000
0010
M00M
0010
0000
0001
0000
0100
M00M
0100
0000
1000
0000
0000
0000
,
0001
0100
0010
0100
0001
0010
0100
1000
,
0001
0101
1010
1100
,
0001
1000
0100
0020
0000
0031
0001
1000
,
0020
0000
0000
0000
0130
0001
0010
0100
,
1000
0010
1000
0001
0100
0001
0010
0100
1000
0010
0100
0001
,
0100
0000
0010
0000
1000
0000
0100
0000
0010
0000
0001
0000
1000
0000
0000
0001
0000
0000
0100
0000
0000
0020
0000
0000
,
0000
1030
2000
0000
0000
3000
0001
0010
,
0001
1000
1000
0010
0100
0100
0001
0010
,
0001
1000
0100
1000
0001
0100
0010
0100
0001
0010
0001
1000
,
0010
0000
0100
0000
0001
0000
0100
0000
0010
0000
1000
0000
0001
0000
1000
0000
0100
0000
0010
0000
0000
0020
0000
0000
,
0000
0000
0031
1000
0001
0100
0010
1000
0001
1000
0100
0010
,
0001
0000
0100
0000
0110
0000
0010
1000
,
0100
0010
0001
0000
1001
0000
1000
0000
,
0001
0100
0001
0100
0010
1000
0001
0100
0001
1000
0001
1000
0010
0100
0010
1000
,
0002
0000
0003
0000
;

//---------------dance-single - rikame----------------
#NOTES:
     dance-single:
     rikame:
     Medium:
     7:
     0.574,0.844,0.089,0.427,0.045:
0000
0000
0000
0000
,
0000
0000
0000
0000
,
0000
0000
0000
0000
,
0000
0000
0000
0000
,
0000
0000
0000
0000
,
0000
0000
0000
0000
,
0000
0000
0000
0000
,
0000
0000
0000
0000
,
0001
0010
0200
0000
,
0000
1300
0001
0100
,
0020
0000
1030
0100
,
0001
0100
0010
0001
,
1000
0000
0010
0000
0100
0000
0001
0000
0010
0000
0100
0000
,
2000
0000
0000
0000
,
3002
0000
0000
0000
0000
0000
1003
0100
,
0020
0000
0000
0000
,
0031
0100
0010
1000
,
0001
0000
0000
0010
0000
0000
0001
0000
,
1000
0100
0010
0100
,
1000
0010
0100
0010
,
1010
1000
0001
0010
,
0110
0100
1000
0001
,
0101
0100
0010
1000
,
1001
0000
1001
0000
0001
0010
0001
0000
,
1000
0000
0010
0000
1000
0100
0010
0000
,
0001
0000
1000
0000
0001
0100
0010
0000
,
1000
0001
0010
0001
,
1000
0000
0010
0000
0100
0001
1000
0000
,
0200
0000
0000
2300
0000
0000
3002
0000
,
0000
0103
0010
1000
,
0200
0000
2300
0000
,
3020
0000
0230
0000
,
0301
0000
0000
0000
,
0000
0000
1000
0100
,
0010
0000
0000
0000
,
0000
0000
0000
0000
,
0100
0000
0000
0000
,
0000
1000
0010
0100
,
0001
0000
0000
0000
,
0020
0000
0230
0000
,
1300
0000
0000
0000
0010
0000
0200
0000
0000
0000
0000
0000
,
0301
0000
0000
0000
0010
0000
0200
0000
0000
0000
0000
0000
,
1300
0000
0000
0000
0010
0000
1000
0000
0000
0000
1000
0000
,
0100
1000
0001
0100
,
0010
0000
0000
0000
,
1000
0000
0001
0000
,
0010
0000
1000
0000
,
0010
0000
0001
0000
,
2000
0000
0000
0000
3001
0100
0001
0200
,
0000
0310
1000
0100
,
0020
0000
0000
0000
0031
1000
0010
0200
,
0000
0000
0000
0000
0302
0000
0013
0100
,
2000
0000
0000
3000
0020
0000
0000
0230
,
0000
0000
0301
0000
1000
0100
0010
0002
,
0000
2003
0000
0000
,
0000
0000
0000
3010
,
1001
0000
0001
0100
,
0010
1000
0010
1000
0001
0010
0001
0010
,
0001
0100
0001
0100
0010
1000
0001
0100
,
0001
0010
0001
0010
0100
1000
0100
1000
,
0001
0000
0001
0100
0010
0000
1000
0100
,
0010
0000
0001
0010
0100
0000
1000
0000
,
0002
0000
0203
0000
,
0320
0000
2030
0000
,
3100
0100
1000
0001
,
0100
0100
0010
1000
,
0001
0001
0010
0100
,
1000
1000
0010
0100
,
0001
0001
0010
0001
,
1000
1000
0100
0010
,
0001
0100
0010
1000
,
0100
0100
1000
0001
,
0100
0100
0010
0010
,
1000
1000
0100
0010
,
0001
0000
0000
0001
0000
0000
0100
0000
0010
0000
1000
0000
,
1002
0000
0000
0000
,
0013
0100
0010
0001
,
0200
0000
0320
0000
,
0000
1030
0100
1000
,
0001
0100
0010
1000
,
0001
0010
0100
1000
,
0020
0000
0230
0000
,
0301
0001
0010
0001
,
1000
1000
0010
0010
,
0100
0001
0010
0100
,
1000
1000
0001
0001
,
0100
0100
0010
1000
,
0100
0100
1000
1000
,
0010
0010
0100
0001
,
0020
0000
0000
0000
,
0130
0000
0000
0100
0000
0000
0100
0000
,
1000
0001
1000
0010
,
1000
0001
1000
0100
,
0010
0010
0001
0001
,
1000
1000
0010
0010
,
0100
0001
1000
0010
0000
0010
0100
0001
,
1000
0100
0010
0001
0000
0001
1000
0100
,
0020
0000
0032
0000
,
2003
0000
3020
0000
,
0130
0000
0000
0001
0000
0000
0010
0000
,
0000
0001
0000
0000
1000
0000
0010
0000
,
0100
0000
0000
0001
0000
0000
1000
0000
,
0000
0100
0000
0000
1000
0000
0001
0000
,
0100
0000
0000
0010
0000
0000
1000
0000
,
0000
0100
0000
0000
1000
0000
0001
0000
,
0200
0000
0320
0000
,
2030
0000
3002
0000
,
0023
0000
0000
0000
0031
1000
0100
0010
,
0001
0001
0100
0100
,
0010
0000
0010
0000
1000
0100
1000
0002
,
0000
0103
0020
0000
0000
0000
1030
0000
,
0001
0000
0001
0010
0000
0001
0100
0001
,
1000
1000
0100
0010
,
0001
0000
0001
0000
0100
0010
1000
0001
,
0000
0001
0010
0000
0100
0000
1000
0000
,
1001
0001
0101
0100
,
0010
1000
1100
0100
,
0010
0001
1000
0001
0100
0010
1000
0100
,
0020
0000
0030
0000
;

//---------------dance-single - rikame----------------
#NOTES:
     dance-single:
     rikame:
     Easy:
     5:
     0.319,0.420,0.009,0.240,0.000:
0000
0000
0000
0000
,
0000
0000
0000
0000
,
0000
0000
0000
0000
,
0000
0000
0000
0000
,
0000
0000
0000
0000
,
0000
0000
0000
0000
,
0000
0000
0000
0000
,
0000
0000
0000
0000
,
1000
0100
0010
0000
,
0000
0001
0010
0100
,
1000
0000
0010
0000
,
0100
0000
0001
0000
,
1000
0000
0100
0000
,
0020
0000
0000
0000
,
0032
0000
0000
0000
0000
0000
1003
0100
,
2000
0000
0000
0000
,
3001
0100
0010
1000
,
0001
0000
0000
0010
0000
0000
0001
0000
,
1000
0010
0100
0001
,
1000
0001
0010
0100
,
2000
0000
0000
0000
,
3020
0000
0000
0000
,
0230
0000
0000
0000
,
0302
0000
0000
0000
,
0013
0000
0010
0000
,
0100
0000
0100
0000
,
1000
0000
0001
0000
,
0100
0000
0010
0000
,
1000
0000
0000
0100
0000
0000
2000
0000
,
0000
3001
0100
0010
,
2000
0000
3200
0000
,
0320
0000
0032
0000
,
1003
0000
0000
0000
,
0000
0000
0001
0010
,
0100
0000
0000
0000
,
0000
0000
0000
0000
,
1000
0000
0000
0000
,
0000
0001
0100
0010
,
1000
0000
0000
0000
,
0200
0000
2300
0000
,
3001
0000
0100
0000
,
0010
0000
1000
0000
,
0100
0000
0010
0000
,
0001
0000
1000
0000
,
0010
0000
0000
0000
,
0100
0000
0001
0000
,
1000
0000
0100
0000
,
0010
0000
0001
0000
,
2000
0000
3010
0100
,
0001
1000
0001
0010
,
0200
0000
1300
0100
,
0020
0000
0230
0000
,
1300
0000
0001
0000
,
0100
0010
1000
0100
,
2000
0000
0000
3002
0000
0000
0000
0000
,
0000
0000
0000
0103
,
0020
0000
1030
0100
,
1000
0001
0010
0100
,
1000
0001
0100
0001
,
1000
0010
1000
0100
,
0010
0000
0001
0000
,
0100
0000
0010
1000
,
0001
0000
0010
0000
,
0001
0000
0100
0000
,
0010
0000
0010
0000
,
1000
0000
1000
0000
,
0100
0000
0100
0000
,
0010
0000
0010
0000
,
0001
0000
0001
0000
,
0100
0000
0100
0000
,
0010
0000
1000
0000
,
0100
0000
0100
0000
,
1000
0000
0001
0000
,
0100
0000
0100
0000
,
0010
0000
0000
0000
,
1001
0000
0000
0000
,
1000
0000
0001
0000
,
0010
0000
0100
0000
,
0000
0000
1000
0000
,
0001
0000
0100
0000
,
0010
0000
1000
0000
,
0100
0000
1000
0000
,
0001
0000
0100
0000
,
0010
0000
1000
0000
,
0100
0010
0100
1000
,
0001
0000
0200
0000
,
0000
0310
1000
0100
,
0010
0010
0001
0001
,
0100
0100
0010
0010
,
2000
0000
0000
0000
,
3002
0000
0000
0000
,
0023
0000
0000
0000
,
0000
0000
0000
0000
,
0032
0000
0000
0000
,
2003
0000
0000
0000
,
3010
0000
0000
0000
,
0100
0000
0000
0000
,
0001
0000
0010
0000
,
0001
0000
1000
0000
,
0010
0000
0000
0100
,
0000
0000
0010
0000
,
1000
0000
0000
0100
,
0000
0000
0010
0000
,
0001
0000
0000
0100
,
0000
0000
0010
0000
,
1000
0000
0100
0000
,
0010
0000
0001
0000
,
1000
0000
0010
0000
,
0100
0000
0001
0000
,
0010
0000
0001
0000
,
1000
0000
0000
0000
,
0001
0000
1000
0000
,
0100
0000
0010
0000
,
0001
0000
0100
0000
,
0010
0000
1000
0000
,
0100
0000
0000
0000
,
0100
0000
0000
0000
,
1000
0000
0001
0000
,
0010
0000
0000
0000
;

//---------------dance-single - rikame----------------
#NOTES:
     dance-single:
     rikame:
     Beginner:
     2:
     0.121,0.210,0.000,0.000,0.000:
0000
0000
0000
0000
,
0000
0000
0000
0000
,
0000
0000
0000
0000
,
0000
0000
0000
0000
,
0000
0000
0000
0000
,
0000
0000
0000
0000
,
0000
0000
0000
0000
,
0000
0000
0000
0000
,
0001
0000
0000
0000
,
0000
1000
0000
0000
,
0000
0000
0000
0000
,
0010
0000
0000
0000
,
0100
0000
0000
0000
,
0000
0000
0000
0000
,
0001
0000
0000
0000
,
0000
0000
0000
0000
,
1000
0000
0000
0000
,
0000
0000
0000
0000
,
1000
0000
0000
0000
,
0000
0000
0000
0000
,
0001
0000
0000
0000
,
0010
0000
0000
0000
,
0100
0000
0000
0000
,
1000
0000
0000
0000
,
0001
0000
0000
0000
,
0001
0000
0000
0000
,
0100
0000
0000
0000
,
0100
0000
0000
0000
,
0010
0000
0000
0000
,
1000
0000
0000
0000
,
0100
0000
0000
0000
,
0010
0000
0000
0000
,
0001
0000
0000
0000
,
0000
0000
0000
0000
,
0000
0100
0000
0000
,
0000
0000
0000
0000
,
0010
0000
0000
0000
,
0000
0000
0000
0000
,
1000
0000
0000
0000
,
0001
0000
0000
0000
,
1000
0000
0000
0000
,
0100
0000
0000
0000
,
0010
0000
0001
0000
,
0010
0000
0001
0000
,
1000
0000
0000
0000
,
0010
0000
0000
0000
,
0100
0000
0001
0000
,
0100
0000
0001
0000
,
1000
0000
0000
0000
,
0001
0000
0000
0000
,
0010
0000
0000
0000
,
0100
0000
0000
0000
,
1000
0000
0000
0000
,
0001
0000
0000
0000
,
0100
0000
0000
0000
,
0000
0000
0000
0000
,
0010
0000
0000
0000
,
1000
0000
0000
0000
,
0001
0000
0000
0000
,
0010
0000
0000
0000
,
0001
0000
0000
0000
,
1000
0000
0000
0000
,
0010
0000
0000
0000
,
0100
0000
0000
0000
,
0001
0000
0000
0000
,
0001
0000
0000
0000
,
0010
0000
0000
0000
,
0100
0000
0000
0000
,
1000
0000
0000
0000
,
1000
0000
0000
0000
,
0010
0000
0000
0000
,
0100
0000
0000
0000
,
0001
0000
0000
0000
,
1000
0000
0000
0000
,
0100
0000
0000
0000
,
0010
0000
0000
0000
,
0000
0000
0000
0000
,
0000
0000
0000
0000
,
0000
0000
0000
0000
,
0100
0000
0000
0000
,
0000
0000
0000
0000
,
1000
0000
0000
0000
,
0000
0000
0000
0000
,
0001
0000
0000
0000
,
0100
0000
0000
0000
,
0010
0000
0000
0000
,
0000
0000
0000
0000
,
1000
0000
0000
0000
,
0100
0000
0000
0000
,
0010
0000
0000
0000
,
0000
0000
0000
0000
,
0001
0000
0000
0000
,
0000
0000
0000
0000
,
0100
0000
0000
0000
,
0010
0000
0000
0000
,
1000
0000
0000
0000
,
1000
0000
0000
0000
,
0100
0000
0000
0000
,
0010
0000
0000
0000
,
0001
0000
0000
0000
,
0000
0000
0000
0000
,
1000
0000
0000
0000
,
0000
0000
0000
0000
,
0010
0000
0000
0000
,
0000
0000
0000
0000
,
0100
0000
0000
0000
,
0010
0000
0000
0000
,
1000
0000
0000
0000
,
0100
0000
0000
0000
,
0001
0000
0000
0000
,
0010
0000
0000
0000
,
1000
0000
0000
0000
,
0001
0000
0000
0000
,
0100
0000
0000
0000
,
0010
0000
0000
0000
,
1000
0000
0000
0000
,
0000
0000
0000
0000
,
0001
0000
0001
0000
,
0001
0000
0000
0000
;
