#TITLE:Blue;
#SUBTITLE:;
#ARTIST:Gemini;
#TITLETRANSLIT:;
#SUBTITLETRANSLIT:;
#ARTISTTRANSLIT:;
#GENRE:;
#CREDIT:;
#BANNER:Blue - Geminibn.png;
#BACKGROUND:Blue - Geminibg.png;
#LYRICSPATH:Blue - Gemini.lrc;
#CDTITLE:encorerebirth.png;
#MUSIC:Blue - Gemini.ogg;
#OFFSET:-0.001;
#SAMPLESTART:65.550;
#SAMPLELENGTH:17.083;
#SELECTABLE:YES;
#BPMS:0.000=140.000
;
#STOPS:
;
#BGCHANGES:;
#KEYSOUNDS:;
#ATTACKS:;

//---------------dance-single - Spork!----------------
#NOTES:
     dance-single:
     Spork! - Light:
     Easy:
     1:
     0.122,0.109,0.146,0.058,0.000,67.000,15.000,6.000,0.000,0.000,0.000,0.122,0.109,0.146,0.058,0.000,67.000,15.000,6.000,0.000,0.000,0.000:
0000
0000
0000
0000
,
0000
0000
0000
0000
,
0000
0000
0000
0000
,
0000
0000
0000
0000
,
0010
0000
0000
0010
,
0000
0000
0010
0000
,
0000
0010
0000
0000
,
0010
0000
0010
0000
,
1001
0000
0000
0000
,
0110
0000
0000
0000
,
1001
0000
0000
0000
,
1001
0000
0000
0000
,
0110
0000
0000
0000
,
1001
0000
0000
0000
,
0110
0000
0000
0000
,
0110
0000
0000
0000
,
1001
0000
0000
0000
,
0010
0000
0001
0000
,
0110
0000
0000
0000
,
1001
0000
0000
0000
,
0110
0000
0000
0000
,
1000
0000
0100
0000
,
1001
0000
0000
0000
,
0100
0000
0000
0000
,
0001
0000
0000
0000
,
1000
0000
0000
0000
,
0100
0000
0000
0000
,
1000
0000
0001
0000
,
0100
0000
0000
0000
,
0010
0000
0000
0000
,
1000
0000
0000
0000
,
0001
0000
0010
0000
,
0100
0000
0000
0000
,
0010
0000
0001
0000
,
0100
0000
0000
0000
,
0010
0000
1000
0000
,
0001
0000
0001
0000
,
1000
0000
1000
0000
,
0001
0000
0000
0000
,
1000
0000
0100
0000
,
1200
0000
0300
0000
,
0100
0000
0000
0000
,
0010
0000
0000
0000
,
0001
0000
0100
0000
,
0201
0000
0300
0000
,
0100
0000
0000
0000
,
0010
0000
0000
0000
,
1000
0000
0000
0000
,
0002
0000
0003
0000
,
0010
0000
0001
0000
,
2000
0000
3000
0000
,
0010
0000
1000
0000
,
0200
0000
0300
0000
,
1000
0000
0001
0000
,
0020
0000
0000
0000
,
0000
0000
0000
0000
,
0130
0000
0000
0000
;

//---------------dance-single - Spork!----------------
#NOTES:
     dance-single:
     Spork! - Beginner:
     Beginner:
     1:
     0.076,0.082,0.000,0.029,0.000,52.000,0.000,3.000,0.000,0.000,0.000,0.076,0.082,0.000,0.029,0.000,52.000,0.000,3.000,0.000,0.000,0.000:
0000
0000
0000
0000
,
0000
0000
0000
0000
,
0000
0000
0000
0000
,
0000
0000
0000
0000
,
0000
0000
0000
0000
,
0000
0000
0000
0000
,
0000
0000
0000
0000
,
0000
0000
0000
0000
,
1000
0000
0000
0000
,
0100
0000
0000
0000
,
0010
0000
0000
0000
,
0010
0000
0000
0000
,
0001
0000
0000
0000
,
1000
0000
0000
0000
,
0010
0000
0000
0000
,
0010
0000
0000
0000
,
0100
0000
0000
0000
,
0001
0000
0000
0000
,
0010
0000
0000
0000
,
0100
0000
0000
0000
,
1000
0000
0000
0000
,
0001
0000
0000
0000
,
0200
0000
0000
0000
,
0300
0000
0000
0000
,
1000
0000
0000
0000
,
0010
0000
0000
0000
,
0100
0000
0000
0000
,
0010
0000
0100
0000
,
0001
0000
0000
0000
,
0010
0000
0000
0000
,
0100
0000
0000
0000
,
0010
0000
0100
0000
,
1000
0000
0000
0000
,
1000
0000
1000
0000
,
0000
0000
0000
0000
,
0001
0000
0001
0000
,
0100
0000
0000
0000
,
0100
0000
0000
0000
,
0000
0000
0100
0000
,
0001
0000
0010
0000
,
0100
0000
0000
0000
,
0100
0000
0000
0000
,
0010
0000
0000
0000
,
0001
0000
1000
0000
,
0100
0000
0000
0000
,
0100
0000
0000
0000
,
0010
0000
0000
0000
,
0000
0000
0000
0000
,
0010
0000
0000
0000
,
1000
0000
0100
0000
,
0010
0000
0000
0000
,
0001
0000
0100
0000
,
0020
0000
0000
0000
,
0030
0000
0000
0000
,
0200
0000
0000
0000
,
0000
0000
0000
0000
,
0310
0000
0000
0000
;

//---------------dance-single - Spork!----------------
#NOTES:
     dance-single:
     Spork! - Standard:
     Medium:
     4:
     0.296,0.327,0.156,0.360,0.000,160.000,16.000,37.000,0.000,0.000,0.000,0.296,0.327,0.156,0.360,0.000,160.000,16.000,37.000,0.000,0.000,0.000:
0000
0000
0000
0000
,
0000
0000
0000
0000
,
0000
0000
0000
0000
,
0000
0000
0000
0000
,
0002
0000
0000
0023
0000
0000
0230
0000
,
0000
2300
0000
0000
3002
0000
0000
0203
,
0000
0000
0320
0000
0000
2030
0000
0000
,
3002
0000
0000
2003
0000
0000
3100
0000
,
0020
0030
1100
0000
,
0020
0030
0101
0000
,
0020
0030
0110
0000
,
2000
3000
0110
0001
,
0200
0300
1010
0000
,
0200
0300
0011
0000
,
0200
0300
1001
0000
,
0020
0030
1001
0100
,
0020
0030
1010
1000
,
0002
0003
0100
0000
,
0020
0030
1001
0001
,
2000
3000
0010
0100
,
0200
0300
0011
0100
,
2000
3000
0010
0000
,
0200
0300
1100
0020
,
0200
0000
0000
0330
,
0001
1000
0100
0010
,
0100
0000
0010
0001
,
0100
0000
0010
1000
,
0001
0010
0100
0100
,
1000
0001
0100
0010
,
0100
0000
0010
1000
,
0001
0000
1000
0010
,
0100
0100
0001
0000
,
0210
0000
0310
0100
,
0001
0010
0100
1000
,
0210
0000
0310
0100
,
1000
0010
0100
0000
,
0010
1000
0010
0100
,
0001
0010
0100
1000
,
1002
0000
0103
0000
,
0002
0000
2003
0000
,
3100
0010
0000
0010
0000
0010
0000
0010
,
0000
0010
0000
0010
0000
0010
0000
0010
,
0000
0001
0000
0001
0000
0001
0000
0001
,
0000
1000
0000
1000
0000
1000
0000
1000
,
0000
0010
0000
0010
0000
0010
0000
0010
,
0000
0010
0000
0010
0000
0010
0000
0010
,
0000
0100
0000
0100
0000
0100
0000
0100
,
0000
0002
0000
0023
0000
0230
0000
2300
,
0000
3010
0000
0010
0000
0100
0000
0100
,
0000
0010
0000
0010
0000
0100
0000
0100
,
0000
0001
0000
0001
0000
1000
0000
1000
,
0000
0001
0000
0001
0000
1000
0000
1000
,
0000
0100
0000
0010
0000
0100
0000
0100
,
0000
0010
0000
0100
0000
0010
0000
0010
,
0200
0000
0000
0000
,
0000
0000
0000
0300
,
1001
0000
0000
0000
;

//---------------dance-single - Spork!----------------
#NOTES:
     dance-single:
     Spork! - Heavy:
     Hard:
     6:
     0.377,0.354,0.195,0.282,0.000,222.000,20.000,29.000,0.000,0.000,0.000,0.377,0.354,0.195,0.282,0.000,222.000,20.000,29.000,0.000,0.000,0.000:
0000
0000
0000
0000
,
0000
0000
0000
0000
,
0000
0000
0000
0000
,
0000
0000
0000
0000
,
1000
0100
0000
0010
0100
0000
1000
0010
,
0000
0100
0001
0000
0001
0010
0000
0100
,
0010
0000
0001
0100
0000
0010
1000
0000
,
1000
0001
0000
0001
1000
0000
0010
0100
,
0002
0013
1010
0010
,
2000
3100
0101
0100
,
0020
1030
0011
0010
,
0200
0301
1100
0110
,
2001
3010
0011
1000
,
0002
0103
1100
0001
,
0200
0310
1100
0100
,
0020
0130
0011
0110
,
2000
0100
3000
1000
0000
0010
0000
0100
,
0002
0010
0003
0001
0000
0100
0000
0100
,
0002
0010
0003
0100
0000
1000
0000
0010
,
2000
0100
3000
1000
0010
0000
1001
0000
,
0200
1000
0300
0010
0000
1000
0000
0100
,
0020
0001
0030
0100
0000
0001
0000
0100
,
0020
1000
0030
0100
0000
0010
0000
0001
,
0000
1000
0000
0000
0000
0000
0000
0000
,
1000
0100
0010
0001
,
0200
0000
0000
0300
0010
0000
0001
0000
,
0200
0000
0000
0300
0100
0000
1000
0001
,
0000
0100
0000
0010
0000
0000
1000
0000
,
0100
1000
0001
0010
,
0200
0000
0000
0300
0010
0000
1000
0000
,
0200
0000
0000
0300
0100
0000
0001
0000
,
1000
0001
0010
0001
0100
0000
0100
0000
,
0001
0010
0000
0001
0100
0000
0010
0100
,
0000
0010
1000
0000
1000
0100
0000
1000
,
0010
0000
0100
0010
0000
0100
0001
0000
,
0001
0010
0000
0010
1001
0000
0100
0000
,
0010
1000
1010
0100
,
0010
0000
0001
0000
0101
0000
0001
1000
,
0020
0000
0000
0000
,
0001
0000
1000
0000
,
0230
1300
0101
0010
,
0200
0301
1100
0001
,
0200
1300
0101
1000
,
0100
0000
1000
0010
0100
0000
0100
0001
,
2000
0010
0000
0010
0000
0010
3000
0010
,
0002
0010
0000
0010
0000
0010
0003
0010
,
0200
0010
0000
0010
0000
0010
0000
0310
,
2002
0000
0000
0000
0000
0000
0000
3003
,
1000
0100
0010
0001
0000
0001
0010
0001
,
0000
0100
0000
0010
0000
1000
0000
1000
,
0001
0010
0100
1000
0000
1000
0001
1000
,
0000
0010
0000
0100
0000
0100
0000
0100
,
0001
0010
0000
0010
0100
0000
0100
1000
,
0000
1000
0010
0000
0010
1000
0001
0000
,
0200
0000
0000
0000
,
0000
0000
0000
0300
,
1001
0000
0000
0000
;

//---------------dance-single - Spork!----------------
#NOTES:
     dance-single:
     Spork! - Expert:
     Challenge:
     8:
     0.370,0.416,0.156,0.438,0.000,205.000,16.000,45.000,135.000,24.000,0.000,0.370,0.416,0.156,0.438,0.000,205.000,16.000,45.000,135.000,24.000,0.000: // measure 0
0000
0000
0000
0000
,  // measure 1
0000
0000
0000
0000
,  // measure 2
0000
0000
0000
0000
,  // measure 3
0000
0000
0000
0000
,  // measure 4
0001
0100
0000
0100
0001
0000
0001
0010
,  // measure 5
0000
0010
0100
0000
0100
1000
0000
1000
,  // measure 6
0010
0000
0010
1000
0000
1000
0001
0000
,  // measure 7
1000
0010
0000
0001
0010
0000
1000
0001
,  // measure 8
2002
0M00
0000
0M00
0010
0M00
0000
0M03
,  // measure 9
0020
000M
0000
000M
0100
000M
0000
300M
,  // measure 10
0200
M000
0000
M000
0001
M000
0000
M030
,  // measure 11
0002
00M0
0000
00M0
1000
0303
0101
0000
,  // measure 12
2002
0M00
0000
0M00
0010
0M00
0000
3M00
,  // measure 13
0020
M000
0000
M000
0100
M000
0000
M003
,  // measure 14
0200
000M
0000
000M
1000
000M
0000
003M
,  // measure 15
2000
00M0
0000
00M0
0001
3300
1100
0000
,  // measure 16
0220
M000
0000
000M
1000
000M
0000
M300
,  // measure 17
0002
0M00
0000
0M00
1000
0M00
0000
0M30
,  // measure 18
2000
00M0
0000
0M00
0010
0M00
0000
30M0
,  // measure 19
0200
M000
0000
M000
0010
0303
1001
0000
,  // measure 20
0220
000M
0000
M000
0001
M000
0000
030M
,  // measure 21
2000
0M00
0000
0M00
0001
0M00
0000
0M30
,  // measure 22
0002
00M0
0000
0M00
0010
0M00
0000
00M0
,  // measure 23
0200
3003
0000
0000
0000
0000
0300
0000
,  // measure 24
M001
0010
0100
1000
0100
0001
0100
0010
,  // measure 25
M002
0000
0000
0000
1003
0000
0010
0001
,  // measure 26
M010
0000
0010
1000
0100
0000
0010
0100
,  // measure 27
100M
0010
0100
0001
0100
1000
0100
0010
,  // measure 28
100M
0100
0010
0001
0010
0100
0001
0100
,  // measure 29
200M
0000
0000
0000
3001
0000
0100
1000
,  // measure 30
010M
0000
0010
1000
0100
0000
0100
0010
,  // measure 31
M001
0100
0010
0100
1000
0000
0100
0000
,  // measure 32
M001
0010
0000
0100
1000
0000
0001
0100
,  // measure 33
000M
0010
1000
0000
1000
0100
0000
0010
,  // measure 34
M001
0000
1000
0010
0000
0100
0001
0000
,  // measure 35
M001
0010
0000
1000
0010
0000
0001
0000
,  // measure 36
10M1
0000
0100
1000
0010
0000
0010
0100
,  // measure 37
00M1
1000
0100
0010
0100
1000
0001
1000
,  // measure 38
1001
0000
0000
0010
0010
0100
0001
0010
,  // measure 39
0200
0000
0000
0000
0000
0000
0000
0300
0020
0000
0000
0000
0000
0000
0000
0030
,  // measure 40
2200
000M
0000
00M0
0001
00M0
0000
30M0
,  // measure 41
0002
M000
0000
00M0
1000
00M0
0000
M003
,  // measure 42
0020
M000
0000
000M
1000
000M
0300
M000
,  // measure 43
0032
0M00
1003
01M0
2000
0M00
3001
01M0
,  // measure 44
0202
M000
0000
00M0
1000
00M0
0000
00M3
,  // measure 45
2000
000M
0000
00M0
0001
00M0
0000
300M
,  // measure 46
0020
000M
0000
M000
0001
M000
0300
000M
,  // measure 47
2030
0M0M
0000
0MM0
0000
0M0M
0000
300M
,  // measure 48
0220
000M
0000
M330
0001
10M0
0100
001M
,  // measure 49
0000
M100
0001
01M0
1000
0M10
0000
01M0
,  // measure 50
2002
00M0
0000
3M03
0010
1M00
0001
0100
,  // measure 51
0000
010M
1000
01M0
0001
MM00
0010
0M00
,  // measure 52
2002
0000
0M00
0000
0000
0000
00M0
0000
0100
0000
00M0
3000
0003
0000
M000
0000
,  // measure 53
0220
0000
000M
0000
0000
0000
M000
0000
0001
0000
M000
0300
0030
0000
0M00
0000
,  // measure 54
2000
0M00
0000
001M
3010
1M00
0001
M010
,  // measure 55
0100
000M
0010
M001
0000
01M0
0000
1M01
,  // measure 56
0020
0000
0000
0000
,  // measure 57
0030
0000
0000
0000
;

//---------------dance-double - Spork!----------------
#NOTES:
     dance-double:
     Spork! - Expert:
     Challenge:
     12:
     0.839,0.915,0.243,0.126,0.934,566.000,25.000,13.000,134.000,0.000,0.000,0.839,0.915,0.243,0.126,0.934,566.000,25.000,13.000,134.000,0.000,0.000:
00000000
00000000
00000000
00000000
,
00000000
00000000
00000000
00000000
,
00000000
00000000
00000000
00000000
,
00000000
00000000
00000000
00000000
,
100M0000
0000M020
00000000
00200M30
0000M001
00300000
0000M001
020M0000
,
00000000
03M00200
100M0000
00000300
100M0000
0000M020
00000000
0200M030
,
00000M01
03000000
00000M01
0020M000
00000000
0030M200
100M0000
00000300
,
10M00000
0M002000
00000000
00023M00
000000M1
00030000
0000M010
0M000100
,
00001001
00000000
00000000
00000001
00000100
00000001
00000100
00000000
00000000
00000010
00000100
00000010
00000100
00000000
00000000
00000010
00001000
00000010
00001000
00000000
00000000
00000100
00000000
00000000
,
00100100
00000000
00000000
00010000
00100000
00010000
00100000
00000000
00000000
01000000
00100000
01000000
00100000
00000000
00000000
01000000
10000000
01000000
10000000
00000000
00000000
00100000
00000000
00000000
,
10010000
00000000
00000000
10000000
00100000
10000000
00100000
00000000
00000000
01000000
00100000
01000000
00100000
00000000
00000000
01000000
00010000
01000000
00010000
00000000
00000000
00100000
00000000
00000000
,
00100100
00000000
00000000
00001000
00000100
00001000
00000100
00000000
00000000
00000010
00000100
00000010
00000100
00000000
00000000
00000010
00000001
00000010
00000001
00000000
00000000
00MMM000
00000000
00000000
,
00000101
00000000
00000000
00000001
00001000
00000001
00001000
00000000
00000000
00000010
00000100
00000010
00000100
00000000
00000000
00000001
00000010
00000001
00000010
00000000
00000000
00001000
00000000
00000000
,
01001000
00000000
00000000
01000000
00010000
01000000
00010000
00000000
00000000
00100000
01000000
00100000
01000000
00000000
00000000
00010000
00001000
00010000
00001000
00000000
00000000
10000000
00000000
00000000
,
11000000
00000000
00000000
10000000
00010000
10000000
00010000
00000000
00000000
00100000
01000000
00100000
01000000
00000000
00000000
10000000
00100000
10000000
00100000
00000000
00000000
00010000
00000000
00000000
,
00010010
00000000
00000000
00000010
00001000
00000010
00001000
00000000
00000000
00000100
00000010
00000100
00000010
00000000
00000000
00001000
00010000
00001000
00010000
00000000
00000000
00000MMM
00000000
00000000
,
00001000
00100000
00010000
01000000
00001000
00010000
00000010
00001000
00000100
00000000
00000100
00001000
00000001
00000000
00010000
00001000
,
00010000
00000100
00001000
00000010
00010000
00001000
01000000
00010000
00100000
00000000
00100000
01000000
10000000
00000000
00001000
00010000
,
00001000
01000000
00010000
10000000
00010000
00100000
00001000
00010000
00000010
00000000
00000010
00001000
00000100
00000000
00010000
00001000
,
00010000
00000010
00001000
00000001
00001000
00000100
00010000
00001000
01000000
00000000
00000000
00000000
01100000
00000000
000MMM00
00000000
,
10000000
00000000
00000000
00100000
00000000
00000000
01000000
00000000
00000000
00001000
00000000
00000000
00100000
00000000
00000000
00010000
00000000
00000000
10000000
00000000
00000000
01000000
00000000
00000000
00100000
00000000
00000000
00000000
00000000
00000000
00001000
00000000
00100000
00000000
00010000
00000000
10000000
00000000
00000000
00000000
00000000
00000000
00010000
00000000
00000000
01000000
00000000
00000000
,
00001000
00000000
00000000
00010000
00000000
00000000
00000010
00000000
00000000
00001000
00000000
00000000
00000100
00000000
00000000
00000010
00000000
00000000
00000100
00000000
00000000
00001000
00000000
00000000
00000001
00000000
00000000
00000000
00000000
00000000
00000010
00000000
00000001
00000000
00001000
00000000
00000010
00000000
00000000
00000000
00000000
00000000
00000010
00000000
00000000
00000100
00000000
00000000
,
00000001
00000000
00000000
00000010
00000000
00000000
00000100
00000000
00000000
00010000
00000000
00000000
00000010
00000000
00000000
00001000
00000000
00000000
00000001
00000000
00000000
00000100
00000000
00000000
00000010
00000000
00000000
00000000
00000000
00000000
00010000
00000000
00000010
00000000
00001000
00000000
00000001
00000000
00000000
00000000
00000000
00000000
00001000
00000000
00000000
00000000
00000000
00000000
,
00M00001
0M000100
00000000
0000M001
000M0010
00000100
0M010000
00000010
,
M0001000
00M00100
00000001
M0000100
000100M0
01000000
00100M00
0000100M
,
10000000
000000M0
00100M00
00000000
010010M0
00M00000
00010000
M0000100
,
000M0010
00000000
0M000100
000000M0
00001001
00M00000
000M0001
00000100
,
001000M0
M1000000
00001000
0010000M
0M000100
00010000
000010M0
01000000
,
0001000M
00100M00
10000000
001000M0
0M001000
00000010
00M00100
M0010000
,
00000001
0M000000
00M00100
00000000
M0010010
00000M00
00001000
001000M0
,
01000M00
00000000
0010000M
0M000000
00011000
00M00000
00001M00
00010000
,
001000M0
10000M00
01000000
00M01000
0M000100
00000000
00M00010
00000000
,
M0000101
00M00100
00001000
0M000100
0000001M
00010000
0010M000
010000M0
,
00000100
0010M000
M1000000
00010000
00M01000
10000M00
00000000
001000M0
,
1100M000
01000000
00010M00
010000M0
00100000
M0001000
000M0010
00000100
,
01M00000
000M0010
00000100
0M001000
000100M0
00000000
0000M001
00000000
,
00000M01
0M000010
00010000
001000M0
10010M00
00100000
010000M0
000M1000
,
10000000
01M00000
000010M0
00000100
M0001001
0M000100
00000010
00M10000
,
00000M01
00000000
0000M000
100M0000
00000010
01000M00
0000M001
00100000
,
0M000200
000M0000
00000000
00M00000
020003M0
00000000
0000M000
00000000
,
03000100
00000000
00000000
00000010
00000000
00000000
00000001
00000000
00000000
00000010
00000000
00000000
00000100
00000000
00000000
00010000
00000000
00000000
00001000
00000000
00000000
01000000
00000000
00000000
00100000
00000000
00000000
00000000
00000000
00000000
00010000
00000000
00100000
00000000
01000000
00000000
00010000
00000000
00000000
00000000
00000000
00000000
10000000
00000000
00000000
00010000
00000000
00000000
,
00100000
00000000
00000000
01000000
00000000
00000000
10000000
00000000
00000000
01000000
00000000
00000000
00100000
00000000
00000000
00001000
00000000
00000000
00010000
00000000
00000000
00000010
00000000
00000000
00000100
00000000
00000000
00000000
00000000
00000000
00000010
00000000
00010000
00000000
00001000
00000000
00100000
00000000
00000000
00000000
00000000
00000000
00100000
00000000
00000000
00010000
00000000
00000000
,
01000000
00000000
00000000
00100000
00000000
00000000
10000000
00000000
00000000
00100000
00000000
00000000
01000000
00000000
00000000
00001000
00000000
00000000
00010000
00000000
00000000
00000100
00000000
00000000
00000010
00000000
00000000
00000000
00000000
00000000
00001000
00000000
00000010
00000000
00000100
00000000
00001000
00000000
00000000
00000000
00000000
00000000
00000001
00000000
00000000
00000010
00000000
00000000
,
0MM00001
00000000
00010000
00001000
00000100
00000000
00100000
00010000
00001MM0
00000000
10000000
01000000
10000000
00000000
00010000
00000000
,
1M0000M0
00000000
00000000
00100000
00000000
00000000
00010000
00000000
00000000
00001000
00000000
00000000
00010000
00000000
00000000
00100000
00000000
00000000
01000000
00000000
00000000
00001000
00000000
00000000
00010000
00000000
00000000
00000000
00000000
00000000
00000100
00000000
00001000
00000000
00000100
00000000
00000010
00000000
00000000
00000000
00000000
00000000
00000100
00000000
00000000
00000000
00000000
00000000
,
00001000
00000000
00000000
00000010
00000000
00000000
00000001
00000000
00000000
00000010
00000000
00000000
00000100
00000000
00000000
00000010
00000000
00000000
00010000
00000000
00000000
00001000
00000000
00000000
00000100
00000000
00000000
00000000
00000000
00000000
00000010
00000000
00000100
00000000
00000001
00000000
00001000
00000000
00000000
00000000
00000000
00000000
00000001
00000000
00000000
00000000
00000000
00000000
,
00000001
00000000
00000000
00000010
00000000
00000000
00001000
00000000
00000000
00010000
00000000
00000000
00001000
00000000
00000000
00000010
00000000
00000000
00000100
00000000
00000000
00010000
00000000
00000000
00001000
00000000
00000000
00000000
00000000
00000000
01000000
00000000
00010000
00000000
01000000
00000000
00100000
00000000
00000000
00000000
00000000
00000000
01000000
00000000
00000000
00000000
00000000
00000000
,
00010000
11M0M000
00000000
0M0011M0
00000000
01M10M00
00000000
000M01M1
,
00001001
00000000
00000000
00001000
00000100
00000010
00000001
00000000
00000000
00000001
00000010
00000100
00001000
00000000
00000000
00000010
00000100
00001000
00010000
00000000
00000000
00000100
00001000
00010000
,
00100000
00000000
00000000
00000000
00000000
00000000
00001000
00000000
00010000
00000000
00100000
00000000
01000000
00000000
00000000
00000000
00000000
00000000
00010000
00000000
00100000
00000000
01000000
00000000
10000000
00000000
00000000
00000000
00000000
00000000
10000000
00000000
01000000
00000000
00100000
00000000
00010000
00000000
00000000
01000000
00000000
00000000
00010000
00000000
00000000
00100000
00000000
00000000
,
10010000
00000000
00000000
00010000
01000000
00100000
10000000
00000000
00000000
10000000
00100000
01000000
00010000
00000000
00000000
00100000
01000000
00010000
00001000
00000000
00000000
01000000
00010000
00001000
,
00000010
00000000
00000000
00000000
00000000
00000000
00010000
00000000
00001000
00000000
00000010
00000000
00000100
00000000
00000000
00000000
00000000
00000000
00001000
00000000
00000010
00000000
00000100
00000000
00000001
00000000
00000000
00000000
00000000
00000000
00000001
00000000
00000100
00000000
00000010
00000000
00001000
00000000
00000000
00000100
00000000
00000000
00001000
00000000
00000000
00000010
00000000
00000000
,
00001001
00000000
00000000
00000001
00000100
00001000
00010000
00000000
00000000
00000010
00010000
00001000
00100000
00000000
00000000
00001000
00010000
01000000
10000000
00000000
00000000
00100000
00000000
00000000
,
10010000
00000000
00000000
10000000
00100000
00010000
00001000
00000000
00000000
01000000
00001000
00010000
00000100
00000000
00000000
00010000
00001000
00000010
00000001
00000000
00000000
00000100
00000000
00000000
,
00000010
00000000
00000000
00010000
00001000
00010000
00100000
00000000
00000000
01000000
00010000
01000000
00001000
00000000
00000000
00001000
00010000
00001000
00000100
00000000
00000000
00000010
00001000
00000010
,
00010000
00000000
00000000
00010000
00001000
00010000
01000000
00000000
00000000
00100000
00010000
00100000
00001000
00000000
00000000
00001000
00010000
00001000
00000010
00000000
00000000
00000100
00001000
00000100
,
00020000
00000000
00000000
00000000
,
00030000
00000000
00000000
00000000
;

//---------------dance-double - Spork!----------------
#NOTES:
     dance-double:
     Spork! - Light:
     Easy:
     3:
     0.243,0.249,0.282,0.477,0.000,97.000,29.000,49.000,0.000,0.000,0.000,0.243,0.249,0.282,0.477,0.000,97.000,29.000,49.000,0.000,0.000,0.000:
00000000
00000000
00000000
00000000
,
00000000
00000000
00000000
00000000
,
00000000
00000000
00000000
00000000
,
00000000
00000000
00000000
00000000
,
00010000
00000000
00000000
00001000
,
00000000
00000000
01000000
00000000
,
00000000
00000100
00000000
00000000
,
00000010
00000000
00000000
00000010
,
00002002
00000000
00003003
00000000
,
20020000
00000000
30030000
00000000
,
00000220
00000000
00000330
00000000
,
02100000
00000000
03100000
01000000
,
20020000
00000000
30030000
00000000
,
00002002
00000000
00003003
00000000
,
02200000
00000000
03300000
00000000
,
00000210
00000000
00000310
00001000
,
00002002
00000000
00003003
00000000
,
02200000
00000000
03300000
00000000
,
00000220
00000000
00000330
00000000
,
10020000
00000000
00130000
01000000
,
02200000
00000000
03300000
00000000
,
00002002
00000000
00003003
00000000
,
20020000
00000000
30030000
00000000
,
00000200
00000000
00000000
00000000
,
00010300
00000000
00000100
00000000
,
00000010
00000000
00000010
00000001
,
00000001
00000000
00000100
00000100
,
00000001
00000000
00010000
00000000
,
00001000
00000000
01000000
00000000
,
00100000
00000000
00100000
10000000
,
10000000
00000000
01000000
01000000
,
10000000
00000000
00001000
00000000
,
00020100
00000000
00000000
00000000
,
00031000
00000000
00100000
00000000
,
01002000
00000000
00000000
00000000
,
00013000
00000000
00000100
00000000
,
00010000
00000010
00001010
00000000
,
00001000
00100000
00110000
00000000
,
00020000
00000000
00000000
00000000
,
01030000
00000000
00000100
00000000
,
00000220
00000000
00000330
00000000
,
02200000
00000000
03300000
00000000
,
00002002
00000000
00003003
00000000
,
00000100
00000000
01000000
00000000
,
02200000
00000000
03300000
00000000
,
00000220
00000000
00000330
00000000
,
20020000
00000000
30030000
00000000
,
02000000
00000000
00000000
03000000
,
00001000
00100000
01000000
10000000
,
01000000
00100000
00001000
00001000
,
00010000
00000010
00000100
00000001
,
00000100
00000010
00010000
00010000
,
00000120
00000000
00010030
00000000
,
02100000
00000000
03001000
00000000
,
00002001
00000000
00003100
00000000
,
10020000
00000000
00130000
00000000
,
00000020
00000000
00000000
00000000
,
00000030
00000000
00000000
00000000
;

//---------------dance-double - Spork!----------------
#NOTES:
     dance-double:
     Spork! - Standard:
     Medium:
     5:
     0.363,0.444,0.486,0.311,0.000,179.000,50.000,32.000,0.000,0.000,0.000,0.363,0.444,0.486,0.311,0.000,179.000,50.000,32.000,0.000,0.000,0.000:
00000000
00000000
00000000
00000000
,
00000000
00000000
00000000
00000000
,
00000000
00000000
00000000
00000000
,
00000000
00000000
00000000
00000000
,
00000002
00000000
00000000
00000203
00000000
00000000
00002300
00000000
,
00000000
00023000
00000000
00000000
02030000
00000000
00000000
23000000
,
00000000
00000000
30200000
00000000
00000000
00320000
00000000
00000000
,
00032000
00000000
00000000
00003020
00000000
00000000
00000031
00000000
,
00000201
00000000
00001300
00000000
,
00021000
00000000
01030000
00000000
,
10200000
00000000
00310000
00000000
,
00012000
00000000
00003010
00000100
,
00000021
00000000
00001030
00000000
,
00021000
00000000
00130000
00000000
,
12000000
00000000
03010000
00000000
,
00012000
00000000
00003100
00000010
,
00001000
00000100
00000000
00001100
00000000
00001100
00000000
00000100
,
00000010
00000001
00000000
00000101
00000000
00000101
00000000
00000001
,
00001000
00000010
00000000
00011000
00000000
00011000
00000000
01000000
,
00010000
10000000
00000000
10000000
00100000
00000000
10000000
00000000
,
00010000
00100000
00000000
00110000
00000000
00110000
00000000
00100000
,
01000000
10000000
00000000
11000000
00000000
11000000
00000000
10000000
,
00010000
00100000
00000000
00011000
00000000
00011000
00000000
00020200
,
00000000
00000000
00000000
00030300
,
00010000
00000010
00000001
00000010
,
00001000
00000000
00000100
00010000
,
00001000
00000000
00010000
00001000
,
00100000
01000000
00010000
00010000
,
00001000
01000000
10000000
01000000
,
00010000
00000000
00100000
00001000
,
00010000
00000000
00001000
00010000
,
00000100
00000010
00001000
00000000
,
00001000
00010000
00000000
00010000
00000100
00000000
00000100
00000010
,
00000000
00000010
00000100
00000000
00000100
00001000
00000000
00001000
,
00000001
00000000
00000001
00000100
00000000
00000100
00000010
00000000
,
00000010
00010000
00000000
00010000
00001000
00000000
00100000
00000000
,
00010000
01000000
10010000
00100000
,
00001000
00000100
00001001
00000010
,
00020000
00000000
00000000
00001000
00001000
00000000
00000010
00000000
,
00030200
00000000
01000300
00000000
,
02010000
00000000
13000000
00000000
,
01200000
00000000
00310000
00000000
,
00012000
00000000
00003010
00000000
,
00000021
00000000
00001030
00000010
,
00000210
00000000
00000301
00000000
,
00000120
00000000
00001030
00000000
,
00021000
00000000
00130000
00000000
,
20200000
00000000
30300000
00000000
,
10000000
01000000
00000000
01100000
00000000
10010000
00000000
00010000
,
00000000
01000000
00000000
01100000
00000000
10010000
00000000
00010000
,
01000000
00001000
00000000
00011000
00000000
01001000
00000000
00010000
,
00000000
00000100
00000000
00001100
00000000
00010100
00000000
00001000
,
00000001
00000100
00000000
00000110
00000000
00001001
00000000
00001000
,
00000000
00000010
00000000
00000110
00000000
00001001
00000000
00001000
,
00000010
00010000
00000000
00011000
00000000
00010010
00000000
00011000
,
00000000
01001000
00000000
01010000
00000000
01100000
00000000
10010000
,
00200000
00000000
00000000
00000000
,
00300000
00000000
00000000
00000000
;

//---------------dance-double - Spork!----------------
#NOTES:
     dance-double:
     Spork! - Heavy:
     Hard:
     7:
     0.420,0.471,0.535,0.233,0.000,223.000,55.000,24.000,0.000,0.000,0.000,0.420,0.471,0.535,0.233,0.000,223.000,55.000,24.000,0.000,0.000,0.000:
00000000
00000000
00000000
00000000
,
00000000
00000000
00000000
00000000
,
00000000
00000000
00000000
00000000
,
00000000
00000000
00000000
00000000
,
01000000
00100000
00000000
00100000
00010000
00000000
00010000
01000000
,
00000000
01000000
00001000
00000000
00001000
00010000
00000000
00010000
,
00000010
00000000
00000010
00001000
00000000
00001000
00000100
00000000
,
00000100
00000010
00000000
00000010
00000001
00000000
00001000
00000001
,
00002001
00000000
00103000
00000000
,
10020000
00000000
00030100
00000000
,
00002001
00000000
01003000
00000000
,
10020000
00000000
00030010
00000100
,
00000210
00000000
01000300
00000000
,
02100000
00000000
03000010
00000000
,
00000120
00000000
00100030
00000000
,
01200000
00000000
00300100
00010000
,
00000001
00000020
00000000
00001000
00000000
00000001
00000030
00000010
,
00001000
00020000
00000000
00001000
00000000
00100000
00030000
00010000
,
00100000
02000000
00000000
00010000
00000000
10000000
03000000
01000000
,
00010000
10000000
00000000
01000000
00100000
00000000
10010000
00000000
,
10000000
02000000
00000000
00010000
00000000
10000000
03000000
01000000
,
00010000
00002000
00000000
00010000
00000000
00000100
00003000
00001000
,
00000100
00000020
00000000
00001000
00000000
00000001
00000030
00000220
,
00000000
00000000
00000000
00000330
,
00001000
00000100
00000010
00001000
,
00100000
00000000
00000000
00000000
00011000
00000000
00010000
00001000
,
00000100
00000000
00001000
00000000
00010000
00000000
01000000
10000000
,
00000000
00010000
00000000
00100000
00000000
00100000
00001000
00000000
,
00010000
00100000
01000000
00001000
,
00000100
00000000
00000000
00000000
00011000
00000000
00001000
00010000
,
00100000
00000000
00000000
00000000
00011000
00000000
00010000
00001000
,
00000100
00000001
00000100
00001000
00010000
00000000
01000000
00000000
,
10000000
01000000
00000000
01000000
00100000
00000000
00100000
00001000
,
00000000
00001000
00010000
00000000
00010000
00000010
00000000
00000010
,
00000100
00000000
00000100
00000001
00000000
00000001
00001000
00000000
,
00001000
00000100
00000000
00000100
00000010
00000000
00000100
00000000
,
00001000
00000000
00000001
00000100
00000001
00000000
00000100
00000000
,
00000010
00001000
00000010
00010000
00000000
00002000
00000000
00000000
,
10003000
00000000
00000000
00010000
00100000
01000000
10000000
01000000
,
00200000
00000000
00300020
00000000
,
00001030
00000101
00000000
00001100
00000000
01010000
00000000
11000000
,
00000000
01010000
00000000
00001100
00000000
00000101
00000000
00001001
,
00000000
00000011
00000000
00001010
00000000
00110000
00000000
10100000
,
20000000
00000000
30002000
00000000
,
01003000
10100000
00000000
00110000
00000000
00001010
00000000
00000011
,
00000000
00001010
00000000
00110000
00000000
10100000
00000000
01100000
,
00000000
11000000
00000000
01010000
00000000
00001100
00000000
00000102
,
00000000
00000010
00000000
00000100
00000000
00001000
00000000
00001003
,
00000001
00000010
00000001
00000010
00000100
00001000
00000100
00000010
,
00000000
00010000
00000000
00100000
00000000
10010000
00000000
00010000
,
10000000
00100000
10000000
00100000
01000000
00010000
01000000
00100000
,
00000000
00010000
00000000
00000010
00000100
00000000
00000001
00000000
,
00001000
00000011
00000000
00011000
00000000
10100000
00000000
00011000
,
00000000
11000000
00000000
00011000
00000000
00000101
00000000
00001100
,
00000000
00000011
00000000
01010000
00000000
00001010
00000000
11000000
,
00000000
10100000
00000000
00001100
00000000
00110000
00000000
00000101
,
00002002
00000000
00000000
00000000
,
00003003
00000000
00000000
00000000
;
