#VERSION:0.83;
#TITLE:Bezel;
#SUBTITLE:;
#ARTIST:Junkie XL;
#TITLETRANSLIT:;
#SUBTITLETRANSLIT:;
#ARTISTTRANSLIT:;
#GENRE:;
#ORIGIN:;
#CREDIT:;
#BANNER:Bezel.png;
#BACKGROUND:Bezel-bg.png;
#PREVIEWVID:;
#JACKET:;
#CDIMAGE:;
#DISCIMAGE:;
#LYRICSPATH:;
#CDTITLE:;
#MUSIC:Bezel.ogg;
#OFFSET:-0.055000;
#SAMPLESTART:66.516998;
#SAMPLELENGTH:14.769000;
#SELECTABLE:YES;
#BPMS:0.000=130.000;
#STOPS:;
#DELAYS:;
#WARPS:;
#TIMESIGNATURES:0.000=4=4;
#TICKCOUNTS:0.000=4;
#COMBOS:0.000=1;
#SPEEDS:0.000=1.000=0.000=0;
#SCROLLS:0.000=1.000;
#FAKES:;
#LABELS:0.000=Song Start;
#BGCHANGES:;
#KEYSOUNDS:;
#ATTACKS:
;

//---------------dance-single - HealingDMax300----------------
#NOTEDATA:;
#CHARTNAME:;
#STEPSTYPE:dance-single;
#DESCRIPTION:HealingDMax300;
#CHARTSTYLE:;
#DIFFICULTY:Challenge;
#METER:9;
#RADARVALUES:0.595211,0.702036,0.176806,0.315176,0.672632,542.000000,519.000000,23.000000,41.000000,0.000000,0.000000,0.000000,0.000000,0.000000,0.595211,0.702036,0.176806,0.315176,0.672632,542.000000,519.000000,23.000000,41.000000,0.000000,0.000000,0.000000,0.000000,0.000000;
#CREDIT:;
#NOTES:
// measure 0
0000
0000
0000
0000
,  // measure 1
0000
0000
0000
0000
,  // measure 2
0000
0000
0000
0000
,  // measure 3
0000
0000
0000
0000
,  // measure 4
1000
0000
0000
0001
0000
0000
0100
0000
0000
0000
0010
0000
0000
0000
0100
0000
,  // measure 5
0001
0000
0000
1000
0000
0000
0100
0000
0010
0000
0100
0000
1000
0000
0100
0000
,  // measure 6
0010
0000
0000
0001
0000
0000
1000
0000
0000
0000
0001
0000
1001
0000
1000
0000
,  // measure 7
0010
0000
0000
0100
0000
0000
0010
0000
1000
0000
0000
0001
0000
1000
0000
0000
,  // measure 8
0100
0010
0100
1000
,  // measure 9
0001
0000
0000
0100
0000
0000
0100
0001
0000
0000
1000
0000
0000
0000
0010
0000
,  // measure 10
0100
0000
0000
0010
0000
0000
0010
0100
0000
0000
0100
0000
0000
0000
0001
0000
,  // measure 11
1000
0000
0000
0001
1000
0000
0000
1000
0200
0000
0000
0000
0010
0000
0000
0000
,  // measure 12
1300
0000
0000
0001
0000
0000
0001
1000
0000
0000
1000
0000
1010
0000
0010
0000
,  // measure 13
0100
0000
0000
0010
0000
0000
0010
0100
0000
0000
0100
0000
0101
0000
0001
0000
,  // measure 14
1000
0000
0000
0001
0000
0000
0001
1000
0000
0000
1000
0000
1100
0000
0100
0000
,  // measure 15
0010
0100
1000
0001
1000
0010
0100
0010
,  // measure 16
0010
0000
0000
0100
0000
0000
0100
0010
0000
0000
0010
2000
0000
3000
0001
0000
,  // measure 17
0001
0000
0000
1000
0000
0000
1000
0001
0000
0000
0001
0020
0000
0030
0100
0000
,  // measure 18
0100
0000
0000
0010
0000
0000
0010
0100
0000
0000
0100
2000
0000
3000
0001
0000
,  // measure 19
0002
0000
0000
2003
0000
0000
0000
0000
3002
0000
0203
0000
0000
0010
0000
0310
,  // measure 20
0100
0000
0000
0000
0000
0000
0010
0000
0000
0000
0010
0000
1000
0000
0000
0000
0000
0000
0001
0000
0000
0000
0000
0000
0010
0000
0000
0000
0000
0000
0100
0000
0000
0000
0000
0000
0010
0000
0000
0001
0000
0000
0000
0000
0000
0001
0000
0000
,  // measure 21
1000
0000
0000
0000
0000
0000
0001
0000
0000
0000
0001
0000
0100
0000
0000
0000
0000
0000
0010
0000
0000
0000
0000
0000
0100
0000
0000
0000
0000
0000
0001
0000
0000
0000
0000
0000
1000
0000
0000
0100
0000
0000
0000
0000
0000
0100
0000
0000
,  // measure 22
0010
0000
0000
0000
0000
0000
0100
0000
0000
0000
0100
0000
1000
0000
0000
0000
0000
0000
0001
0000
0000
0000
0000
0000
0100
0000
0000
0000
0000
0000
0010
0000
0000
0000
0000
0000
0100
0000
0000
0001
0000
0000
0000
0000
0000
0001
0000
0000
,  // measure 23
2000
0000
0000
3002
0000
0000
0023
0000
0230
0000
0320
0000
0000
0001
0000
0031
,  // measure 24
0010
0000
0001
0000
1000
0001
0000
0001
0000
0000
1000
0000
0001
0100
0000
0100
,  // measure 25
0010
0000
0100
0000
0001
0100
0000
0100
0000
0000
0001
0000
0100
0001
0000
0001
,  // measure 26
1000
0000
0001
0000
0010
0001
0000
0001
0000
0000
0010
0000
0001
1000
0000
1000
,  // measure 27
0100
0000
0020
0000
0000
0000
0000
0000
0130
0000
0000
0010
0000
0010
0000
0100
,  // measure 28
0020
0000
0000
0000
,  // measure 29
0230
0000
0000
0000
0000
2300
3002
0000
,  // measure 30
0203
0000
0000
0000
0010
0000
0000
1000
0000
0000
0000
0000
1000
0000
0000
0310
,  // measure 31
0200
0000
0001
0000
0310
0100
0002
0000
,  // measure 32
1003
0000
0000
0000
1000
0001
0000
0001
0000
0000
1000
0000
0001
0000
0010
0000
,  // measure 33
0100
0000
0000
0000
0100
0010
0000
0010
0000
0000
0100
0000
0010
0000
0001
0000
,  // measure 34
1000
0000
0000
0000
1000
0001
0000
0001
0000
0000
1000
0000
0001
0000
0000
0001
,  // measure 35
0100
0000
0000
0010
1000
0000
0001
0000
0010
0000
0100
0000
1000
0000
0001
0000
,  // measure 36
0100
0000
0000
0010
0000
0010
0100
0000
0000
0010
0000
0000
1000
0000
0000
0001
0000
0001
1000
0000
0000
0100
0000
0000
,  // measure 37
0010
0000
0000
0100
0000
0100
0010
0000
0000
0001
0000
0000
1000
0000
0000
0001
0000
0001
1000
0000
0000
0000
0000
0000
,  // measure 38
0001
0000
0000
0001
0100
0000
0000
0100
0010
0000
0010
0000
0100
0000
0100
0000
,  // measure 39
0010
0000
0000
0100
0000
0100
0010
0000
0000
1000
0000
0000
0001
0000
0000
1000
0000
0001
1000
0000
0000
0000
0000
0000
,  // measure 40
0001
0000
2000
0001
0000
0000
3100
0000
1000
0000
0100
0000
0010
0100
0010
0000
,  // measure 41
0100
0000
0020
0100
0000
0000
0031
0000
0010
0000
0001
0000
1000
0001
1000
0000
,  // measure 42
0001
0000
2000
0001
0000
0000
3010
0000
1000
0000
0010
0000
0100
0010
0100
0000
,  // measure 43
0020
0000
0230
0000
0302
0023
0230
0000
,  // measure 44
0320
0000
0000
0000
0001
0000
0000
0000
0130
0010
0000
0010
0001
0000
1000
0000
,  // measure 45
0001
0000
0100
0000
0010
0000
0100
0000
0001
1000
0000
1000
0100
0000
0010
0000
,  // measure 46
0200
0000
0000
0000
1000
0000
0000
0000
0310
0100
0000
0100
1000
0000
0001
0000
,  // measure 47
1000
0000
0000
0000
0000
0000
0010
0000
0000
0000
0000
0000
0100
0000
0000
0000
0010
0000
0000
0000
0100
0000
0000
0000
0001
0000
0000
1000
0000
0000
0000
0000
0000
1000
0000
0000
0100
0000
0000
0000
0000
0000
0000
0000
0000
0100
0000
0000
,  // measure 48
1000
0000
0000
1200
0000
0310
0000
0000
0110
0000
0000
0010
0000
0002
0000
1003
,  // measure 49
0001
0000
0000
0201
0000
0310
0000
0000
0110
0000
0000
0010
0000
2000
0000
3001
,  // measure 50
1000
0000
0000
0000
0000
0000
1200
0000
0000
0000
0310
0000
0000
0100
0000
0000
0010
0000
0100
0000
0010
0000
0100
0000
0010
0000
0001
0000
0000
0000
0001
0000
,  // measure 51
1000
0000
0000
0001
0000
0200
0000
0000
0310
0000
0000
0200
0000
0302
0000
0000
,  // measure 52
1003
0000
0000
1000
0001
0000
0001
0010
0000
0000
0000
0001
0010
0001
0010
0000
,  // measure 53
0100
0000
0000
0100
0010
0000
0010
0001
0000
0000
0000
0010
0001
0010
0001
0000
,  // measure 54
1000
0000
0000
1000
0001
0000
0001
0100
0000
0000
0000
0001
0100
0001
0100
0000
,  // measure 55
0101
1001
1010
0110
,  // measure 56
1000
0000
0000
1000
0001
1000
0001
0010
0000
0000
0000
0010
0001
0010
0100
0000
,  // measure 57
0010
0000
0000
0010
0100
0010
0100
1000
0000
0000
0000
1000
0100
1000
0001
0000
,  // measure 58
1001
0000
0000
0001
1000
0001
1000
0010
0000
0000
0000
0010
1000
0010
0100
0000
,  // measure 59
0110
0000
0000
0010
0100
0010
0100
0001
0000
0000
0000
0001
1000
0001
0010
0000
,  // measure 60
0011
0000
0010
0000
0001
0010
0100
0000
0110
0000
0100
0000
0010
0100
1000
0000
,  // measure 61
1100
0000
1000
0000
0100
1000
0001
0000
1001
0000
0001
0000
1000
0001
0100
0000
,  // measure 62
0101
0000
0100
0000
0001
0100
0010
0000
0110
0000
0010
0000
0100
0010
1000
0000
,  // measure 63
1010
0000
1000
0000
0010
1000
0001
0000
1001
0000
0001
0000
1000
0001
0010
0000
,  // measure 64
0001
0000
0010
0000
0100
0010
0001
0100
0010
0000
0100
0000
0001
1000
0100
0010
,  // measure 65
0100
0000
1000
0000
0001
0100
0010
0100
0001
0000
1000
0000
0001
0010
0100
0000
,  // measure 66
1000
0000
0010
0000
0100
0010
1000
0100
0010
0000
0100
0000
1000
0001
0100
0010
,  // measure 67
0100
0000
0001
0000
1000
0100
0010
0100
1000
0000
0001
0000
1000
0010
0100
0000
,  // measure 68
0010
0000
0000
0000
0000
0000
0000
0000
0100
0000
0000
0000
0010
0000
0000
0000
1000
0000
0000
0000
0000
0000
0001
0000
0000
0000
0000
0000
1000
0000
0000
0000
0100
0000
0000
0000
0000
0000
0000
0100
0000
0000
0000
0000
0010
0000
0000
0000
0000
0000
0000
0010
0000
0000
0000
0000
0100
0000
0000
0000
0000
0000
0000
0000
,  // measure 69
1000
0000
0000
0000
0001
0000
0000
0000
0000
0200
0000
0000
0000
0000
0020
0000
0000
0000
0000
0000
0000
0000
0000
0000
0000
0000
0000
0000
0000
0000
0000
0000
,  // measure 70
0000
0330
0000
0000
;
