#TITLE:Be The One;
#SUBTITLE:;
#ARTIST:Dua Lipa;
#TITLETRANSLIT:;
#SUBTITLETRANSLIT:;
#ARTISTTRANSLIT:;
#GENRE:;
#CREDIT:;
#BANNER:banner.png;
#BACKGROUND:Be The One-bg.png;
#LYRICSPATH:;
#CDTITLE:;
#MUSIC:Be The One.ogg;
#OFFSET:-0.140224;
#SAMPLESTART:54.979984;
#SAMPLELENGTH:12.000000;
#SELECTABLE:YES;
#BPMS:0.000000=175.000000
,224.000000=87.500000
,256.000000=175.000000
;
#STOPS:
;
#BGCHANGES:;
#KEYSOUNDS:;
#ATTACKS:;

//---------------dance-single - ----------------
#NOTES:
     dance-single:
     :
     Beginner:
     2:
     0.050464,0.077636,0.003882,0.000000,0.000000,91.000000,90.000000,1.000000,0.000000,0.000000,0.000000,0.050464,0.077636,0.003882,0.000000,0.000000,91.000000,90.000000,1.000000,0.000000,0.000000,0.000000:
0000
0000
0000
0000
,
0000
0000
0000
0000
,
0000
0000
0000
0000
,
0000
0000
0000
0000
,
0000
0000
0000
0000
,
0000
0000
0000
0000
,
0000
0000
0000
0000
,
0000
0000
0000
0000
,
1000
0000
0000
0000
,
0001
0000
0000
0000
,
0100
0000
0000
0000
,
0010
0000
0010
0000
,
0010
0000
0000
0000
,
1000
0000
0000
0000
,
0100
0000
0000
0000
,
1000
0000
0000
0000
,
1000
0000
0000
0000
,
0001
0000
0000
0000
,
0100
0000
0000
0000
,
0010
0000
0010
0000
,
0010
0000
0000
0000
,
0100
0000
0000
0000
,
0001
0000
0000
0000
,
0010
0000
0000
0000
,
0010
0000
0000
0000
,
0100
0000
0000
0000
,
0010
0000
0000
0000
,
0001
0000
0001
0000
,
1000
0000
0000
0000
,
1000
0000
0000
0000
,
0010
0000
0000
0000
,
0100
0000
0100
0000
,
0100
0000
0000
0000
,
0010
0000
0000
0000
,
1000
0000
0000
0000
,
0001
0000
0001
0000
,
0001
0000
0000
0000
,
1000
0000
0000
0000
,
0001
0000
0000
0000
,
1000
0000
0000
0000
,
0001
0000
0001
0000
,
0010
0000
0010
0000
,
0100
0000
0100
0000
,
1000
0000
1000
0000
,
0001
0000
0000
0000
,
0001
0000
0000
0000
,
1000
0000
0000
0000
,
1000
0000
0000
0000
,
0010
0000
0000
0000
,
0100
0000
0000
0000
,
0001
0000
0000
0000
,
1000
0000
0000
0000
,
0001
0000
0000
0000
,
0010
0000
0000
0000
,
0100
0000
0000
0000
,
1000
0000
0000
0000
,
1000
0000
1000
0000
,
1000
0000
0000
0000
,
0001
0000
0001
0000
,
0001
0000
0000
0000
,
0100
0000
0100
0000
,
0100
0000
0000
0000
,
0010
0000
0010
0000
,
0010
0000
0000
0000
,
1000
0000
1000
0000
,
0001
0000
0001
0000
,
0100
0000
0100
0000
,
0010
0000
0010
0000
,
1000
0000
0000
0000
,
0100
0000
0000
0000
,
0010
0000
0000
0000
,
0001
0000
0000
0000
,
1000
0000
0000
0000
,
1000
0000
0000
0000
,
0010
0000
0000
0000
,
0010
0000
0000
0000
,
0100
0000
0000
0000
,
0100
0000
0000
0000
,
0001
0000
0000
0000
,
0001
0000
0000
0000
,
1001
0000
0000
0000
;

//---------------dance-single - ----------------
#NOTES:
     dance-single:
     :
     Easy:
     4:
     0.102591,0.188656,0.003882,0.011645,0.000000,185.000000,184.000000,1.000000,3.000000,0.000000,0.000000,0.102591,0.188656,0.003882,0.011645,0.000000,185.000000,184.000000,1.000000,3.000000,0.000000,0.000000:
0000
0000
0000
0000
,
0000
0000
0000
0000
,
0000
0000
0000
0000
,
0000
0000
0000
0000
,
0000
0000
0000
0000
,
0000
0000
0000
0000
,
0000
0000
0000
0000
,
0000
0000
0000
0001
,
0001
0000
0000
0100
,
0100
0000
0000
0010
,
0010
0000
0000
0000
,
1000
0001
0010
0100
,
1000
0000
0000
0000
,
0001
0000
0000
0000
,
0100
0000
0000
0000
,
0010
0000
0000
1000
,
1000
0000
0000
0100
,
0100
0000
0000
0010
,
0010
0000
0000
0000
,
0001
0100
0010
1000
,
0001
0000
0000
0000
,
0100
0000
0000
0000
,
0010
0000
0000
0000
,
1000
0000
0001
0001
,
1000
0000
0000
1000
,
0001
0000
0000
0001
,
0100
0000
0000
0000
,
0010
0000
1000
0000
,
0100
0010
0001
0000
,
0001
0000
0000
0000
,
0100
0000
0000
0000
,
0100
0010
1000
0100
,
0010
0000
0000
0100
,
1000
0000
0000
1000
,
0010
0000
0000
0000
,
0010
0100
0001
0010
,
0100
0100
0100
0000
,
0010
0000
0000
0000
,
0001
0000
0000
0000
,
1000
0000
0000
0000
,
0001
0100
0010
1000
,
0001
0001
0001
0000
,
1000
0100
0010
0001
,
1000
1000
1000
0000
,
0001
1000
0100
0000
,
0100
0000
0100
0000
,
1000
0001
0100
0000
,
0100
0000
0001
1000
,
0010
0000
0010
0000
,
1000
0000
1000
0000
,
0001
0000
0001
0000
,
0010
0000
0001
1000
,
0100
0000
0100
0000
,
1000
0000
1000
0000
,
0001
0000
0001
0000
,
0100
0000
0001
0010
,
0100
1000
0001
0100
,
0010
0000
1000
0000
0010
0000
0100
0100
,
0100
0001
0010
0100
,
1000
0000
0001
0000
0100
0000
0010
0010
,
0010
0100
0001
0010
,
0100
0000
1000
0000
0001
0000
1000
1000
,
1000
0001
0100
0010
,
1000
0100
1000
0100
2000
0000
0000
0000
,
3001
0100
0010
1000
,
0010
0100
0001
0000
,
1000
0100
0010
0001
,
0010
0100
1000
0000
,
0001
1000
0100
0000
,
1000
0000
1000
0000
,
0001
1000
0100
0000
,
1000
0000
0001
0100
,
0010
0000
0010
0000
,
1000
0000
1000
0000
,
0100
0000
0100
0000
,
0010
0000
0010
0001
,
1000
0000
1000
0000
,
0010
0000
0010
0000
,
0100
0000
0100
0000
,
0001
0000
1000
0001
,
2002
0000
0000
0000
,
3003
0000
0000
0000
;

//---------------dance-single - ----------------
#NOTES:
     dance-single:
     :
     Medium:
     6:
     0.158045,0.220099,0.034936,0.027173,0.007764,285.000000,276.000000,9.000000,7.000000,0.000000,0.000000,0.158045,0.220099,0.034936,0.027173,0.007764,285.000000,276.000000,9.000000,7.000000,0.000000,0.000000:
0000
0000
0000
0000
,
0000
0000
0000
0000
,
0000
0000
0000
0000
,
0000
0000
0000
0000
,
0000
0000
0000
0000
,
0000
0000
0000
0000
,
0000
0000
0000
0000
,
0000
0000
0000
0000
,
1000
0000
0000
0001
0000
0000
0100
0000
,
0001
0000
0000
1000
0000
0000
0100
0000
,
1000
0000
0000
0001
0000
0000
0010
0000
,
0001
0100
0010
1000
,
0001
0000
0000
0010
0000
0000
0100
0000
,
1000
0000
0000
0010
0000
0000
0100
0000
,
0001
0000
0000
0100
0000
0000
0010
0000
,
1000
0000
0001
0100
,
0001
0000
0000
1000
0000
0000
0010
0000
,
1000
0000
0000
0001
0000
0000
0010
0000
,
0001
0000
0000
1000
0000
0000
0100
0000
,
1000
0001
0100
0010
,
1000
0000
0000
0100
0000
0000
0010
0000
,
0001
0000
0000
0100
0000
0000
0010
0000
,
1000
0000
0000
0010
0000
0000
0100
0000
,
0001
0000
0000
0010
0000
0100
1000
0100
,
1000
0000
0000
1001
0000
0000
0001
0000
,
0100
0000
0000
0110
0000
0000
0010
0000
,
1000
0000
0000
1100
0000
0000
0000
0200
,
0000
0000
0000
0310
0000
0001
0010
0100
,
1000
0000
0000
1100
0000
0000
0001
0000
,
0001
0000
0000
0101
0000
0000
1000
0000
,
1000
0000
0000
1010
0000
0000
0001
0000
,
0010
0100
1000
0100
,
1000
0000
0000
0101
0000
0000
0001
0000
,
0001
0000
0000
1010
0000
0000
1000
0000
,
0001
0000
0000
1100
0000
0000
0000
0001
,
0000
0100
0010
1000
0010
0000
0100
0000
,
0002
0000
0000
0010
0000
0000
0100
0000
,
2003
0000
0000
0010
0000
0000
0100
0000
,
3002
0000
0000
0100
0000
0000
1003
0000
,
2000
0000
0000
0010
0000
0000
3001
0000
,
0001
1000
0100
1000
,
0001
0000
0100
0010
0000
0010
0000
1000
,
0000
0100
0010
0000
0100
0000
1000
0000
,
0010
0000
0100
0001
0000
0001
0000
0010
,
0000
0100
1000
0100
0000
0010
0001
0000
,
1000
0000
0000
0000
0001
0100
0000
0010
,
0000
0100
0000
0010
0000
1000
0001
0000
,
0010
0000
0100
1000
0000
1000
0001
0000
,
0100
0000
0000
0010
0000
0000
1000
0000
,
0100
0000
0000
0010
0000
0000
0001
0000
,
1000
0000
0000
0010
0000
0000
0100
0000
,
0001
0000
0000
0010
0000
0010
0100
0010
,
0100
0000
0000
1000
0000
0000
0001
0000
,
0100
0000
0000
0001
0000
0000
1000
0000
,
0010
0000
0000
1000
0000
0000
0001
0000
,
0010
0000
0000
0001
0000
0001
1000
0100
,
0010
0100
1000
0001
,
0100
0000
0000
0000
0010
0000
0000
0000
1000
0000
0000
0001
0000
0000
0001
0000
,
0100
0010
0100
0001
,
1000
0000
0000
0000
0100
0000
0000
0000
0010
0000
0000
0010
0000
0000
0100
0000
,
1000
0010
0100
0000
1000
0010
0100
0000
,
1000
0000
0010
0000
0100
0000
0000
0000
1000
0000
0000
1000
0000
0000
1000
0000
,
0001
0010
0100
0000
0001
0010
0100
0000
,
0001
0000
1000
0000
0001
0000
1000
0000
0001
0000
0000
0001
0000
0000
0001
0000
,
1000
0010
0100
0001
,
1000
0000
0100
0010
0000
0001
0000
0100
,
0000
0010
1000
0000
0001
0000
0010
0000
,
0100
0000
1000
0010
0000
0100
0000
0010
,
0000
1000
0000
0001
0000
0010
0001
0000
,
1000
0000
0100
0000
1000
0001
0000
0100
,
0000
0010
0000
0100
0000
0001
1000
0000
,
0100
0000
0010
0100
0000
0100
1000
0000
,
0001
0000
0000
0001
0000
0000
0100
0000
,
0001
0000
0000
0001
0000
0000
0010
0000
,
0100
0000
0000
0100
0000
0000
1000
0000
,
0010
0000
0000
0010
0000
1000
0100
1000
,
0100
0000
0000
0100
0000
0000
0010
0000
,
0001
0000
0000
0001
0000
0000
1000
0000
,
0010
0000
0000
0010
0000
0000
0100
0000
,
0001
0000
0000
0001
0000
0010
0100
2000
,
0002
0000
0000
0000
,
3003
0000
0000
0000
;

//---------------dance-single - ----------------
#NOTES:
     dance-single:
     :
     Hard:
     8:
     0.207955,0.377313,0.007764,0.100927,0.050464,375.000000,373.000000,2.000000,26.000000,0.000000,0.000000,0.207955,0.377313,0.007764,0.100927,0.050464,375.000000,373.000000,2.000000,26.000000,0.000000,0.000000:
// measure 0
0000
0000
0000
0000
,  // measure 1
0000
0000
0000
0000
,  // measure 2
0000
0000
0000
0000
,  // measure 3
0000
0000
0000
0000
,  // measure 4
0000
0000
0000
0000
,  // measure 5
0000
0000
0000
0000
,  // measure 6
0000
0000
0000
0000
,  // measure 7
0000
0000
0000
0000
0000
1000
0100
0010
,  // measure 8
0001
0000
0000
0001
0000
1000
0100
0010
,  // measure 9
0001
0000
0000
0001
0000
1000
0100
0010
,  // measure 10
0001
0000
0000
0001
0000
0000
0000
0001
,  // measure 11
0000
1000
0000
0001
0100
0010
1000
0001
,  // measure 12
1000
0000
0001
0100
0000
0000
0100
0000
,  // measure 13
0001
0000
1000
0100
0000
0000
0100
0000
,  // measure 14
1000
0000
0001
0010
0000
0000
0010
0000
,  // measure 15
0001
0000
1000
0010
0000
0010
1000
0100
,  // measure 16
0010
0000
0000
0010
0000
0000
0001
0100
,  // measure 17
0010
0000
0000
0010
0000
0000
1000
0100
,  // measure 18
0010
0000
0000
0010
0000
0000
0001
1000
,  // measure 19
0000
1000
0000
0001
0100
0010
1000
0001
,  // measure 20
0100
0000
0001
1000
0000
0000
1000
0000
,  // measure 21
0100
0000
1000
0001
0000
0000
0001
0000
,  // measure 22
0100
0000
0001
1000
0000
0000
1000
0000
,  // measure 23
0100
0000
1000
0010
0000
0010
0100
0001
,  // measure 24
0010
0000
0100
1000
0000
1000
0010
0100
,  // measure 25
0001
0000
0010
0100
0000
0100
1000
0010
,  // measure 26
0100
0000
0100
0001
0000
0001
1000
0200
,  // measure 27
0000
0000
0000
1300
0000
0010
0100
0001
,  // measure 28
0020
0230
2300
3001
,  // measure 29
1000
0000
0010
1000
0000
0000
1000
0000
,  // measure 30
0001
0000
0010
0001
0000
0001
1000
0100
,  // measure 31
0000
0100
1000
0010
1000
0010
0100
0001
,  // measure 32
1000
0000
0100
0010
0000
0010
0001
0100
,  // measure 33
0010
0000
1000
0100
0000
0100
0010
0100
,  // measure 34
1000
0000
1000
0001
0000
1000
0001
0100
,  // measure 35
0000
0010
1000
0100
0010
0001
0100
0010
,  // measure 36
2000
0000
0000
0100
0000
0000
0001
0000
,  // measure 37
3002
0000
0000
0100
0000
0000
1000
0000
,  // measure 38
2003
0000
0000
0010
0000
0000
0001
0000
,  // measure 39
3002
0000
0000
0010
0000
0000
1003
0000
,  // measure 40
1001
0000
0001
0100
0010
0001
0010
1000
,  // measure 41
0100
0000
0010
0100
0000
0100
0000
1000
,  // measure 42
0000
0010
0100
1000
0100
0000
0001
0010
,  // measure 43
0100
0000
0010
0001
0000
0001
0100
0010
,  // measure 44
0000
0001
0010
1000
0000
1000
0001
0000
,  // measure 45
0010
0000
0100
0000
1000
0100
0000
0001
,  // measure 46
0000
0100
1000
0001
0000
0001
1000
0000
,  // measure 47
0001
0000
0100
0010
0000
0010
1000
0100
,  // measure 48
0020
0000
0000
1000
0000
0000
0001
0000
,  // measure 49
0230
0000
0000
1000
0000
0000
0010
0000
,  // measure 50
2300
0000
0000
0100
0000
0000
0001
0000
,  // measure 51
3010
0000
0000
1000
0000
1000
0001
1000
,  // measure 52
0002
0000
0000
0010
0000
0000
0100
0000
,  // measure 53
2003
0000
0000
0010
0000
0000
0100
0000
,  // measure 54
3020
0000
0000
1000
0000
0000
0001
0000
,  // measure 55
1030
0000
0000
0100
0000
0100
0001
0100
,  // measure 56
1000
0000
0000
1000
0000
0000
1000
0000
0010
0000
0000
0010
0000
0000
0010
0000
,  // measure 57
0100
0000
0000
0100
0000
0000
0100
0000
0001
0000
0000
1000
0000
1000
0100
0010
,  // measure 58
0001
0000
0000
0001
0000
0000
0001
0000
0100
0000
0000
0100
0000
0000
0100
0000
,  // measure 59
0010
0000
0000
0010
0000
0000
0010
0000
1000
0000
0000
0010
0000
0100
0001
0100
,  // measure 60
0001
0000
0010
0100
1000
0000
0010
0100
0001
0000
0010
0100
1000
0000
0010
0100
,  // measure 61
0001
0000
0010
0100
1000
0000
0010
0100
0001
0000
0000
0001
0000
1000
0100
0010
,  // measure 62
0001
0000
1000
0010
0100
0000
0001
0010
0100
0000
1000
0100
0010
0000
0001
0100
,  // measure 63
0020
0000
1000
0000
2030
0000
0100
0000
3200
0000
0000
0010
0000
0000
0310
0000
,  // measure 64
1001
0000
0001
0010
0100
1000
0100
0010
,  // measure 65
0001
0000
1000
0010
0000
0010
0000
0100
,  // measure 66
0000
1000
0100
0001
1000
0000
0001
0010
,  // measure 67
1000
0000
0010
0001
0000
0001
1000
0010
,  // measure 68
0000
0010
0100
0001
0000
0001
1000
0000
,  // measure 69
0001
0000
0010
0000
0100
1000
0000
0010
,  // measure 70
0000
0010
1000
0100
0000
0100
1000
0000
,  // measure 71
0001
0000
0100
0010
0000
0010
1000
0100
,  // measure 72
0020
0000
0000
1000
0000
0000
0001
0000
,  // measure 73
0230
0000
0000
1000
0000
0000
0001
0000
,  // measure 74
2300
0000
0000
0100
0000
0000
0001
0000
,  // measure 75
3002
0000
0000
0013
0000
0010
0100
1000
,  // measure 76
0020
0000
0000
0001
0000
0000
1000
0000
,  // measure 77
0230
0000
0000
0001
0000
0000
1000
0000
,  // measure 78
0302
0000
0000
0100
0000
0000
1003
0000
,  // measure 79
0001
0000
0000
1000
0000
0010
0100
0002
,  // measure 80
2000
0000
0000
0000
,  // measure 81
3003
0000
0000
0000
;
