#TITLE:삐리뽐 빼리뽐;
#SUBTITLE:;
#ARTIST:남녀공학;
#TITLETRANSLIT:Bbiribbom Bberibbom;
#SUBTITLETRANSLIT:;
#ARTISTTRANSLIT:Coed School;
#GENRE:;
#CREDIT:;
#BANNER:[Short] - Bbiribbom Bberibbom.png;
#BACKGROUND:[Short] - Bbiribbom Bberibbom-bg.png;
#LYRICSPATH:;
#CDTITLE:;
#MUSIC:[Short] - Bbiribbom Bberibbom.ogg;
#OFFSET:-0.569167;
#SAMPLESTART:14.507000;
#SAMPLELENGTH:14.015000;
#SELECTABLE:YES;
#BPMS:0.000000=136.994995
;
#STOPS:
;
#BGCHANGES:15.500=[Short] - Bbiribbom Bberibbom.avi=1.000=1=0=0=StretchNoLoop==CrossFade==,
99999=-nosongbg-=1.000=0=0=0 // don't automatically add -songbackground-
;
#KEYSOUNDS:;
#ATTACKS:;

//---------------dance-single - ----------------
#NOTES:
     dance-single:
     :
     Hard:
     8:
     0.503274,0.502016,0.205504,0.479508,0.019572,360.000000,339.000000,21.000000,49.000000,0.000000,0.000000,0.503274,0.502016,0.205504,0.479508,0.019572,360.000000,339.000000,21.000000,49.000000,0.000000,0.000000:
0000
0000
0000
0000
,
0000
0000
0000
0000
,
0000
0000
0000
0000
,
0000
0000
0000
0000
,
1000
0010
1000
0000
0001
1000
0001
0000
,
0010
0001
0010
0000
0100
0010
0100
0000
,
1000
0100
1000
0000
0001
0100
0001
0000
,
2002
0000
0000
3003
,
1000
0010
0001
0010
1000
0010
0001
1000
,
0100
0001
0010
0000
0110
0000
1100
0000
,
1000
0100
0001
0100
1000
0100
0001
1000
,
0010
0001
1000
0000
1010
0000
0101
0000
,
0001
0100
1000
0100
0001
0100
1000
0001
,
0010
1000
0100
0000
1100
0000
0110
0000
,
0010
0100
0010
0010
0001
1000
0001
0001
,
0100
0010
2000
0000
3100
0010
0002
0000
,
2003
0000
3020
0000
0130
0000
0200
0001
,
0000
0001
0000
0301
1000
0100
0020
0000
,
0032
0000
2003
0000
3010
0000
0020
1000
,
0000
1000
0000
1030
0001
0010
0200
0000
,
2300
0000
3002
0000
1003
0000
1000
0020
,
0000
0230
0000
0310
0100
0001
2000
0000
,
3200
0000
0320
0000
0130
0000
0100
2000
,
0000
3002
0000
1003
0001
0100
0110
0000
,
0010
0000
1000
0000
0001
0000
1000
0000
0100
0000
0000
0100
0000
0000
0100
0000
,
0010
0000
0001
0000
1000
0000
0001
0000
0100
0000
0000
0100
0000
0000
0100
0000
,
0010
1000
0001
1000
0100
0100
0010
0010
,
0001
0000
0000
0101
0000
0000
0001
0000
1000
0000
0000
1001
0000
0000
1000
0000
,
0100
1000
1100
0000
1000
0100
0010
0100
,
0010
0001
0011
0000
0001
0010
0001
1000
,
0010
1000
1010
0000
0010
0100
0001
0100
,
0001
1000
2002
3003
,
0002
0010
2003
0100
3002
0010
2003
0100
,
3002
0100
2003
0010
3002
0100
2003
0010
,
3001
0100
0010
0100
0010
1000
0001
1000
,
0100
0010
0002
0000
0103
0010
2000
0000
,
3002
0100
2003
0010
3002
0100
2003
0010
,
3002
0010
2003
0100
3002
0010
2003
0100
,
3001
0010
0001
1000
0010
1000
0001
1000
,
0100
0010
0002
0000
0103
0010
2000
0000
,
3001
0100
1000
0100
0001
0100
1000
0001
,
0010
1000
0100
0000
1100
0000
0110
0000
,
0001
0010
1000
0010
0001
0010
1000
0001
,
0100
1000
0001
0000
0101
0000
1010
0000
,
1000
0010
0001
0010
1000
0010
0001
1000
,
0100
0001
0010
0000
0011
0000
1010
0000
,
1000
0010
0100
0100
0010
0100
0001
0001
,
1000
0100
0020
0000
0031
1000
0020
0000
,
1030
0010
1000
0001
0010
0100
1000
1000
,
0100
1000
0001
1000
0001
0001
0100
0100
,
0010
0100
0010
1000
0001
0001
0010
0010
,
0100
1000
0001
1000
0010
0100
0002
0000
,
0013
0100
1000
0100
0010
0001
1000
1000
,
0010
0100
0001
0100
0010
1000
0001
0001
,
1000
0100
0001
0100
1000
0010
0001
0010
,
1000
0001
0020
0000
0031
1000
0010
0000
,
2002
0000
0000
0000
,
3003
0000
0000
0000
;

//---------------dance-single - ----------------
#NOTES:
     dance-single:
     :
     Medium:
     7:
     0.391435,0.438408,0.244647,0.117431,0.009786,280.000000,255.000000,25.000000,12.000000,0.000000,0.000000,0.391435,0.438408,0.244647,0.117431,0.009786,280.000000,255.000000,25.000000,12.000000,0.000000,0.000000:
// measure 0
0000
0000
0000
0000
,  // measure 1
0000
0000
0000
0000
,  // measure 2
0000
0000
0000
0000
,  // measure 3
0000
0000
0000
0000
,  // measure 4
1000
0010
1000
0010
,  // measure 5
1000
0001
1000
0001
,  // measure 6
0010
0001
0010
0002
,  // measure 7
2000
0000
0000
3003
,  // measure 8
1000
0010
1000
0010
1000
0010
0100
0001
,  // measure 9
1000
0100
0220
0330
,  // measure 10
0010
0001
0010
0001
0010
0001
0010
0100
,  // measure 11
1000
0001
0101
1010
,  // measure 12
0010
0100
0010
0100
0010
0100
0001
1000
,  // measure 13
0100
0010
0022
0033
,  // measure 14
0010
0100
1000
1000
0001
0100
0010
0010
,  // measure 15
1000
1000
1000
0000
0001
0001
0001
0000
,  // measure 16
1000
0010
0110
0000
,  // measure 17
0100
0000
0001
0000
0100
0001
0100
0000
,  // measure 18
0001
1000
1001
0000
,  // measure 19
1000
0000
0100
0000
0010
0100
0010
0000
,  // measure 20
0001
0100
0101
0000
,  // measure 21
0100
0000
0010
0000
1000
0010
1000
0000
,  // measure 22
0100
0010
0011
0000
,  // measure 23
0001
0000
1000
0000
0001
1000
0001
0000
,  // measure 24
1000
0010
0001
0010
1000
0000
1010
0000
,  // measure 25
1000
0100
0001
0100
1000
0000
1001
0000
,  // measure 26
1000
0000
0010
0000
0100
0010
0100
0000
,  // measure 27
0001
0000
0000
0010
0000
0000
0001
0000
1000
0000
0000
0010
0000
0000
1000
0000
,  // measure 28
0001
0000
1001
0000
1000
0100
0010
0001
,  // measure 29
1000
0000
1001
0000
1000
0010
0100
0001
,  // measure 30
1000
0000
1001
0000
0001
0010
0100
1000
,  // measure 31
0001
1000
2002
3003
,  // measure 32
0001
0000
0100
0000
1000
0100
0001
0000
,  // measure 33
1000
0000
0100
0000
0001
0100
1000
0000
,  // measure 34
0001
0010
0100
1000
,  // measure 35
0001
0001
0001
0000
1000
1000
1000
0000
,  // measure 36
0001
0000
0010
0000
1000
0010
0001
0001
,  // measure 37
1000
0000
0010
0000
0001
0010
1000
1000
,  // measure 38
0001
0000
0100
0000
0010
1000
0001
1000
,  // measure 39
0001
0011
0001
1001
,  // measure 40
1000
0100
1000
0100
1000
0100
0010
0100
,  // measure 41
0010
0001
0022
0033
,  // measure 42
0001
0100
0001
0100
0001
0100
0010
1000
,  // measure 43
0010
1010
1000
1001
,  // measure 44
0001
0100
0001
0100
0001
0100
0010
1000
,  // measure 45
0100
0010
2002
3003
,  // measure 46
0001
0100
0010
1000
,  // measure 47
0001
0001
0001
0000
1000
1000
1000
0000
,  // measure 48
0100
0010
0001
0000
,  // measure 49
0010
0000
0001
0000
1000
0001
1000
0000
,  // measure 50
0001
0100
0010
0000
,  // measure 51
1000
0000
0010
0000
1000
0001
1000
0000
,  // measure 52
0001
1000
1001
0000
,  // measure 53
0001
0000
0010
0000
0100
0010
0100
0000
,  // measure 54
1000
0001
1001
0000
,  // measure 55
0100
0110
0010
0110
,  // measure 56
1001
0000
0000
0000
;

//---------------dance-single - ----------------
#NOTES:
     dance-single:
     :
     Easy:
     4:
     0.285189,0.328806,0.117431,0.019572,0.000000,204.000000,192.000000,12.000000,2.000000,0.000000,0.000000,0.285189,0.328806,0.117431,0.019572,0.000000,204.000000,192.000000,12.000000,2.000000,0.000000,0.000000:
0000
0000
0000
0000
,
0000
0000
0000
0000
,
0000
0000
0000
0000
,
0000
0000
0000
0000
,
1000
1000
0001
0001
,
0010
0010
0100
0100
,
1000
1000
0010
0010
,
0100
0000
0000
0000
,
0001
0100
0001
0100
,
0001
0001
0001
0000
,
1000
0100
1000
0100
,
1000
1000
0001
0001
,
1000
0010
1000
0010
,
1000
1000
1000
0000
,
0001
0010
0100
1000
,
0010
1010
1000
1001
,
0001
0010
0001
0000
,
1000
0010
0100
0100
,
0001
0100
0001
0000
,
0001
1000
0100
0100
,
0010
0001
0010
0000
,
0001
0001
1000
1000
,
0010
1000
0010
0000
,
0100
0010
0110
0000
,
0100
0001
1000
1000
,
0100
0010
0001
0001
,
0010
0001
1000
0001
,
1000
1000
0010
0010
,
0100
0010
0100
0100
,
0001
0100
0001
0001
,
1000
0001
1000
1000
,
0100
0010
0110
0000
,
0102
0010
0100
1000
,
0100
0100
0010
0013
,
1000
0100
0010
0001
,
1000
1100
0001
0101
,
2010
0100
0010
0001
,
0001
0100
0010
0100
,
3100
0010
0001
1000
,
0010
1010
0001
0011
,
1000
0010
1000
0010
,
1000
1000
1000
0000
,
0001
0010
0001
0010
,
0001
0001
0010
0010
,
0100
1000
0100
1000
,
0100
0100
0100
0000
,
1000
0010
0100
0001
,
0100
0101
0010
1010
,
1000
1000
1000
0000
,
0001
0001
0010
0010
,
0100
0100
0100
0000
,
1000
0100
1000
0010
,
0100
0100
0100
0000
,
0001
0001
1000
1000
,
0100
0100
0100
0000
,
0010
0100
0010
0001
,
1000
0000
0000
0000
;
