#VERSION:0.83;
#TITLE:Arcanes;
#SUBTITLE:;
#ARTIST:Leaf;
#TITLETRANSLIT:;
#SUBTITLETRANSLIT:;
#ARTISTTRANSLIT:;
#GENRE:EDM;
#ORIGIN:;
#CREDIT:;
#BANNER:Arcanes_Banner.png;
#BACKGROUND:Arcanes_Background.png;
#PREVIEWVID:;
#JACKET:;
#CDIMAGE:;
#DISCIMAGE:;
#LYRICSPATH:;
#CDTITLE:cd-title-Benpai.png;
#MUSIC:Arcanes.ogg;
#OFFSET:0.008000;
#SAMPLESTART:61.867020;
#SAMPLELENGTH:14.870000;
#SELECTABLE:YES;
#DISPLAYBPM:128.000000;
#BPMS:0.000=128.000,
128.000=192.000,
132.750=64.000,
133.000=128.000,
135.000=192.000,
135.750=64.000,
136.000=128.000,
151.000=192.000,
151.750=64.000,
152.000=128.000,
164.000=64.000,
164.250=192.000,
165.000=128.000,
180.000=96.000,
180.500=192.000,
181.000=128.000,
212.000=96.000,
212.500=192.000,
213.000=128.000;
#STOPS:128.000=0.039,
128.250=0.039,
128.500=0.039,
128.750=0.039,
129.000=0.039,
129.250=0.039,
129.500=0.039,
129.750=0.039,
130.000=0.039,
130.250=0.039,
130.500=0.039,
130.750=0.039,
131.000=0.039,
131.250=0.039,
131.500=0.039,
131.750=0.040;
#DELAYS:;
#WARPS:;
#TIMESIGNATURES:0.000=4=4;
#TICKCOUNTS:0.000=4;
#COMBOS:0.000=1;
#SPEEDS:0.000=1.000=0.000=0;
#SCROLLS:0.000=1.000;
#FAKES:;
#LABELS:0.000=Song Start;
#BGCHANGES:;
#KEYSOUNDS:;
#ATTACKS:
;

//---------------dance-single - ----------------
#NOTEDATA:;
#CHARTNAME:;
#STEPSTYPE:dance-single;
#DESCRIPTION:;
#CHARTSTYLE:;
#DIFFICULTY:Challenge;
#METER:10;
#RADARVALUES:0.541903,0.687244,0.232096,0.384409,0.514963,523.000000,491.000000,32.000000,53.000000,20.000000,0.000000,6.000000,0.000000,0.000000,0.541903,0.687244,0.232096,0.384409,0.514963,523.000000,491.000000,32.000000,53.000000,20.000000,0.000000,6.000000,0.000000,0.000000;
#CREDIT:Benpai;
#DISPLAYBPM:128.000000;
#NOTES:
// measure 0
0000
0000
0000
0000
,  // measure 1
0000
0000
0000
0000
,  // measure 2
0000
0000
0000
0000
,  // measure 3
0000
0000
0000
0000
,  // measure 4
0000
0000
0000
0000
,  // measure 5
0000
0000
0000
0000
,  // measure 6
0000
0000
0000
0000
,  // measure 7
0000
0000
0000
0000
,  // measure 8
0000
0000
0000
0000
2001
0000
0000
0000
3000
0000
0000
0000
0001
0000
0010
0200
,  // measure 9
0000
0000
0000
0000
1300
0000
0001
0000
0101
0000
0000
1001
0000
0000
2100
0000
,  // measure 10
0000
0000
0000
0000
3020
0000
0000
0130
,  // measure 11
0002
0000
0003
0011
0000
0001
1000
0010
,  // measure 12
0100
0000
0000
0000
0102
0000
0000
0000
0003
0000
0000
0000
1000
0000
0100
0020
,  // measure 13
0000
0000
0000
0000
0031
0000
1000
0000
1010
0000
0000
1001
0000
0000
0012
0000
,  // measure 14
0000
0000
0000
0000
0203
0000
0000
0310
,  // measure 15
2000
0000
3000
1010
0000
0010
0100
0001
,  // measure 16
1000
0000
0100
1000
0000
1000
0001
0000
0100
0000
0010
0000
0100
0000
0001
2000
,  // measure 17
0000
0000
3000
0000
0000
0000
0100
0000
1000
0000
0001
0000
1000
0010
0100
0001
,  // measure 18
2000
0000
3100
0000
0020
0000
0031
1000
,  // measure 19
0020
0000
0130
0001
0010
1000
0010
0001
,  // measure 20
1000
0000
0000
0000
1001
0000
0001
0000
0100
0000
0010
0000
0100
0000
0001
0020
,  // measure 21
0000
0000
0030
0000
0000
0000
0100
0000
0010
0000
0001
0000
1000
0010
0100
0001
,  // measure 22
0020
0000
0130
0000
2000
0000
3010
0100
,  // measure 23
0002
0000
1003
0010
1000
0001
0010
1000
,  // measure 24
001M
0000
0100
1000
0010
0000
0100
0000
0001
0000
0010
0000
0100
0000
0010
0001
,  // measure 25
1000
0000
0001
0010
0001
0000
1000
0000
0010
0000
0100
0000
0001
0010
0100
1000
,  // measure 26
0100
0000
0010
0001
1000
0000
0010
0000
1000
0000
010M
0000
M100
0000
0001
0000
,  // measure 27
1000
0000
0010
0100
0001
0000
1000
0000
0100
0000
0010
0000
0001
0010
0001
1000
,  // measure 28
0001
0000
1000
0010
0100
0000
0001
0000
0010
0000
0001
0000
0100
0000
0010
1000
,  // measure 29
0001
0000
1000
0100
1000
0000
0001
0000
0010
0000
0001
0000
1000
0010
0100
0001
,  // measure 30
0010
0000
0100
0010
0001
0000
1000
0000
0001
0000
M100
0000
010M
0000
1000
0000
,  // measure 31
0200
0000
0000
0000
0000
0310
0001
1000
,  // measure 32
0010
0100
0010
0100
0010
1000
0001
1000
0100
0010
0001
1000
0010
0100
0001
1000
,  // measure 33
1001
0000
0000
0000
0102
0000
0000
0000
1003
01M0
0100
0001
0040
0000
0000
0030
,  // measure 34
0100
0000
0000
0000
0000
0000
1000
0000
0000
0001
0000
0000
0000
0000
0000
0010
0000
0000
0M10
0000
0000
1000
0000
0000
0010
0000
0000
0000
0000
0000
0000
0000
0000
0010
0000
0000
0100
0000
0001
0000
0100
0000
0001
0000
0100
0000
0001
0000
,  // measure 35
1000
0000
0002
0003
1000
0000
0200
0300
0010
0000
0200
0300
1000
0000
0020
0030
,  // measure 36
0100
0000
0002
0003
0010
0000
0200
0300
1000
0101
0000
1000
0011
0000
0200
0300
,  // measure 37
0110
0000
0001
1000
0000
0100
0000
0010
0100
01M0
0001
1000
0040
0000
0000
0030
,  // measure 38
1000
0000
0010
0100
0000
0001
0M10
0010
1000
0000
0000
1001
0000
0000
1100
0000
,  // measure 39
0001
0000
0020
0030
0001
0000
0200
0300
0001
0000
01M0
0100
1000
0000
0200
0300
,  // measure 40
0010
0000
0200
0300
1000
0000
0002
0003
0100
0010
1000
0001
0101
0000
1000
0000
,  // measure 41
1MM2
0000
0000
0000
0000
0000
0003
0000
0000
0000
0000
0000
4000
0000
0000
0000
0000
0000
0000
0000
0000
0000
0000
0000
3100
0000
0000
0010
0000
0000
0001
0000
0000
1000
0000
0000
0010
0000
1000
0000
0010
0000
1000
0000
0010
0000
1000
0000
,  // measure 42
0002
0000
0000
0000
0013
0000
0001
1000
0100
0000
0000
0100
0020
0000
0032
0000
,  // measure 43
1003
0010
0100
0010
1000
0001
0010
0001
,  // measure 44
1000
0000
0100
0000
0010
0000
0001
0000
1000
0011
0000
1000
0101
0000
1000
0000
,  // measure 45
2010
0000
0000
3000
0101
0000
0000
0000
0001
01M0
0100
1000
0001
0000
0040
0000
,  // measure 46
0031
0000
1000
0000
0010
0000
0100
0001
0010
0000
0000
0010
0100
0000
1000
0000
,  // measure 47
0010
0100
0001
1000
0100
0000
0010
0000
0100
0000
1000
0000
0001
0000
0100
0000
,  // measure 48
0010
0000
1000
0000
0001
0000
0020
0000
0130
0010
0001
1000
1010
0000
0010
0000
,  // measure 49
0400
0000
0000
0000
0000
0000
0000
0000
0000
0300
0000
0000
1002
0000
0000
0000
0000
0000
0000
0000
0000
0000
0000
0000
1003
0000
0000
0010
0000
0000
1000
0000
0000
0001
0000
0000
0010
0000
0001
0000
0010
0000
0001
0000
0010
0000
0001
0000
,  // measure 50
2000
0000
0000
0000
3010
0100
0001
1000
0100
0000
0000
0100
0020
0000
0032
0000
,  // measure 51
1003
0010
0100
0001
1000
0100
0010
1000
0000
0010
0001
0000
0100
0000
0001
0000
,  // measure 52
0000
0000
1000
0100
1000
0001
0100
1000
0000
0100
0010
0000
0100
0000
0001
0000
,  // measure 53
1001
0000
0000
0000
0011
0000
0000
0000
0001
01M0
0100
1000
0010
0000
4000
0000
,  // measure 54
3001
0000
0010
0000
0100
0010
0001
1000
0010
0000
0000
0010
0100
0000
0001
0000
,  // measure 55
2000
0000
0000
3000
2000
0000
0000
3000
2000
0000
0000
3000
2000
3000
0002
0000
,  // measure 56
0000
0000
0000
0003
0002
0000
0000
0000
0000
0000
0000
0003
0020
0000
0000
0000
0000
0000
0000
0000
0130
0000
0000
0000
1000
0000
0000
0000
0001
0000
0000
0000
,  // measure 57
1001
0000
0001
0100
0000
0001
0000
1000
0100
0000
0000
0100
0000
0010
0001
0010
,  // measure 58
0000
0000
0100
1000
0000
0001
0000
1000
001M
0010
0000
0M01
0000
0010
0100
1000
,  // measure 59
0000
0000
0010
0000
0100
0001
0000
0000
0101
0000
0000
0001
0000
0010
0100
0010
,  // measure 60
0000
0000
0001
0000
1000
0100
0000
0000
1100
0000
0000
1000
0000
0000
0010
0000
,  // measure 61
0100
0000
0001
0010
0000
0001
0000
1000
0100
0000
0000
0100
0000
0010
0001
0010
,  // measure 62
0000
0000
0001
0100
0000
10M0
0000
0100
M010
001M
0000
0001
0000
0010
0100
1000
,  // measure 63
0000
0000
0001
0000
0100
0010
0000
0000
0110
0000
0000
0010
0000
1000
0100
1000
,  // measure 64
0000
0000
0010
0000
0100
0001
0000
1000
0100
0000
0000
0100
0000
0000
0010
0000
,  // measure 65
0001
0000
0200
0000
0010
0000
0000
0000
0301
0000
0000
1000
0100
0000
0010
0000
,  // measure 66
0001
0000
0020
0000
0100
0000
0000
0000
0031
0000
0000
1000
0010
0000
0100
0000
,  // measure 67
0001
2000
0100
0000
3001
0000
0010
0100
,  // measure 68
2000
0000
0000
0000
,  // measure 69
0000
0000
0000
0000
0000
0000
0000
0000
0000
0000
0000
3000
0000
0000
0000
0000
,  // measure 70
0000
0000
0000
000M
0000
0000
0000
0000
0000
0000
0000
0000
0000
0000
0000
0000
;

//---------------dance-single - ----------------
#NOTEDATA:;
#CHARTNAME:;
#STEPSTYPE:dance-single;
#DESCRIPTION:;
#CHARTSTYLE:;
#DIFFICULTY:Beginner;
#METER:1;
#RADARVALUES:0.059060,0.123301,0.000000,0.007253,0.000000,57.000000,57.000000,0.000000,1.000000,8.000000,0.000000,0.000000,0.000000,0.000000,0.059060,0.123301,0.000000,0.007253,0.000000,57.000000,57.000000,0.000000,1.000000,8.000000,0.000000,0.000000,0.000000,0.000000;
#CREDIT:Benpai;
#DISPLAYBPM:128.000000;
#NOTES:
0000
0000
0000
0000
,
0000
0000
0000
0000
,
0000
0000
0000
0000
,
0000
0000
0000
0000
,
0000
0000
0000
0000
,
0000
0000
0000
0000
,
0000
0000
0000
0000
,
0000
0000
0000
0000
,
0000
0000
0000
0000
,
0000
0000
0000
0000
,
0000
0000
0000
0000
,
0000
0000
0000
0000
,
0000
0000
0000
0000
,
0000
0000
0000
0000
,
0000
0000
0000
0000
,
0000
0000
0000
0000
,
0001
0000
0000
0000
,
1000
0000
0000
0000
,
0100
0000
0000
0000
,
0010
0000
0000
0000
,
0001
0000
0000
0000
,
0100
0000
0000
0000
,
0010
0000
0000
0000
,
1000
0000
0000
0000
,
0001
0000
0001
0000
,
1000
0000
1000
0000
,
0100
0000
0100
0000
,
0010
0000
0010
0000
,
0001
0000
0001
0000
,
0100
0000
0100
0000
,
0010
0000
0010
0000
,
2000
0000
0000
3000
,
000M
000M
000M
000M
000M
000M
000M
000M
,
0100
0000
0000
0000
,
1000
0000
0000
0000
,
0001
0000
0000
0000
,
0100
0000
0000
0000
,
0010
0000
0000
0000
,
0100
0000
0000
0000
,
0001
0000
0000
0000
,
1000
0000
0000
0000
,
0100
0000
0000
0000
,
0010
0000
0000
0000
,
0001
0000
0000
0000
,
1000
0000
0000
0000
,
0010
0000
0000
0000
,
0100
0000
0000
0000
,
0001
0000
0000
0000
,
1000
0000
0000
0000
,
0100
0000
0000
0000
,
1000
0000
0000
0000
,
0001
0000
0000
0000
,
0000
0000
0000
0000
,
1000
0000
0000
0000
,
0100
0000
0000
0000
,
0010
0000
0000
0000
,
0000
0000
0000
0000
,
0100
0000
0000
0000
,
1000
0000
0000
0000
,
0001
0000
0000
0000
,
0100
0000
0000
0000
,
0001
0000
0000
0000
,
1000
0000
0000
0000
,
0100
0000
0000
0000
,
1000
0000
0000
0000
,
0001
0000
0000
0000
,
1000
0000
0000
0000
,
0010
0000
0000
0000
,
0100
0000
0000
0000
;

//---------------dance-single - ----------------
#NOTEDATA:;
#CHARTNAME:;
#STEPSTYPE:dance-single;
#DESCRIPTION:;
#CHARTSTYLE:;
#DIFFICULTY:Hard;
#METER:8;
#RADARVALUES:0.364722,0.458163,0.094289,0.543975,0.290120,352.000000,339.000000,13.000000,75.000000,50.000000,0.000000,4.000000,0.000000,0.000000,0.364722,0.458163,0.094289,0.543975,0.290120,352.000000,339.000000,13.000000,75.000000,50.000000,0.000000,4.000000,0.000000,0.000000;
#CREDIT:Benpai;
#DISPLAYBPM:128.000000;
#NOTES:
0000
0000
0000
0000
,
0000
0000
0000
0000
,
0000
0000
0000
0000
,
0000
0000
0000
0000
,
0000
0000
0000
0000
,
0000
0000
0000
0000
,
0000
0000
0000
0000
,
0000
0000
0000
0000
,
0000
0000
0000
0000
2001
0000
0000
0000
3000
0000
0000
0000
0001
0000
1000
0020
,
0000
0000
0000
0000
0000
0000
0130
0000
0001
0000
0000
0001
0000
0000
2000
0000
,
0000
0000
3200
0000
,
0320
0000
0000
0000
0000
0031
1000
0001
,
0100
0000
0000
0000
2001
0000
0000
0000
3000
0000
0000
0000
0001
0000
1000
0200
,
0000
0000
0000
0000
0000
0000
0310
0000
0001
0000
0000
0001
0000
0000
2000
0000
,
0000
0000
0000
0000
3020
0000
0000
0130
,
0002
0000
0000
1003
0000
0100
0010
0001
,
1000
0000
1020
0000
0130
0001
1000
0100
,
0020
0000
0000
0000
0030
0000
0001
0000
1000
0000
0000
1000
0000
0000
0010
0000
,
0200
0301
2000
3100
,
0020
0000
0031
0000
1000
0001
1000
0010
,
0100
0000
1002
0000
0013
0100
0010
0001
,
2000
0000
0000
0000
3000
0000
0010
0000
0100
0000
0000
0100
0000
0000
0001
0000
,
2000
0000
3100
0000
0020
0000
0031
1000
,
0020
0000
0130
0000
0001
0100
1000
0100
,
0010
1000
0001
0010
0100
1000
0001
0100
,
0020
0000
0000
0000
1030
0000
0001
0000
0010
0000
0000
0010
0000
0000
0001
0000
,
0200
0310
2000
3001
,
0020
0000
0130
0000
1000
0001
0100
0001
,
2000
0000
0000
3100
1000
0001
0100
0010
,
0200
0000
0000
0000
0301
0000
1000
0000
0010
0000
0000
0010
0000
0000
0100
0000
,
0002
0000
0013
0000
0200
0000
1300
0001
,
0020
0000
0000
0000
0000
0031
1000
0010
,
2000
0000
0000
0000
320M
000M
000M
030M
,
0110
0000
0000
0000
1001
0000
0000
0000
1000
0000
0010
0000
0400
0000
0000
0300
,
0001
0000
0000
0000
0000
0000
1000
0000
0000
0010
0000
0000
0000
0000
0000
0100
0000
0000
0000
0000
0000
0001
0000
0000
1000
0000
0000
0000
0000
0000
0000
0000
0000
2000
0000
0000
0M00
0000
00M0
0000
0M00
0000
00M0
0000
0M00
0000
00M0
0000
,
3M01
0000
1000
0000
0100
0000
2000
3000
0001
0000
0200
0300
0010
0000
0200
0300
,
0001
0000
2000
3000
0100
0000
0020
0030
0001
0000
2000
3000
0010
0000
0200
0300
,
0110
0000
0000
0000
1001
0000
0000
0000
1000
00M0
0100
0000
0040
0000
0000
0030
,
0001
0000
1000
0010
0000
0100
0000
0001
1000
0000
0000
0100
0000
0000
0100
0000
,
0010
0000
0200
0300
1000
0000
0002
0003
0100
0000
00M1
0100
0001
0000
2000
3000
,
0100
0000
0020
0030
0001
0000
0020
0030
0001
0000
2000
3000
0020
0030
0200
0300
,
0002
0000
0000
0000
0000
0000
0000
0000
0000
0000
0000
0000
2003
0000
0000
0000
0000
0000
0000
0000
0000
0000
0000
0000
3001
0000
0000
0100
0000
0000
0001
0000
0000
0000
0000
0000
M200
0000
M000
0000
M000
0000
M000
0000
M000
0000
M000
0000
,
0320
0000
0000
0000
1030
0000
0001
0000
0010
0000
0000
0020
0000
0000
0000
0000
,
0130
1000
0001
1000
0010
0100
0001
0100
,
0010
0000
1000
0000
0001
0000
0020
0000
0000
0000
0230
0000
2300
0000
3002
0003
,
1001
0000
0110
0000
1000
0010
0100
0004
,
0013
0000
0000
0000
0100
0000
1000
0000
0001
0000
0000
0001
0000
0000
0001
0000
,
1000
0001
1000
0000
0001
0000
0100
0000
0010
0000
1000
0000
0001
0000
0010
0000
,
0100
0000
1000
0000
0001
0000
0200
0000
0000
0000
0320
0000
2030
0000
3002
0003
,
1001
0000
0000
0000
0000
0000
0000
0000
0000
0000
0000
0000
0110
0000
0000
0000
0000
0000
0000
0000
0000
0000
0000
0000
1000
0000
0000
0100
0000
0000
1000
0000
0000
0000
0000
0000
00M2
0000
00M0
0000
00M0
0000
00M0
0000
00M0
0000
00M0
0000
,
2003
0000
0000
0000
3010
0000
0100
0000
0001
0000
0000
0002
0000
0000
0000
0000
,
1003
0000
0100
0000
0010
0000
0001
1000
0000
0010
1000
0000
0100
0000
1000
0000
,
0000
0000
0010
0000
0100
0000
0001
1000
0000
0100
1000
0000
0100
0000
0010
0000
,
0002
0003
0011
0000
0001
0100
0010
4000
,
3001
0000
0000
0000
0010
0000
0100
0000
1000
0000
0000
1000
0000
0000
0001
0000
,
0200
0300
0200
0300
0200
0300
0200
0302
,
0003
0002
0003
2000
0000
3100
0010
0001
,
1000
0000
0001
1000
0000
1000
0000
0000
0100
0000
0000
0100
0000
00M0
M000
000M
,
0000
0000
1000
0001
0000
0100
0000
0010
M000
M000
0000
M000
0000
000M
0M00
00M0
,
0000
0000
1000
0000
0001
0010
0000
0000
0010
0000
0000
0010
0000
M000
0M00
M000
,
0000
0000
0001
0000
1000
0001
0000
0000
0100
0000
0000
0100
0000
0000
0001
0000
,
0000
0000
1000
0010
0000
0100
0000
0000
0001
0000
0000
0001
0000
M000
0M00
00M0
,
0000
0000
1000
0100
0000
0010
0000
0001
M000
M000
0000
M000
0000
00M0
0M00
000M
,
0000
0000
1000
0000
0010
0100
0000
0000
0100
0000
0000
0100
0000
000M
00M0
0M00
,
0000
0000
0001
0000
0100
0001
0000
0000
1000
0000
0000
1000
0000
0000
0100
0000
,
0010
0000
0002
0000
0000
0000
0000
0000
1003
0000
0000
1000
0001
0000
0100
0000
,
0010
0000
2000
0000
0000
0000
0000
0000
3001
0000
0000
0001
0010
0000
0000
0000
,
0100
2000
0000
0000
3001
0000
0100
0010
,
2000
0000
0000
0000
,
0000
0000
0000
0000
0000
0000
0000
0000
0000
0000
0000
3000
0000
0000
0000
0000
,
0000
0000
0000
000M
0000
0000
0000
0000
0000
0000
0000
0000
0000
0000
0000
0000
;

//---------------dance-single - ----------------
#NOTEDATA:;
#CHARTNAME:;
#STEPSTYPE:dance-single;
#DESCRIPTION:;
#CHARTSTYLE:;
#DIFFICULTY:Medium;
#METER:6;
#RADARVALUES:0.240385,0.279988,0.029012,0.348144,0.137807,232.000000,228.000000,4.000000,48.000000,51.000000,0.000000,2.000000,0.000000,0.000000,0.240385,0.279988,0.029012,0.348144,0.137807,232.000000,228.000000,4.000000,48.000000,51.000000,0.000000,2.000000,0.000000,0.000000;
#CREDIT:Benpai;
#DISPLAYBPM:128.000000;
#NOTES:
0000
0000
0000
0000
,
0000
0000
0000
0000
,
0000
0000
0000
0000
,
0000
0000
0000
0000
,
0000
0000
0000
0000
,
0000
0000
0000
0000
,
0000
0000
0000
0000
,
0000
0000
0000
0000
,
0000
0000
2000
0000
3000
0000
0001
0200
,
0000
0000
0000
0000
0000
0000
0000
0000
0301
0000
0000
0001
0000
0000
2000
0000
,
0000
0000
3200
0000
,
0320
0000
0000
0031
,
0001
0000
0200
0000
0300
0000
0010
2000
,
0000
0000
0000
0000
0000
0000
0000
0000
3001
0000
0000
0001
0000
0000
0020
0000
,
0000
0000
0000
0000
0230
0000
0000
1300
,
0002
0000
0000
1003
,
1000
0002
0103
0020
,
1030
0001
0010
0100
,
1000
0100
1000
0001
,
0100
0010
0100
0001
,
1000
0200
0310
0002
,
1003
0010
0100
0001
,
1000
0100
1000
0001
,
0100
0010
1000
0001
,
0010
0011
1000
1001
,
0001
0100
0010
0010
,
1000
0001
0010
0100
,
0010
0001
1000
0010
,
0100
0101
0001
1001
,
1000
0100
0010
0010
,
0001
0010
0100
1000
,
0020
0000
0000
0130
,
0002
0000
0000
0000
2M03
00M0
0M00
30M0
,
0200
0000
0000
0000
0320
0000
0000
0000
0031
0000
0000
0000
4000
0000
0000
3000
,
0010
0000
0000
0000
0000
0000
0000
0000
0000
0000
0000
0000
0100
0000
0000
0000
0000
0000
0001
0000
0000
0000
0000
0000
1000
0000
0000
0000
0000
0000
0000
0000
0000
2000
0000
0000
0M00
0000
00M0
0000
0M00
0000
00M0
0000
0M00
0000
00M0
0000
,
3M01
0010
0100
1000
,
0001
0100
0001
1000
,
0020
0000
0000
0000
0230
0000
0000
0000
0301
00M0
0000
0000
4000
0000
0000
3000
,
0100
0000
0000
0000
1000
0000
0002
0003
1000
0000
0000
0020
0000
0000
0000
0000
,
1030
0001
0010
0100
,
1000
0000
0010
0000
0100
0000
0010
1000
,
0200
0000
0000
0000
0000
0000
2300
0000
0000
0000
0000
0000
3002
0000
0000
0000
0000
0000
M203
M000
M000
M000
M000
M000
,
0320
0000
0000
0000
2030
0000
0000
0000
3001
0000
0000
0002
0000
0000
0000
0000
,
0013
0100
0010
0001
,
1000
0000
0010
0000
0100
0000
0001
1000
,
0200
2300
3001
0100
,
0010
0000
0000
0000
1000
0000
0001
0000
0010
0000
0000
0020
0000
0000
0000
0000
,
0130
1000
0001
0100
,
0010
0000
1000
0000
0001
0000
0010
0100
,
2000
0000
0000
0000
0000
0000
3002
0000
0000
0000
0000
0000
0103
0000
0000
0000
0000
0000
00M2
00M0
00M0
00M0
00M0
00M0
,
1003
0000
0000
0000
0100
0000
0000
0000
1000
0000
0000
2000
0000
0000
0000
0000
,
3002
0000
0000
0000
0000
0000
0000
0023
,
0000
0000
0000
0031
0000
0001
0000
1000
,
0200
0320
0031
1000
,
0010
0000
0000
0000
0100
0000
0001
0000
1000
0000
0000
2000
0000
0000
0000
0000
,
3100
0000
0100
0000
0100
0000
0100
1000
,
0000
1000
0000
0002
0000
00M0
0M00
00M0
,
1003
0000
0000
0000
0010
0000
0000
0000
0100
0000
0000
0000
0001
00M0
M000
00M0
,
1000
0000
0000
0000
0100
0000
0000
0000
0010
M000
0000
M000
0001
0M00
M000
0M00
,
1000
0000
0000
0000
0001
0000
0000
0000
0100
0000
0000
0000
0010
M000
000M
M000
,
0100
0001
1000
0100
,
0010
0000
0000
0000
0001
0000
0000
0000
1000
0000
0000
0000
0010
0M00
000M
0M00
,
1000
0000
0000
0000
0001
0000
0000
0000
M010
M000
0000
M000
0100
000M
M000
000M
,
0010
0000
0000
0000
0001
0000
0000
0000
1000
0000
0000
0000
0010
000M
0M00
000M
,
1000
0100
0010
0001
,
1000
0002
0000
0000
0103
0000
0010
0000
,
1000
0002
0000
0000
0013
0000
0100
0000
,
1000
0002
0000
0000
1003
0000
0010
0000
,
2000
0000
0000
0000
,
0000
0000
0000
0000
0000
0000
0000
0000
0000
0000
0000
3000
0000
0000
0000
0000
,
0000
0000
0000
000M
0000
0000
0000
0000
0000
0000
0000
0000
0000
0000
0000
0000
;

//---------------dance-single - ----------------
#NOTEDATA:;
#CHARTNAME:;
#STEPSTYPE:dance-single;
#DESCRIPTION:;
#CHARTSTYLE:;
#DIFFICULTY:Easy;
#METER:3;
#RADARVALUES:0.120193,0.151633,0.000000,0.079783,0.000000,116.000000,116.000000,0.000000,11.000000,8.000000,0.000000,0.000000,0.000000,0.000000,0.120193,0.151633,0.000000,0.079783,0.000000,116.000000,116.000000,0.000000,11.000000,8.000000,0.000000,0.000000,0.000000,0.000000;
#CREDIT:Benpai;
#DISPLAYBPM:128.000000;
#NOTES:
0000
0000
0000
0000
,
0000
0000
0000
0000
,
0000
0000
0000
0000
,
0000
0000
0000
0000
,
0000
0000
0000
0000
,
0000
0000
0000
0000
,
0000
0000
0000
0000
,
0000
0000
0000
0000
,
0000
1000
0000
0010
,
0000
0100
0000
0010
,
0000
1000
0000
0001
,
0000
1000
0000
0001
,
0001
0010
0000
0100
,
0000
0010
0000
0001
,
0000
1000
0000
0001
,
0000
0100
0000
0001
,
0001
0000
0010
0000
,
0001
0000
1000
0000
,
0010
0000
0100
0000
,
0001
0000
1000
0000
,
0100
0000
1000
0000
,
0001
0000
1000
0000
,
0010
0000
0100
0000
,
0010
0000
1000
0000
,
0001
0000
0010
0000
,
0001
0000
1000
1000
,
0100
0000
1000
0000
,
0001
0000
0100
0100
,
0001
0000
1000
0000
,
0100
0000
0010
0010
,
0001
0000
1000
0000
,
0020
0000
0000
0030
,
M200
M000
M000
M000
M000
M000
M000
M000
,
0301
0000
1000
0000
,
0001
0000
0010
0000
,
0001
0000
1000
0000
,
0100
0000
1000
0000
,
0001
0000
0100
0000
,
0010
0000
0100
0000
,
0001
0000
1000
0000
,
0100
0000
1000
0000
,
0001
0000
1000
0000
,
0010
0000
0100
0000
,
0001
0000
0010
0000
,
0100
0000
0010
0000
,
0001
0000
1000
0000
,
0010
0000
0100
0000
,
0001
0000
1000
0000
,
0100
0000
1000
0000
,
0001
0000
1000
0000
,
0100
0000
0010
0000
,
0002
0000
0000
0000
0000
0000
0000
2003
,
0000
0000
0000
0000
,
3200
0300
0000
0000
1000
0000
0000
0000
,
0010
0000
0100
0000
,
0002
0000
0000
0000
0000
0000
0000
2003
,
0000
0000
0000
0000
,
3100
0000
0010
0000
,
0100
0000
1000
0000
,
0001
0000
0100
0000
,
0010
0000
0100
0000
,
0001
0000
1000
0000
,
0100
0000
0010
0000
,
0001
0000
1000
0000
,
0010
0000
0100
0000
,
0002
0000
0000
0000
,
2003
0000
0000
0000
,
3020
0000
0000
0000
,
2030
0000
0000
0000
,
0000
0000
0000
0000
0000
0000
0000
0000
0000
0000
0000
3000
0000
0000
0000
0000
;
