#TITLE:Arcana;
#SUBTITLE:;
#ARTIST:Maozon;
#TITLETRANSLIT:;
#SUBTITLETRANSLIT:;
#ARTISTTRANSLIT:;
#GENRE:;
#CREDIT:;
#BANNER:Arcana.png;
#BACKGROUND:Arcana-bg.png;
#LYRICSPATH:;
#CDTITLE:;
#MUSIC:Arcana.ogg;
#OFFSET:0.321000;
#SAMPLESTART:68.496185;
#SAMPLELENGTH:13.426567;
#SELECTABLE:YES;
#BPMS:0.000000=143.000000
;
#STOPS:
;
#BGCHANGES:;
#KEYSOUNDS:;
#ATTACKS:;

//---------------dance-single - ----------------
#NOTES:
     dance-single:
     :
     Hard:
     8:
     0.315971,0.463053,0.142478,0.169617,0.278171,326.000000,305.000000,21.000000,25.000000,0.000000,0.000000,0.315971,0.463053,0.142478,0.169617,0.278171,326.000000,305.000000,21.000000,25.000000,0.000000,0.000000:
// measure 0
0000
0000
0000
0000
,  // measure 1
0000
0000
0000
0000
,  // measure 2
0000
0000
0000
0000
,  // measure 3
0000
0000
0000
0000
,  // measure 4
0000
0000
0000
0000
,  // measure 5
1001
0001
0010
0001
,  // measure 6
1000
0010
0100
0010
,  // measure 7
1000
0001
0010
0001
,  // measure 8
0210
0000
0000
0300
,  // measure 9
1001
0000
0001
0000
0010
0000
0000
0000
0001
0000
0000
1000
0000
0000
0001
0000
,  // measure 10
0000
1000
0100
0020
0000
0000
0000
0000
,  // measure 11
0031
1000
0100
1000
0001
0010
0100
1000
,  // measure 12
0001
1000
0100
1000
0001
0010
0100
1000
,  // measure 13
0001
0000
0000
0100
0000
0010
0100
0010
,  // measure 14
0000
0000
1000
0000
0001
0000
0000
0000
0100
0000
0000
0010
0000
0000
0100
0000
,  // measure 15
0000
0000
0001
0000
0010
0000
0000
0000
0001
0000
0000
1000
0000
0000
0100
0000
,  // measure 16
2000
3010
0002
0013
0200
1300
0200
0301
,  // measure 17
0010
0000
0100
1000
0000
1000
0001
0000
,  // measure 18
1000
0010
0100
0020
0000
0000
0000
0000
,  // measure 19
1030
0001
0010
0001
1000
0100
0010
0001
,  // measure 20
1000
0001
0010
0001
1000
0100
0010
0001
,  // measure 21
1000
0000
0001
0000
0100
0000
0000
0000
0010
0000
0000
1000
0000
0000
0100
0000
,  // measure 22
1000
0000
0001
0000
1000
0000
0000
0000
0010
0000
0000
0010
0000
0000
0100
0000
,  // measure 23
0001
0000
1000
0000
0100
0000
0000
0000
1000
0000
0000
1000
0000
0000
0001
0000
,  // measure 24
0200
0000
0020
0330
,  // measure 25
1001
0000
0000
0000
,  // measure 26
0000
0000
0000
0000
,  // measure 27
0000
0000
1000
0000
0000
0000
0001
0100
0001
0000
0000
1000
0000
0000
0100
0000
,  // measure 28
1000
0000
0000
0010
0000
0000
0100
0000
0001
0000
0000
1000
0000
0000
0100
0000
,  // measure 29
0000
0000
0000
0000
,  // measure 30
0000
0000
0000
0000
,  // measure 31
0020
0031
2000
3100
,  // measure 32
2002
0000
0000
3003
,  // measure 33
0000
1000
0000
0001
0000
0000
0010
0000
0000
0001
0000
1000
0000
0000
0010
0000
,  // measure 34
0000
1000
0000
0001
0000
0000
0010
0000
0000
0000
0100
0010
0000
0010
0100
0000
,  // measure 35
0000
1000
0000
0001
0000
0000
0100
0000
0000
0001
0000
1000
0000
0000
0100
0000
,  // measure 36
0000
1000
0000
0001
0000
0000
0100
0000
0000
0000
0010
0100
0000
0100
0010
0000
,  // measure 37
0000
1000
0000
0010
0000
0000
0100
0000
0000
0001
0000
0010
0000
0000
0100
0000
,  // measure 38
0000
1000
0000
0001
0000
0000
0010
0000
0000
0000
0100
0010
0000
0010
0001
0000
,  // measure 39
0000
1000
0000
0010
0000
0000
0001
0000
0000
0010
0000
1000
0000
0000
0100
0000
,  // measure 40
0110
0000
1001
0000
0000
0120
0000
0030
,  // measure 41
1000
0000
0100
0000
1000
0001
0000
0100
0000
0010
0000
1000
0010
0000
1000
0000
,  // measure 42
0100
0000
0010
0000
0001
0010
0000
0001
0000
0100
0000
0001
0010
0000
0001
0000
,  // measure 43
1000
0000
0001
0000
0010
0001
0000
0100
0000
0010
0000
1000
0010
0000
0100
0000
,  // measure 44
0001
0000
1000
0000
0100
1000
0000
0100
0000
1000
0001
1000
0000
0001
1000
0001
,  // measure 45
0000
0000
1000
0000
0001
0100
0000
0010
0000
1000
0000
0100
1000
0000
0010
0000
,  // measure 46
0100
0000
0001
0000
0010
0001
0000
1000
0000
0100
0000
1000
0001
0000
0010
0000
,  // measure 47
0001
0000
0100
0000
0010
1000
0000
0100
0000
1000
0000
0001
0100
0000
0010
0000
,  // measure 48
1000
0000
0100
0000
0010
0001
0000
0100
0000
0010
0100
0010
0000
0100
0010
1000
,  // measure 49
0002
0010
0010
0013
,  // measure 50
2010
0010
0010
3010
,  // measure 51
0102
0100
0100
0103
,  // measure 52
2100
0100
0100
3100
,  // measure 53
1002
0000
0000
0000
,  // measure 54
0203
0000
0000
0000
,  // measure 55
2300
0000
0000
0000
,  // measure 56
3020
0000
0000
0030
,  // measure 57
1001
0000
0000
0001
0000
0000
0010
0000
0001
0000
0000
0100
0000
0000
0010
0000
,  // measure 58
1010
0000
0000
1000
0000
0000
0100
0000
0010
0000
0000
0100
0000
0000
1000
0000
,  // measure 59
1001
0000
0000
0001
0000
0000
0010
0000
0001
0000
0000
1000
0000
0000
0100
0000
,  // measure 60
0110
0000
0000
0100
0000
0000
1000
0000
0001
0000
0000
0100
0000
0000
0010
0000
,  // measure 61
2010
0100
0100
3100
,  // measure 62
0021
0100
0100
0130
,  // measure 63
0010
1001
0100
1001
,  // measure 64
0120
0000
0000
0000
,  // measure 65
0130
0000
0000
0000
;

//---------------dance-single - ----------------
#NOTES:
     dance-single:
     :
     Medium:
     5:
     0.229709,0.308702,0.156047,0.162832,0.016962,237.000000,214.000000,23.000000,24.000000,0.000000,0.000000,0.229709,0.308702,0.156047,0.162832,0.016962,237.000000,214.000000,23.000000,24.000000,0.000000,0.000000:
// measure 0
0000
0000
0000
0000
,  // measure 1
0000
0000
0000
0000
,  // measure 2
0000
0000
0000
0000
,  // measure 3
0000
0000
0000
0000
,  // measure 4
0000
0000
0000
0000
,  // measure 5
1001
0000
1000
0000
,  // measure 6
0001
0000
0100
0000
,  // measure 7
0010
0000
1000
0000
,  // measure 8
0201
0000
0000
0300
,  // measure 9
0010
1000
0010
0000
0100
0000
0001
0000
,  // measure 10
1000
0001
1000
0020
0000
0000
0000
0000
,  // measure 11
0130
0000
0001
0000
0010
0000
0100
1000
,  // measure 12
0001
0000
0010
0000
0100
0000
1000
0001
,  // measure 13
0010
0000
0000
0001
0000
1000
0001
0100
,  // measure 14
0000
0010
1000
1000
,  // measure 15
0001
0010
0001
0000
0100
0000
0010
0000
,  // measure 16
1001
0101
1001
1100
,  // measure 17
0010
0001
1000
0000
0001
0000
0100
0000
,  // measure 18
0010
1000
0100
2000
0000
0000
0000
0000
,  // measure 19
3001
0000
0010
0000
0100
0000
1000
0100
,  // measure 20
0010
0000
0001
0000
0010
0000
0100
1000
,  // measure 21
0001
1000
0010
1000
,  // measure 22
0100
1000
0001
0010
,  // measure 23
0001
0000
0000
0001
0000
0000
1000
0000
0000
1000
0000
0000
0010
0000
0000
0000
,  // measure 24
0110
0100
1002
0003
,  // measure 25
2100
0000
0000
0000
,  // measure 26
0000
0000
0000
0000
,  // measure 27
3000
0000
0100
0000
0000
0000
1000
0000
0001
0000
0000
0100
0000
0000
0010
0000
,  // measure 28
1000
0000
0000
0001
0000
0000
0010
0000
0100
0000
0000
0010
0000
0000
0001
0000
,  // measure 29
2000
0000
0000
0000
,  // measure 30
0000
0000
0000
3000
,  // measure 31
0002
0103
0020
1030
,  // measure 32
2001
0000
0000
3000
,  // measure 33
0100
1000
0010
0100
,  // measure 34
0001
0010
0001
1000
,  // measure 35
0010
1000
0100
1000
,  // measure 36
0001
0010
0001
1000
,  // measure 37
0010
0100
0001
0010
,  // measure 38
0001
1000
0100
0100
,  // measure 39
2000
3001
0020
0031
,  // measure 40
1100
0000
1100
0000
0000
0011
0000
0000
,  // measure 41
0001
0000
1000
0000
0010
0000
0100
0001
,  // measure 42
0010
0000
1000
0000
0010
0000
0100
0010
,  // measure 43
0001
0000
1000
0000
0100
0000
1000
0010
,  // measure 44
0100
0000
0001
0000
1000
0001
0010
0001
,  // measure 45
0100
0000
0010
0000
1000
0000
0100
1000
,  // measure 46
0001
0000
0100
0000
0001
0000
0010
0100
,  // measure 47
1000
0000
0100
0000
1000
0000
0010
0100
,  // measure 48
0001
0000
1000
0000
0100
0000
0010
0001
,  // measure 49
0200
0010
0000
0010
,  // measure 50
0320
1000
0000
1000
,  // measure 51
2030
0001
0000
0001
,  // measure 52
3002
0100
0000
0103
,  // measure 53
2010
0000
0000
0000
,  // measure 54
0200
0000
0000
3000
,  // measure 55
0020
0000
0000
0300
,  // measure 56
0002
0000
0000
0033
,  // measure 57
1100
1000
0001
0100
,  // measure 58
0101
0001
1000
0010
,  // measure 59
1010
1000
0001
0010
,  // measure 60
0011
0001
1000
0001
,  // measure 61
0102
0100
0100
0103
,  // measure 62
2010
0010
0010
3010
,  // measure 63
1002
0013
2001
3010
,  // measure 64
0210
0000
0000
0000
,  // measure 65
0301
0000
0000
0000
;

//---------------dance-single - ----------------
#NOTES:
     dance-single:
     :
     Easy:
     2:
     0.128909,0.198451,0.094985,0.128909,0.000000,133.000000,119.000000,14.000000,19.000000,0.000000,0.000000,0.128909,0.198451,0.094985,0.128909,0.000000,133.000000,119.000000,14.000000,19.000000,0.000000,0.000000:
// measure 0
0000
0000
0000
0000
,  // measure 1
0000
0000
0000
0000
,  // measure 2
0000
0000
0000
0000
,  // measure 3
0000
0000
0000
0000
,  // measure 4
0000
0000
0000
0000
,  // measure 5
0010
0000
0000
0000
,  // measure 6
1000
0000
0000
0000
,  // measure 7
0001
0000
0000
0000
,  // measure 8
1001
0000
0000
0000
,  // measure 9
0010
0000
1000
0000
,  // measure 10
0001
1000
0200
0000
,  // measure 11
1300
0000
0010
0000
,  // measure 12
0100
0000
0001
0000
,  // measure 13
1000
0000
0001
1000
,  // measure 14
0000
0001
0000
1000
,  // measure 15
0000
0010
0000
1000
,  // measure 16
0001
0100
0010
1000
,  // measure 17
1001
0000
0001
0000
,  // measure 18
1000
0000
0020
0000
,  // measure 19
0130
0001
0010
0001
,  // measure 20
0100
0001
0010
0001
,  // measure 21
1000
0000
1000
0000
,  // measure 22
0001
0000
0001
0100
,  // measure 23
0001
0000
0100
0000
,  // measure 24
0010
1000
0200
0300
,  // measure 25
2000
0000
0000
0000
,  // measure 26
0000
0000
0000
0000
,  // measure 27
3000
0000
0000
0000
,  // measure 28
0000
0000
0000
0000
,  // measure 29
0002
0000
0000
0000
,  // measure 30
0000
0000
0000
0000
,  // measure 31
0200
0000
0000
0303
,  // measure 32
0120
0000
0000
0030
,  // measure 33
1001
0000
1000
0000
,  // measure 34
0001
0000
0100
0000
,  // measure 35
0010
0000
1000
0000
,  // measure 36
0100
0000
1000
0000
,  // measure 37
1001
0000
0001
0000
,  // measure 38
0100
0000
0001
0000
,  // measure 39
1001
0000
1000
0000
,  // measure 40
0100
0000
0100
0000
0000
0100
0000
0000
,  // measure 41
1000
0001
0100
0100
,  // measure 42
0001
1000
0010
0010
,  // measure 43
1000
0001
0100
0100
,  // measure 44
0001
1000
0100
0010
,  // measure 45
0001
0010
0001
0001
,  // measure 46
0010
0100
1000
1000
,  // measure 47
0100
0010
0001
0001
,  // measure 48
0010
0100
1000
0010
,  // measure 49
0200
0000
0000
0300
,  // measure 50
0020
0000
0000
0030
,  // measure 51
2000
0000
0000
3000
,  // measure 52
0002
0000
0000
0003
,  // measure 53
2000
0000
0000
0000
,  // measure 54
0200
0000
0000
3300
,  // measure 55
0020
0000
0000
0000
,  // measure 56
0002
0000
0000
0033
,  // measure 57
1001
0000
0001
0000
,  // measure 58
1010
0000
1000
0000
,  // measure 59
0011
0000
0100
0000
,  // measure 60
1001
0000
0001
0000
,  // measure 61
2010
0000
0000
3000
,  // measure 62
0102
0000
0000
0003
,  // measure 63
1002
0000
0000
0003
,  // measure 64
0120
0000
0000
0000
,  // measure 65
0030
0000
0000
0000
;

//---------------dance-double - ----------------
#NOTES:
     dance-double:
     :
     Challenge:
     8:
     0.317910,0.463053,0.169617,0.149263,0.281563,328.000000,303.000000,25.000000,22.000000,0.000000,0.000000,0.317910,0.463053,0.169617,0.149263,0.281563,328.000000,303.000000,25.000000,22.000000,0.000000,0.000000:
00000000
00000000
00000000
00000000
,
00000000
00000000
00000000
00000000
,
00000000
00000000
00000000
00000000
,
00000000
00000000
00000000
00000000
,
00000000
00000000
00000000
00000000
,
10010000
00010000
00100000
00002000
,
00013000
00000100
00001000
00000020
,
00000130
00000001
00000010
00000000
00000100
00001000
00000010
00000000
,
00002002
00000000
00000000
00003003
,
00000001
00000000
00001000
00000000
00000100
00000000
00000000
00000000
00000010
00000000
00000000
00000010
00000000
00000000
00000001
00000000
,
00000000
00001000
00000100
00020000
00000000
00000000
00000000
00000000
,
00031000
00010000
00100000
01000000
10000000
00010000
01000000
00001000
,
00000000
00010000
00000100
00001000
00000010
00000100
00000001
00000010
,
00000100
00000000
00000010
00000001
00000000
00000001
00001000
00000010
,
00000000
00000000
00001000
00000000
00001000
00000000
00000000
00000000
00000001
00000000
00000000
00001000
00000000
00000000
00000100
00000000
,
00000000
00000000
00010000
00000000
00010000
00000000
00000000
00000000
00001000
00000000
00000000
00100000
00000000
00000000
01000000
00000000
,
11000000
01010000
00101000
00011000
,
00001100
00000000
00000001
00000010
00000000
00000100
00001000
00000000
,
00001000
00000010
00000000
00000020
00000000
00000000
00000000
00000000
,
00000130
00000010
00001000
00000001
00000010
00000100
00001000
00000100
,
00000000
00010000
00001000
00100000
01000000
10000000
00100000
01000000
,
00010000
00000000
10000000
00010000
00000000
00010000
00100000
00000000
,
00100000
01000000
00000000
01000000
10000000
00100000
00000000
01000000
,
00010000
00000000
00000000
00010000
00000000
00000000
00100000
00000000
00000000
00100000
00000000
00000000
01000000
00000000
10000000
00000000
,
00200000
00000000
00000000
00000000
01300000
00010000
00100000
00000000
,
00011000
00000000
00000000
00000000
,
00000000
00000000
00000000
00000000
,
00000000
00000000
00000100
00000000
00000000
00000000
00000010
00000001
00000100
00000000
00000000
00000010
00000000
00000000
00001000
00000000
,
00000100
00000000
00000000
00010000
00000000
00000000
00001000
00000000
01000000
00000000
00000000
00100000
00000000
00000000
10000000
00000000
,
01000000
00000000
00000000
00000000
,
00000000
00000000
00000000
00000000
,
00200000
00000000
00000000
00300000
,
20020000
00000000
00000000
00000000
00000000
00000000
00000000
30030000
,
00000000
10000000
00000000
01000000
00000000
00000000
00100000
00000000
00000000
00010000
00000000
01000000
00000000
00000000
00100000
00000000
,
00000000
01000000
00000000
00010000
00000000
00000000
00100000
00000000
00000000
00000000
00001000
00010000
00000000
00010000
00000100
00000000
,
00000000
00000010
00000000
00000001
00000000
00000000
00000100
00000000
00000000
00000010
00000000
00001000
00000000
00000000
00000100
00000000
,
00000000
00000010
00000000
00000001
00000000
00000000
00000100
00000000
00000000
00000000
00000010
00001000
00000000
00000100
00010000
00000000
,
00000000
00001000
00000000
00010000
00000000
00000000
00000010
00000000
00000000
00010000
00000000
00001000
00000000
00000000
00100000
00000000
,
00000000
00001000
00000000
00010000
00000000
00000000
00000010
00000000
00000000
00000000
00010000
00001000
00000000
00001000
00010000
00000000
,
00000000
00001000
00000000
00010000
00000000
00000000
00000100
00000000
00000000
00010000
00000000
00001000
00000000
00000000
01000000
00000000
,
01010000
00000000
00110000
00000000
00000000
11000000
00000000
00000000
,
10010000
00000000
00010000
00000000
00100000
00010000
00000000
01000000
00000000
00100000
00000000
10000000
01000000
00000000
00100000
00000000
,
00010000
00000000
00100000
00000000
00001000
00010000
00000000
00000100
00000000
00001000
00000000
00000100
00001000
00000000
00000010
00000000
,
00000100
00000000
00000001
00000000
00000010
00000001
00000000
00001000
00000000
00000100
00000000
00001000
00000010
00000000
00000100
00000000
,
00000001
00000000
00001000
00000000
00000100
00001000
00000000
00000100
00000000
00001000
00000100
00010000
00000000
00001000
00100000
00010000
,
00000000
00000000
00100000
00000000
01000000
10000000
00000000
00100000
00000000
01000000
00000000
00010000
00100000
00000000
01000000
00000000
,
00100000
00000000
00001000
00000000
00010000
00000100
00000000
00001000
00000000
00000010
00000000
00001000
00000100
00000000
00000010
00000000
,
00000001
00000000
00000100
00000000
00000010
00001000
00000000
00000010
00000000
00010000
00000000
00001000
01000000
00000000
00100000
00000000
,
10000000
00000000
01000000
00000000
00100000
00010000
00000000
01000000
00000000
00100000
01000000
00010000
00000000
00100000
00001000
00010000
,
00000200
00010000
00001000
00010300
,
00020000
00001000
00001000
00031000
,
00000020
00001000
00010000
00001030
,
00020000
00001000
00001000
00031000
,
21000000
00000000
00000000
00000000
,
30020000
00000000
00000000
00000000
,
00032000
00000000
00000000
00000000
,
00003002
00000000
00000000
00000003
,
00001001
00000000
00000000
00000010
00000000
00000000
00001000
00000000
00000100
00000000
00000000
00000010
00000000
00000000
00000001
00000000
,
00000101
00000000
00000000
00000100
00000000
00000000
00000010
00000000
00010000
00000000
00001000
00100000
00000000
00100000
00010000
00000000
,
01010000
00000000
00000000
01000000
00000000
00000000
00100000
00000000
10000000
00000000
00000000
01000000
00000000
00000000
00100000
00000000
,
01100000
00000000
00000000
01000000
00000000
00000000
10000000
00000000
00010000
00000000
00100000
00001000
00000000
00001000
00010000
00000000
,
00001200
00000010
00000010
00000310
,
00000102
00001000
00001000
00001003
,
00001001
00011000
00001001
00011000
,
00020200
00000000
00000000
00000000
,
00030300
00000000
00000000
00000000
;

//---------------dance-single - ----------------
#NOTES:
     dance-single:
     :
     Beginner:
     1:
     0.070754,0.132301,0.067847,0.000000,0.000000,73.000000,63.000000,10.000000,0.000000,0.000000,0.000000,0.070754,0.132301,0.067847,0.000000,0.000000,73.000000,63.000000,10.000000,0.000000,0.000000,0.000000:
// measure 0
0000
0000
0000
0000
,  // measure 1
0000
0000
0000
0000
,  // measure 2
0000
0000
0000
0000
,  // measure 3
0000
0000
0000
0000
,  // measure 4
0000
0000
0000
0000
,  // measure 5
0010
0000
0000
0000
,  // measure 6
0000
0000
0000
0000
,  // measure 7
0000
0000
0000
0000
,  // measure 8
1001
0000
0000
0000
,  // measure 9
1000
0000
0000
0000
,  // measure 10
1000
0000
0000
0000
,  // measure 11
0010
0000
0000
0000
,  // measure 12
0010
0000
0000
0000
,  // measure 13
0100
0000
0000
0001
,  // measure 14
0000
0000
0000
0000
,  // measure 15
1000
0000
0000
0000
,  // measure 16
0010
0000
0100
0000
,  // measure 17
1001
0000
0000
0000
,  // measure 18
1000
0000
0000
0000
,  // measure 19
0001
0000
0000
0000
,  // measure 20
0001
0000
0000
0000
,  // measure 21
0100
0000
0000
0000
,  // measure 22
0010
0000
0000
0000
,  // measure 23
1000
0000
1000
0000
,  // measure 24
1001
0000
0000
0000
,  // measure 25
0110
0000
0000
0000
,  // measure 26
0000
0000
0000
0000
,  // measure 27
0000
0000
0000
0000
,  // measure 28
0000
0000
0000
0000
,  // measure 29
0010
0000
0000
0000
,  // measure 30
0000
0000
0000
0000
,  // measure 31
0100
0000
0000
0000
,  // measure 32
1001
0000
0000
0000
,  // measure 33
0001
0000
0001
0000
,  // measure 34
0001
0000
0000
0000
,  // measure 35
1000
0000
1000
0000
,  // measure 36
1000
0000
0000
0000
,  // measure 37
0010
0000
0010
0000
,  // measure 38
0010
0000
0000
0000
,  // measure 39
0100
0000
0100
0000
,  // measure 40
0100
0000
0000
0000
,  // measure 41
1000
0000
0000
0000
,  // measure 42
0001
0000
0000
0000
,  // measure 43
0100
0000
0000
0000
,  // measure 44
0001
0000
0010
0000
,  // measure 45
0001
0000
0000
0000
,  // measure 46
1000
0000
0000
0000
,  // measure 47
0010
0000
0000
0000
,  // measure 48
1000
0000
0100
0000
,  // measure 49
1000
0000
0000
0000
,  // measure 50
0100
0000
0000
0000
,  // measure 51
0010
0000
0000
0000
,  // measure 52
0100
0000
0000
0000
,  // measure 53
1001
0000
0000
0000
,  // measure 54
0100
0000
0000
0000
,  // measure 55
0010
0000
0000
0000
,  // measure 56
0001
0000
0000
0000
,  // measure 57
1001
0000
0000
0000
,  // measure 58
0010
0000
0000
0000
,  // measure 59
1000
0000
0000
0000
,  // measure 60
0100
0000
0000
0000
,  // measure 61
1001
0000
0000
0000
,  // measure 62
0001
0000
0000
0000
,  // measure 63
0100
0000
0000
0000
,  // measure 64
0110
0000
0000
0000
,  // measure 65
1001
0000
0000
0000
;
