#TITLE:ALiVE;
#SUBTITLE:;
#ARTIST:REDALiCE;
#TITLETRANSLIT:;
#SUBTITLETRANSLIT:;
#ARTISTTRANSLIT:;
#GENRE:;
#CREDIT:;
#BANNER:bn.png;
#BACKGROUND:bg.png;
#LYRICSPATH:;
#CDTITLE:;
#MUSIC:Alive.ogg;
#OFFSET:-1.402000;
#SAMPLESTART:35.294998;
#SAMPLELENGTH:12.000000;
#SELECTABLE:YES;
#BPMS:0.000000=170.000000
,268.000000=85.000000
,284.000000=170.000000
;
#STOPS:
;
#BGCHANGES:;
#KEYSOUNDS:;
#ATTACKS:;

//---------------dance-single - warpdr!ve----------------
#NOTES:
     dance-single:
     warpdr!ve:
     Challenge:
     11:
     0.738905,1.097987,0.234419,0.650323,0.744847,684.000000,653.000000,31.000000,86.000000,2.000000,0.000000,0.738905,1.097987,0.234419,0.650323,0.744847,684.000000,653.000000,31.000000,86.000000,2.000000,0.000000:
// measure 0
0000
0000
0000
0000
,  // measure 1
0000
0000
0000
0000
,  // measure 2
0000
0000
0000
0000
,  // measure 3
0000
0000
0000
0000
,  // measure 4
1000
1000
0020
0130
0000
0000
0020
0030
,  // measure 5
1000
1000
0002
0013
0000
0000
0002
0003
,  // measure 6
0011
0000
0000
0000
1001
0000
0000
0000
1000
0000
0010
0000
0100
0001
0100
0010
,  // measure 7
0000
0000
2000
0000
0000
3001
0010
0001
0000
1000
0100
0000
0010
0001
0000
1000
,  // measure 8
0010
0000
0100
0000
0000
0100
0000
0001
0100
0000
0010
1000
0000
0001
1000
0100
,  // measure 9
0020
0000
0000
0031
0000
0010
0100
0000
0000
0010
0000
0010
0000
0000
0001
1000
,  // measure 10
0000
0001
0100
0010
0000
0100
0000
0001
0000
0000
1000
0010
0000
0100
0001
0000
,  // measure 11
0000
1000
0100
0010
0000
0100
0010
0001
0000
1000
0100
0010
0002
0000
0000
0000
,  // measure 12
1003
0000
0010
0000
0000
0010
0000
0100
0010
0000
0100
0001
0000
1000
0010
0100
,  // measure 13
0002
0000
0000
1003
0000
0100
1000
0000
0000
0001
0000
0001
0000
0000
1000
0100
,  // measure 14
1000
0000
0001
0000
0100
0000
0010
0000
0100
0000
0001
0000
1000
0100
0010
0001
,  // measure 15
1000
0010
0100
0010
1000
0001
0100
0001
0100
0010
1000
0001
1000
0010
0100
0001
,  // measure 16
2000
0000
0000
0000
,  // measure 17
0000
0000
0000
0000
0000
0000
0000
3000
,  // measure 18
0001
0000
1000
0100
0010
0000
0100
0000
1000
0000
0001
0000
2000
0000
0000
0000
,  // measure 19
3001
0000
0000
0001
0100
0000
0000
0100
0010
0000
1000
0000
0001
0000
0000
0000
,  // measure 20
1000
0000
0100
0000
1000
0000
0100
0000
0020
0000
0000
0032
0000
0000
1003
0000
,  // measure 21
0001
0000
1001
2000
0000
3010
0100
0000
,  // measure 22
0001
1000
0100
1000
0001
0010
0001
0000
,  // measure 23
1000
0000
0000
1000
0010
0000
0000
0010
0100
0000
0001
0000
1000
0000
0000
0000
,  // measure 24
0000
0001
0010
0100
2000
0000
3002
0000
,  // measure 25
0103
0000
0000
0000
0010
0000
1000
0001
0000
0000
1000
0000
0100
0000
0010
0200
,  // measure 26
0000
0000
2300
0000
3000
0001
0100
0020
,  // measure 27
0000
1030
0001
0010
0001
0000
1000
0010
,  // measure 28
0000
0000
1000
0010
0000
1000
0020
0000
,  // measure 29
0230
0000
0000
0000
0301
0000
1000
0000
0000
0000
0100
0000
0010
0000
0001
2000
,  // measure 30
0000
0000
3001
0000
0000
1000
0010
0200
,  // measure 31
0000
0301
1000
0010
1000
0000
0001
0010
,  // measure 32
0000
0000
0001
0010
0000
0001
0020
0000
,  // measure 33
0000
0031
1000
0010
2000
0000
3020
0000
,  // measure 34
0130
0001
0000
1001
0000
1000
0001
0010
,  // measure 35
1000
0000
0010
0000
0000
0000
0011
0000
0000
0000
0001
0000
1000
0000
0010
0100
,  // measure 36
0010
1000
0000
1001
0000
0001
1000
0100
,  // measure 37
0001
0000
0100
0000
0000
0000
2200
0000
0000
3300
1000
0000
0001
0100
0010
0100
,  // measure 38
0001
1000
0000
1001
0000
0001
1000
0100
,  // measure 39
0001
0000
0100
0000
0000
0000
1100
0000
0000
0000
1000
0000
0001
0000
1000
0010
,  // measure 40
0100
0010
0000
1010
0000
1000
0001
0010
,  // measure 41
1000
0000
0010
0000
0000
0000
0022
0000
0000
0033
0001
0000
1000
0010
0100
0001
,  // measure 42
2000
3000
0000
0000
0000
0000
0000
0000
0100
0000
0000
0000
0000
0000
0000
0000
1000
0000
0000
0000
0000
0000
0000
0000
0100
0000
0000
0000
0000
0000
0000
0000
0020
0030
0000
0000
0000
0000
0000
0000
0001
0000
0000
0000
0000
0000
0000
0000
0010
0000
0000
0000
0000
0000
0000
0000
0001
0000
0000
0000
0000
0000
0000
0000
,  // measure 43
2000
3000
0000
0000
0000
0000
0000
0000
0010
0000
0000
0000
0000
0000
0000
0000
1000
0000
0000
0000
0000
0000
0000
0000
0010
0000
0000
0000
0000
0000
0000
0000
0200
0300
0000
0000
0000
0000
0000
0000
0001
0000
0000
0000
0000
0000
0000
0000
0100
0000
0000
0000
0000
0000
0000
0000
0001
0000
0000
0000
1000
0000
0000
0000
,  // measure 44
0002
0003
0000
0000
0000
0000
0000
0000
0010
0000
0000
0000
0000
0000
0000
0000
0001
0000
0000
0000
0000
0000
0000
0000
0010
0000
0000
0000
0000
0000
0000
0000
0200
0300
0000
0000
0000
0000
0000
0000
1000
0000
0000
0000
0000
0000
0000
0000
0100
0000
0000
0000
0000
0000
0000
0000
1000
0000
0000
0000
0000
0000
0000
0000
,  // measure 45
0002
0003
0000
0000
0000
0000
0000
0000
0100
0000
0000
0000
0000
0000
0000
0000
0001
0000
0000
0000
0000
0000
0000
0000
0100
0000
0000
0000
0000
0000
0000
0000
0020
0030
0000
0000
0000
0000
0000
0000
1000
0000
0000
0000
0000
0000
0000
0000
0010
0000
0000
0000
0100
0000
0000
0000
0001
0000
0000
0000
1000
0000
0000
0000
,  // measure 46
0002
0003
0000
0000
0010
0000
0000
0000
0100
0000
0000
0000
1000
0000
0000
0000
0002
0003
0000
0000
0010
0000
0000
0000
0001
0000
0000
0000
1000
0000
0000
0000
0200
0300
0000
0000
0010
0000
0000
0000
0001
0000
0000
0000
1000
0000
0000
0000
0200
0300
0000
0000
1000
0000
0000
0000
0001
0000
0000
0000
1000
0000
0000
0000
,  // measure 47
0020
0030
0000
0000
0100
0000
0000
0000
0001
0000
0000
0000
0100
0000
0000
0000
0020
0030
0000
0000
1000
0000
0000
0000
0001
0000
0000
0000
0100
0000
0000
0000
0002
0003
0000
0000
1000
0000
0000
0000
0010
0000
0000
0000
0100
0000
0000
0000
0020
0030
0000
0000
1000
0000
0000
0000
0001
0000
0000
0000
0100
0000
0000
0000
,  // measure 48
0002
0003
0000
0000
1000
0000
0000
0000
0100
0000
0000
0000
0010
0000
0000
0000
0002
0003
0000
0000
1000
0000
0000
0000
0001
0000
0000
0000
0010
0000
0000
0000
0200
0300
0000
0000
1000
0000
0000
0000
0001
0000
0000
0000
0010
0000
0000
0000
0002
0003
0000
0000
1000
0000
0000
0000
0100
0000
0000
0000
1000
0000
0000
0000
,  // measure 49
0002
0003
0000
0000
0100
0000
0000
0000
0010
0000
0000
0000
1000
0000
0000
0000
0020
0030
0000
0000
0100
0000
0000
0000
0001
0000
0000
0000
0100
0000
0000
0000
0020
0030
0000
0000
1000
0000
0000
0000
0001
0000
0000
0000
0100
0000
0000
0000
0002
0003
0000
0000
1000
0000
0000
0000
0010
0000
0000
0000
0100
0000
0000
0000
,  // measure 50
0002
0000
0000
0000
0000
0003
1001
0000
,  // measure 51
1100
0000
1100
0000
1100
0000
1000
0001
,  // measure 52
0000
1001
1000
0001
0100
1000
0200
0000
,  // measure 53
0301
1000
0001
1000
0020
0000
0000
0000
0130
0001
0100
0001
2000
0000
0000
0000
,  // measure 54
3010
0100
0010
0100
0001
0000
1000
0000
0010
0100
0010
0100
0001
0000
0000
0000
,  // measure 55
1001
0000
1001
0000
1001
1000
0001
0100
,  // measure 56
0000
0101
0001
1000
0100
0001
0200
0000
,  // measure 57
1300
0100
1000
0100
0020
0000
0000
0000
0130
1000
0100
1000
0002
0000
0000
0003
,  // measure 58
1001
0000
0000
0000
0000
0000
1000
0010
0100
0000
0001
0000
1000
0000
0000
0000
,  // measure 59
1100
0000
1100
0000
1100
0000
0100
1000
,  // measure 60
0000
1001
0001
0100
1000
0100
0020
0000
,  // measure 61
1030
0010
1000
0010
0200
0000
0000
0000
0301
1000
0001
1000
0020
0000
0000
0000
,  // measure 62
1030
0001
1000
0001
0100
0000
0010
0000
1000
0001
1000
0001
1000
0000
0000
0000
,  // measure 63
1001
0000
1001
0000
1001
0001
0100
0001
,  // measure 64
0000
1001
1000
0100
0001
0100
0010
0000
,  // measure 65
0001
0010
0001
0010
0200
0000
0000
0000
0310
0001
0010
0001
1000
0010
0100
0001
,  // measure 66
2000
0000
0000
0000
3000
0000
0010
0100
0001
0000
1000
0000
0001
0000
0000
0000
,  // measure 67
10M0
1000
0000
0001
0000
0000
0020
0000
0031
0000
0010
0100
0000
1000
0100
0000
,  // measure 68
0010
0010
0000
0001
0000
0000
2000
0000
3010
0000
0100
0001
0000
0100
0010
0010
,  // measure 69
1000
1000
0000
0001
0000
0000
2000
0000
3100
0000
0010
0001
0000
0010
0100
0000
,  // measure 70
1000
0000
1000
0000
0000
0000
0001
0000
0000
0000
0000
0000
2000
0000
0000
0000
3010
0000
0100
0000
0001
1000
0001
1000
0010
0000
0100
0000
0001
0000
0000
0000
,  // measure 71
10M0
1000
0200
0310
0000
0000
0200
0300
,  // measure 72
1000
1000
0002
0103
0000
0000
0002
0003
,  // measure 73
1000
1000
0200
0310
0000
0000
0200
0300
,  // measure 74
1000
0000
1000
0000
0002
0000
0103
0000
0000
0000
0000
0000
0002
0000
1003
0100
,  // measure 75
0010
0010
0002
1003
0000
0000
0002
0003
,  // measure 76
1000
1000
0020
0130
0000
0000
0020
0030
,  // measure 77
1010
0000
0000
0000
1001
0000
0000
0000
1000
0000
0001
0000
1000
0100
0010
0001
,  // measure 78
0000
0000
2000
0000
0000
3001
0100
0001
0000
1000
0010
0000
0100
0001
0000
1000
,  // measure 79
0100
0000
0010
0000
0000
0010
0000
0001
0010
0000
0001
1000
0000
0001
1000
0010
,  // measure 80
0200
0000
0000
0301
0000
1000
0100
0000
0000
0010
0000
0010
0000
0000
0001
1000
,  // measure 81
0000
0010
0100
0010
0000
1000
0000
0001
0000
0000
1000
0100
0000
0010
0001
0000
,  // measure 82
0000
1000
0010
0100
0000
0010
0100
0001
0000
1000
0010
0100
0002
0000
0000
0000
,  // measure 83
1003
0000
0100
0000
0000
0100
0000
0010
0100
0000
1000
0001
0000
1000
0100
0010
,  // measure 84
0002
0000
0000
1003
0000
0010
1000
0000
0000
0001
0000
0001
0000
0000
1000
0010
,  // measure 85
1000
0000
0001
0000
0010
0000
0100
0000
0010
0000
0001
0000
1000
0010
0100
0001
,  // measure 86
1000
0100
0010
0001
1000
0010
0100
0001
0100
0010
1000
0001
1000
0100
0010
0001
,  // measure 87
2000
0000
0000
0000
,  // measure 88
3000
0000
0000
0000
;

//---------------dance-single - warpdr!ve----------------
#NOTES:
     dance-single:
     :
     Hard:
     9:
     0.586587,0.731991,0.257104,0.521771,0.306257,543.000000,509.000000,34.000000,69.000000,2.000000,0.000000,0.586587,0.731991,0.257104,0.521771,0.306257,543.000000,509.000000,34.000000,69.000000,2.000000,0.000000:
// measure 0
0000
0000
0000
0000
,  // measure 1
0000
0000
0000
0000
,  // measure 2
0000
0000
0000
0000
,  // measure 3
0000
0000
0000
0000
,  // measure 4
1000
0010
0200
0301
0000
0000
0200
0300
,  // measure 5
0001
1000
0200
0310
0000
0000
0200
0300
,  // measure 6
1100
0000
0000
0000
1001
0000
0000
0000
1000
0000
0010
0000
0100
0001
0100
0010
,  // measure 7
0000
0000
2000
0000
0000
3001
0010
0001
0000
1000
0100
0000
0010
0001
0000
1000
,  // measure 8
0010
0000
0100
0000
0000
0100
0000
0000
0100
0000
0000
0010
0000
0000
1000
0000
,  // measure 9
0002
0000
0000
0013
0000
0000
0010
0000
0000
0100
0000
0100
0000
0000
1000
0000
,  // measure 10
0001
0000
0100
0010
0000
0100
0000
0001
0000
0000
1000
0000
0000
1000
0000
0000
,  // measure 11
0000
0100
0010
0000
0000
0010
0001
0000
0000
0001
1000
0000
0020
0000
0000
0000
,  // measure 12
1030
0000
0001
0000
0000
0001
0000
0000
0001
0000
0000
0010
0000
0000
0001
0000
,  // measure 13
2000
0000
0000
3010
0000
0000
0010
0000
0000
0100
0000
0100
0000
0000
0001
1000
,  // measure 14
0001
0010
0100
1000
0001
0010
0100
1000
,  // measure 15
0002
0000
0000
0000
0003
0000
1000
0010
0100
0000
0010
0000
0010
0000
0000
0000
,  // measure 16
2000
0000
0000
0000
,  // measure 17
0000
0000
0000
0000
,  // measure 18
3001
0000
1000
0100
0010
0000
0001
0000
1000
0000
0100
0000
2000
0000
0000
0000
,  // measure 19
3001
0000
0000
0001
0100
0000
0000
0100
0001
0000
1000
0000
0001
0000
0000
0000
,  // measure 20
1000
0000
0100
0000
1000
0000
0100
0000
0020
0000
0000
0032
0000
0000
1003
0000
,  // measure 21
0001
0000
1001
2000
0000
3001
0100
0000
,  // measure 22
0001
1000
0100
0010
0001
1000
0001
0000
,  // measure 23
1000
0000
0000
1000
0010
0000
0000
0010
1000
0000
0001
0000
1000
0000
0000
0000
,  // measure 24
0000
0001
0010
0001
2000
0000
3002
0000
,  // measure 25
0103
0000
0000
0000
0010
0000
0100
0001
0000
0000
1000
0000
0001
0000
0010
0200
,  // measure 26
0000
0000
2300
0000
3000
0001
1000
0020
,  // measure 27
0000
1030
0001
0010
0001
0000
1000
0010
,  // measure 28
0000
0000
1000
0010
0000
1000
0020
0000
,  // measure 29
0230
0000
0000
0000
0301
0000
1000
0000
0000
0000
0100
0000
0010
0000
0100
2000
,  // measure 30
0000
0000
3001
0000
0000
1000
0010
0200
,  // measure 31
0000
0310
1000
0001
1000
0000
0001
0010
,  // measure 32
0000
0000
0001
0010
0000
0001
0020
0000
,  // measure 33
0000
0031
1000
0010
2000
0000
3020
0000
,  // measure 34
0130
0001
0000
1001
0000
1000
0100
1000
,  // measure 35
0001
0010
0000
0011
0000
0001
1000
0010
,  // measure 36
0010
1000
0000
1001
0000
0001
1000
0100
,  // measure 37
0010
0000
0001
0000
0000
0000
2002
0000
0000
3003
1000
0000
0010
0000
0001
0000
,  // measure 38
0010
1000
0000
1001
0000
0001
1000
0100
,  // measure 39
0010
0100
0000
1100
0000
1000
0001
1000
,  // measure 40
1000
0010
0000
1010
0000
1000
0001
0010
,  // measure 41
0100
0000
0010
0000
0000
0000
0022
0000
0000
0033
0001
0000
0010
0000
1000
0000
,  // measure 42
0020
0030
0000
0000
0000
0000
0000
0000
0001
0000
0000
0000
0000
0000
0000
0000
0010
0000
0000
0000
0000
0000
0000
0000
0001
0000
0000
0000
0000
0000
0000
0000
2000
3000
0000
0000
0000
0000
0000
0000
0010
0000
0000
0000
0000
0000
0000
0000
1000
0000
0000
0000
0000
0000
0000
0000
0010
0000
0000
0000
0000
0000
0000
0000
,  // measure 43
0200
0300
0000
0000
0000
0000
0000
0000
0001
0000
0000
0000
0000
0000
0000
0000
0100
0000
0000
0000
0000
0000
0000
0000
0001
0000
0000
0000
0000
0000
0000
0000
2000
3000
0000
0000
0000
0000
0000
0000
0100
0000
0000
0000
0000
0000
0000
0000
1000
0000
0000
0000
0000
0000
0000
0000
0100
0000
0000
0000
0000
0000
0000
0000
,  // measure 44
0020
0030
0000
0000
0000
0000
0000
0000
0001
0000
0000
0000
0000
0000
0000
0000
0010
0000
0000
0000
0000
0000
0000
0000
0001
0000
0000
0000
0000
0000
0000
0000
2000
3000
0000
0000
0000
0000
0000
0000
0010
0000
0000
0000
0000
0000
0000
0000
1000
0000
0000
0000
0000
0000
0000
0000
0010
0000
0000
0000
0000
0000
0000
0000
,  // measure 45
0200
0300
0000
0000
0000
0000
0000
0000
0001
0000
0000
0000
0000
0000
0000
0000
0100
0000
0000
0000
0000
0000
0000
0000
0001
0000
0000
0000
0000
0000
0000
0000
2000
3000
0000
0000
0000
0000
0000
0000
0100
0000
0000
0000
0000
0000
0000
0000
0001
0000
0000
0000
0000
0000
0000
0000
0100
0000
0000
0000
0000
0000
0000
0000
,  // measure 46
1100
1100
1100
1100
,  // measure 47
1001
1001
1001
1001
,  // measure 48
0101
0101
0101
0101
,  // measure 49
1001
1001
1001
1001
,  // measure 50
2000
0000
0000
0000
0000
3000
1001
0000
,  // measure 51
0001
0000
0001
0000
0001
0000
0001
0010
,  // measure 52
0000
1100
1000
0001
0100
0010
0100
0000
,  // measure 53
0010
0010
2000
0000
3010
0010
0002
0000
,  // measure 54
0013
0010
1000
0001
0100
0100
0001
0000
,  // measure 55
1000
0000
1000
0000
1000
0010
1000
0010
,  // measure 56
0000
0101
0001
1000
0100
0010
0001
0000
,  // measure 57
0010
0010
0002
0000
0013
0010
2000
0000
,  // measure 58
3010
0000
0000
0000
0000
0000
0001
0010
0001
0000
1000
0000
1000
0000
0000
0000
,  // measure 59
0100
0000
0100
0000
0100
0000
0100
1000
,  // measure 60
0000
0011
0010
0001
1000
0010
0100
0000
,  // measure 61
0010
0010
2000
0000
3010
0010
0002
0000
,  // measure 62
0013
0010
1000
0001
0100
0100
0001
0000
,  // measure 63
1000
0000
1000
0000
1000
0010
1000
0010
,  // measure 64
0000
0101
0001
1000
0100
0010
0001
0000
,  // measure 65
0010
0010
0002
0000
0013
0010
2000
0000
,  // measure 66
3010
0000
0000
0000
0000
0000
0001
1000
0001
0000
0010
0000
0100
0000
0000
0000
,  // measure 67
10M0
1000
0000
0001
0000
0000
0200
0000
0301
0000
0100
0010
0000
1000
0010
0000
,  // measure 68
0100
0100
0000
0001
0000
0000
2000
0000
3100
0000
0010
0001
0000
1000
0001
0001
,  // measure 69
1000
1000
0000
0001
0000
0000
2000
0000
3010
0000
0100
0001
0000
1000
0010
0000
,  // measure 70
1000
1000
0000
0001
0000
0000
2000
0000
3100
0010
0001
1000
0100
0010
0001
0000
,  // measure 71
10M0
0001
0200
0301
0000
0000
0200
0300
,  // measure 72
0001
1000
0200
1300
0000
0000
0200
0300
,  // measure 73
1000
0001
0200
0310
0000
0000
0200
0300
,  // measure 74
0001
1000
0002
0013
0000
0000
0002
0003
,  // measure 75
1000
0010
0200
0310
0000
0000
0200
0300
,  // measure 76
0001
1000
0200
0310
0000
0000
0200
0300
,  // measure 77
1100
0000
0000
0000
1001
0000
0000
0000
1000
0000
0010
0000
0100
0001
1000
0010
,  // measure 78
0000
0000
2000
0000
0000
3001
0010
0001
0000
1000
0100
0000
0010
0100
0000
1000
,  // measure 79
0001
0000
1000
0000
0000
1000
0000
0000
1000
0000
0000
0001
0000
0000
1000
0000
,  // measure 80
0002
0000
0000
0013
0000
0000
0010
0000
0000
0001
0000
0001
0000
0000
1000
0000
,  // measure 81
0001
0000
0100
0010
0000
1000
0000
0010
0000
0000
1000
0000
0000
1000
0000
0000
,  // measure 82
0000
0001
0010
0000
0000
0010
0001
0000
0000
0001
1000
0000
0020
0000
0000
0000
,  // measure 83
1030
0000
0001
0000
0000
0001
0000
0000
0001
0000
0000
0010
0000
0000
0100
0000
,  // measure 84
2000
0000
0000
3001
0000
0000
0001
0000
0000
0100
0000
0100
0000
0000
0001
1000
,  // measure 85
0001
0010
0100
1000
0001
0010
0100
1000
,  // measure 86
0002
0000
0000
0000
0003
0000
1000
0001
0100
0000
0010
0000
0010
0000
0000
0000
,  // measure 87
2000
0000
0000
0000
,  // measure 88
3000
0000
0000
0000
;

//---------------dance-single - ----------------
#NOTES:
     dance-single:
     :
     Easy:
     4:
     0.241981,0.332723,0.045371,0.075619,0.000000,224.000000,218.000000,6.000000,10.000000,0.000000,0.000000,0.241981,0.332723,0.045371,0.075619,0.000000,224.000000,218.000000,6.000000,10.000000,0.000000,0.000000:
0000
0000
0000
0000
,
0000
0000
0000
0000
,
0000
0000
0000
0000
,
0000
0000
0000
0000
,
0000
0100
0000
0100
,
0000
0010
0000
0010
,
0000
0001
0000
0001
,
2000
0000
0000
0000
,
3010
0100
0010
0000
,
1000
0010
1000
0000
,
0001
0010
0001
0000
,
1000
0100
1000
0000
,
0001
1000
0001
0000
,
1000
0010
1000
0000
,
0001
0100
0001
0000
,
2000
0000
3200
0000
,
2300
0000
0000
0000
,
0000
0000
0000
0000
,
3001
0010
0100
1000
,
0001
1000
0010
0100
,
0001
0000
1000
0000
,
0100
0000
1000
0000
,
0001
1000
0010
1000
,
0001
1000
0100
0010
,
0001
0000
1000
0000
,
0010
0000
0100
0000
,
0001
1000
0000
1000
,
0010
0100
0000
0100
,
0001
1000
0000
1000
,
0001
0010
0000
0010
,
0001
1000
0000
1000
,
0001
0100
0000
0100
,
0010
1000
0000
1000
,
0002
0000
0000
0000
,
0013
0000
0000
0010
0000
0000
0000
0000
,
0100
0000
0000
0100
0000
0000
0000
0000
,
1000
0000
0000
1000
0000
0000
0000
0000
,
0001
0000
0000
0001
0000
0000
0000
0000
,
1000
0000
0000
1000
0000
0000
0000
0000
,
0010
0000
0000
0010
0000
0000
0000
0000
,
0100
0000
0000
0100
0000
0000
0000
0000
,
0001
0000
0000
0001
0000
0000
0000
0000
,
1000
1000
1000
1000
,
0100
0100
0100
0100
,
0010
0010
0010
0010
,
0001
0001
0001
0001
,
1000
0010
0100
0001
,
1000
0100
0010
0001
,
1000
0010
0100
0001
,
1000
0100
0010
0001
,
2000
0000
3000
1001
,
0001
0001
0001
0010
,
0000
0110
0000
0000
0010
0000
0001
0000
,
1000
0000
0010
0000
,
0100
0000
0001
0000
,
1000
1000
1000
0100
,
0000
0110
0000
0000
0100
0000
1000
0000
,
0001
0000
0100
0000
,
0010
0000
1000
0000
,
0001
0001
0001
0010
,
0000
0011
0000
0000
0010
0000
0100
0000
,
1000
0000
0001
0000
,
0100
0000
0010
0000
,
1000
1000
1000
0100
,
0000
1100
0000
0000
0100
0000
1000
0000
,
0001
0000
0100
0000
,
0010
0000
1000
0000
,
0001
0000
0010
0000
,
0100
0000
1000
0000
,
0001
0000
1000
0000
,
0010
0000
0100
0000
,
0000
0001
0000
0001
,
0000
1000
0000
1000
,
0000
0001
0000
0001
,
0000
1000
0000
1000
,
0000
0100
0000
0100
,
0000
0010
0000
0010
,
0000
0100
0000
0100
,
2000
0000
0000
0000
,
3001
0100
0001
0000
,
1000
1001
1000
0000
,
0001
0010
0001
0000
,
1000
0001
1000
0000
,
0100
1000
0100
0000
,
1000
0001
1000
0000
,
0001
0100
0001
0000
,
2000
0000
3200
0000
,
2300
0000
0000
0000
,
3000
0000
0000
0000
;

//---------------dance-single - ----------------
#NOTES:
     dance-single:
     :
     Medium:
     7:
     0.416984,0.565630,0.196609,0.181485,0.026467,386.000000,360.000000,26.000000,24.000000,0.000000,0.000000,0.416984,0.565630,0.196609,0.181485,0.026467,386.000000,360.000000,26.000000,24.000000,0.000000,0.000000:
0000
0000
0000
0000
,
0000
0000
0000
0000
,
0000
0000
0000
0000
,
0000
0000
0000
0000
,
0000
1100
0000
1100
,
0000
0011
0000
0011
,
0001
0000
1000
0000
0010
0100
0010
1000
,
2002
0000
0000
3003
,
0001
0000
0010
0000
0100
0000
1000
0001
,
1000
0000
0010
0000
0100
0000
0010
1000
,
0010
0000
1000
0000
0001
0000
0010
0100
,
0010
0001
1000
0020
,
0130
0000
0001
0000
1000
0000
0001
0010
,
0001
0000
1000
0000
0100
0000
0010
0001
,
0010
0000
0001
0000
1000
0000
0010
0100
,
0020
0000
2030
3002
,
0023
0000
0000
0000
,
0000
0000
0000
0000
,
0031
0010
0100
1000
0001
1000
0100
0000
,
1000
0000
0001
0000
0100
0010
0100
0000
,
0001
0000
1000
0000
0002
0000
0000
0013
,
0000
0011
0000
0000
,
0001
1000
0010
1000
0001
0100
0010
0000
,
1000
0000
0001
0000
1000
0100
0010
0000
,
0000
0001
1000
0010
0200
0000
0302
0000
,
1003
0000
0000
0100
0000
0010
0001
1000
,
0001
0000
1000
0000
0000
0010
0100
0000
,
0001
0000
1000
0000
0000
0001
0010
0000
,
0100
0000
0010
0000
0000
0001
1000
0000
,
0010
0000
0100
0000
0000
0010
1000
0000
,
0001
0000
0010
0000
0000
0100
1000
0000
,
0001
0000
1000
0000
0000
0010
0100
0000
,
0010
0000
1000
0000
0000
0010
0100
0000
,
0002
0000
0000
0000
,
1003
0100
0000
0010
0000
0100
1000
0000
,
0001
0100
0000
0010
0000
0100
0001
0000
,
1000
0100
0000
0010
0000
0100
1000
0000
,
0001
0100
0000
0001
0000
0100
0001
0000
,
1000
0001
0000
1000
0000
0001
1000
0000
,
0100
0010
0000
0100
0000
0010
0100
0000
,
1000
0001
0000
0100
0000
0001
1000
0000
,
0001
0010
0000
0100
0000
0010
0001
0000
,
1000
1000
1000
1000
,
0010
0010
0010
0010
,
0100
0100
0100
0100
,
0001
0001
0001
0001
,
1000
0100
0010
0000
0010
0100
1000
0000
,
0001
0100
0010
0000
0010
0100
0001
0000
,
1000
0100
0010
0001
1000
0100
0010
0001
,
1000
0010
0100
0001
1000
0010
0100
0001
,
2000
0000
0000
0000
0000
3000
1001
0000
,
0001
0000
0001
0000
0001
0000
0001
0010
,
0000
0011
0000
0010
0001
0000
1000
0000
,
0010
0100
0010
0000
0100
0001
0100
0000
,
0010
1000
0010
0000
0100
0001
1000
0000
,
0100
0000
0100
0000
0100
0000
0100
0010
,
0000
0110
0000
0010
0100
0000
1000
0000
,
0001
0100
0001
0000
1000
0010
1000
0000
,
2002
0000
0000
3003
0001
0000
1000
0000
,
0001
0000
0001
0000
0001
0000
0001
0100
,
0000
0101
0000
0100
0001
0000
1000
0000
,
0001
1000
0001
0000
0010
0100
0010
0000
,
0001
1000
0001
0000
0100
0010
0100
0000
,
0010
0000
0010
0000
0010
0000
0010
1000
,
0000
1010
0000
1000
0010
0000
0100
0000
,
0001
1000
0001
0000
1000
0100
1000
0000
,
2002
0000
0000
3003
0001
0000
1000
0000
,
0001
0000
0000
0010
0000
0000
0100
0000
1000
0000
0000
0001
0000
0000
0100
0000
,
0010
0000
0000
0100
0000
0000
0001
0000
1000
0000
0000
0100
0000
0000
0010
0000
,
0001
0000
0000
1000
0000
0000
0010
0000
0100
0000
0000
0010
0000
0000
1000
0000
,
0001
0000
0000
0010
0000
0000
0100
0000
2000
0000
0000
0000
0000
0000
0000
0000
,
3000
1001
0000
1001
,
0000
0101
0000
0101
,
0000
1010
0000
1010
,
0000
1001
0000
1001
,
0000
1100
0000
1100
,
0000
0011
0000
0011
,
0001
0000
1000
0000
0010
0100
0001
1000
,
2002
0000
0000
3003
,
0001
0000
0010
0000
0001
0000
1000
0100
,
1000
0000
0001
0000
0100
0000
0010
1000
,
0010
0000
0100
0000
0001
0000
1000
0100
,
1000
0100
0010
0002
,
1003
0000
0010
0000
1000
0000
0001
0100
,
0001
0000
1000
0000
0100
0000
0010
0001
,
0010
0000
0001
0000
1000
0000
0001
0100
,
0002
0000
2003
3002
,
0023
0000
0000
0000
,
0030
0000
0000
0000
;
