#TITLE:We're going to be friends;
#SUBTITLE:;
#ARTIST:Jack Johnson;
#TITLETRANSLIT:;
#SUBTITLETRANSLIT:;
#ARTISTTRANSLIT:;
#GENRE:;
#CREDIT:;
#BANNER:We're going to be friends.png;
#BACKGROUND:We're going to be friends-bg.png;
#LYRICSPATH:;
#CDTITLE:;
#MUSIC:Jack Johnson - Were Going To Be Friends (cover).mp3;
#OFFSET:0.000000;
#SAMPLESTART:30.309278;
#SAMPLELENGTH:9.278349;
#SELECTABLE:YES;
#BPMS:0.000000=97.000000
;
#STOPS:
;
#BGCHANGES:;
#KEYSOUNDS:;
#ATTACKS:;

//---------------dance-single - ----------------
#NOTES:
     dance-single:
     :
     Beginner:
     1:
     0.076242,0.114131,0.000000,0.000000,0.000000,74.000000,74.000000,0.000000,0.000000,0.000000,0.000000,0.076242,0.114131,0.000000,0.000000,0.000000,74.000000,74.000000,0.000000,0.000000,0.000000,0.000000:
0000
0000
0000
0000
,
0000
0000
0000
0000
,
0000
0000
0000
0000
,
0000
0000
0000
0000
,
1000
0000
0000
0010
,
0000
0000
0000
0001
,
0000
0000
0000
1000
,
0000
0000
0000
0010
,
0010
0010
1000
0000
,
0000
0000
0100
0100
,
0100
0000
0001
0000
,
0000
0000
0000
0000
,
0000
0010
0000
1000
,
0000
0100
0001
0000
,
1000
0000
0010
0000
,
0100
0000
0001
0000
,
1000
0000
0000
0010
,
0000
0000
0000
0100
,
0000
0000
0001
0000
,
0000
0000
0000
0000
,
0000
0000
1000
0000
,
0010
0000
1000
0001
,
0000
1000
0000
0010
,
0000
0100
0000
0001
,
0000
1000
0000
0000
,
0010
0000
0000
0000
,
0100
0000
0000
0001
,
0000
0000
0000
0000
,
0000
0000
0000
0010
,
0000
1000
0000
0001
,
0000
1000
0000
0010
,
0000
0100
0001
0000
,
1000
0000
0010
0000
,
0000
0100
0000
0000
,
0000
0100
0000
0000
,
0010
0000
0000
0000
,
0000
0000
0000
0000
,
1000
0000
0000
0000
,
0001
0000
0000
0010
,
0000
0000
0000
0100
,
0000
0000
0000
1000
,
0000
0000
0001
0000
,
0000
0000
1000
0000
,
0000
0000
0010
0000
,
0000
0000
1000
0001
,
0000
0010
0000
0100
,
0000
1000
0000
0100
,
0000
1000
0001
0000
,
0010
0000
0000
0000
,
0100
0000
0000
0000
,
1000
1000
1000
0001
,
0000
0000
0000
0010
,
0010
0010
0000
1000
;

//---------------dance-single - ----------------
#NOTES:
     dance-single:
     :
     Easy:
     2:
     0.095817,0.171196,0.000000,0.036060,0.000000,93.000000,93.000000,0.000000,5.000000,0.000000,0.000000,0.095817,0.171196,0.000000,0.036060,0.000000,93.000000,93.000000,0.000000,5.000000,0.000000,0.000000:
0000
0000
0000
0000
,
0000
0000
0000
0000
,
0000
0000
0000
0000
,
0000
0000
0000
0000
,
1000
1000
0000
0000
,
0010
0010
0000
0001
,
0001
0000
0000
1000
,
1000
0000
0000
0010
,
0010
0010
1000
0000
,
0000
0000
0100
0100
,
0100
0000
0001
0000
,
0000
0000
0000
0000
,
0000
0010
0000
1000
,
0000
0100
0001
0000
,
1000
0000
0010
0000
,
0100
0000
0001
0000
,
1000
0000
0000
0010
,
0000
0000
0000
0100
,
0000
0000
0001
0000
,
0000
0000
0000
0000
,
0000
0000
1000
0000
,
0010
0000
1000
0001
,
0000
1000
0000
0010
,
0000
0100
0000
0001
,
0000
1000
0000
0000
,
0010
0000
0000
0000
,
0100
0000
0000
0001
,
0000
0000
0000
0000
,
0000
0000
0000
0010
,
0010
1000
1000
0001
,
0001
1000
0010
0010
,
0100
0100
0001
0001
,
1000
0100
0020
0000
,
0000
0130
0000
0000
,
0000
0200
0000
0000
,
0310
0000
0000
0000
,
0000
0000
0000
0000
,
2000
0000
0000
0000
,
3001
0000
0000
0020
,
0000
0000
0000
0130
,
0000
0000
0000
1000
,
1000
0000
0001
0000
,
0000
0000
1000
0100
,
1000
0000
0001
0010
,
0000
0001
0001
0000
,
0000
0010
0010
0100
,
0100
1000
0001
0100
,
0000
1000
0010
0010
,
2000
0000
0000
0000
,
3001
0000
0000
0000
,
1000
1000
1000
0001
,
0000
0000
0000
0010
,
0010
0010
0000
1000
;

//---------------dance-single - ----------------
#NOTES:
     dance-single:
     :
     Medium:
     3:
     0.163816,0.265674,0.000000,0.108181,0.000000,159.000000,159.000000,0.000000,15.000000,0.000000,0.000000,0.163816,0.265674,0.000000,0.108181,0.000000,159.000000,159.000000,0.000000,15.000000,0.000000,0.000000:
0000
0000
0000
0000
,
0000
0000
0000
0000
,
0000
0000
0000
0000
,
0000
0000
0000
0000
,
1000
0000
0000
0010
0000
0000
0000
0001
,
1000
0001
0000
0010
0100
0000
0001
1000
,
0010
0000
0100
0010
0001
0000
1000
0100
,
0010
0000
1000
0100
0000
0010
0001
0010
,
0001
0010
0001
0010
0001
1000
0000
0000
,
0000
0000
0000
0000
0010
0100
0010
0100
,
0010
0100
0010
0001
0000
0000
0000
0000
,
0000
0000
0000
0000
,
0000
1000
0000
0010
,
0000
0001
1000
0001
0000
0010
0100
0010
,
0000
1000
0001
0100
0010
0001
1000
0000
,
0100
0010
0001
0000
1000
0100
0010
0000
,
0002
1000
0100
0020
,
0000
0033
0000
0000
0000
0000
0020
0000
,
1000
0000
0100
1000
0200
0000
0000
0000
,
0330
0000
0000
0000
,
0000
0000
0000
0000
0010
0000
0000
1000
,
0000
0000
0000
0001
1000
0001
0000
0010
,
0000
0000
0000
0100
0000
0000
0001
0000
,
0000
0000
1000
0001
1000
0000
0010
0100
,
0010
0002
0000
0000
0000
0000
0000
1003
,
0000
0000
0000
0000
,
2000
0000
0000
0000
0000
3000
0001
0000
,
0000
0000
0000
0000
,
0000
0000
0000
0010
,
0000
0000
0100
0000
0000
0001
1000
0001
,
0000
0010
0100
0000
0000
0010
1000
0001
,
0100
0010
0100
0000
0001
1000
0100
0000
,
0010
0100
0000
0002
0000
0000
0000
0000
,
0003
1000
0000
0000
0000
0000
0000
0000
,
0000
0000
0020
0000
0000
0000
0000
0030
,
0100
0000
0000
0000
,
0000
0000
0000
0000
,
0020
0000
0000
1030
,
0000
0000
0000
0002
,
0000
0000
0000
0103
,
0000
0000
0000
0000
0000
0010
0100
0001
,
1000
0100
0010
2000
0000
0000
0000
3000
,
0000
0000
0020
1000
,
0001
0000
1000
0030
0002
0000
0100
0000
,
0010
1003
0000
0010
,
0000
0000
1000
0001
1000
0000
0010
0100
,
0010
0000
0001
0000
0000
1000
0000
0000
,
0000
0010
0100
0010
0000
1000
0001
1000
,
0020
0000
1000
0000
0001
0000
1000
0230
,
0000
0300
0000
0000
0000
0000
0000
0000
,
0100
1000
0100
1000
0100
1000
0100
1000
,
0000
0000
0000
0000
0000
0000
0001
1000
,
0001
1000
0001
1000
0001
1000
0000
0000
;

//---------------dance-single - ----------------
#NOTES:
     dance-single:
     :
     Hard:
     6:
     0.278179,0.363126,0.115393,0.252421,0.219967,270.000000,254.000000,16.000000,35.000000,0.000000,0.000000,0.278179,0.363126,0.115393,0.252421,0.219967,270.000000,254.000000,16.000000,35.000000,0.000000,0.000000:
// measure 0
0000
0000
0000
0000
,  // measure 1
0000
0000
0000
0000
,  // measure 2
0000
0000
0000
0000
,  // measure 3
0000
0000
0000
0000
,  // measure 4
1000
0010
0200
0000
0000
0000
0301
0010
0100
0000
0000
0000
1000
0000
0100
0000
,  // measure 5
1000
0000
0010
0000
0001
1000
0020
0000
0000
0000
0030
0000
1000
0000
0100
0000
,  // measure 6
0001
0000
0100
0000
1000
0010
0002
0000
0000
0000
0003
0000
1000
0000
0100
0000
,  // measure 7
1000
0000
0000
0000
1000
0010
0200
0000
0000
0000
0300
0000
1100
0000
0100
0000
,  // measure 8
1100
0000
0100
0000
0010
0001
0010
0000
2200
0000
0000
0000
0000
3300
0000
0000
,  // measure 9
0000
0000
0000
0001
0101
0001
0101
0001
,  // measure 10
0101
0000
1000
0001
0010
0000
2200
0000
0000
0000
0000
3300
0000
0000
0000
0000
,  // measure 11
0000
0000
0000
0000
,  // measure 12
0000
0000
0000
0000
1000
0010
0200
0000
0000
0000
0301
0010
0100
0000
0000
0000
,  // measure 13
1000
0000
0100
0000
1000
0000
0010
0000
0001
0010
2000
0000
0000
0000
3000
0000
,  // measure 14
1000
0000
0100
0000
0001
0000
0100
0000
1000
0010
0002
0000
0000
0000
0003
0000
,  // measure 15
1000
0000
0100
1000
0000
0000
0200
0000
0000
0310
0001
0000
0000
0000
0000
0000
,  // measure 16
1000
0000
0100
0000
1000
0000
0010
0000
0100
1000
0000
0002
0000
0000
0000
0000
,  // measure 17
0000
0000
0003
0000
0000
0000
0001
0010
,  // measure 18
0001
0000
0100
0000
0010
0001
0000
2000
0000
0000
0000
0000
0000
0000
0000
0000
,  // measure 19
3000
0000
0000
0000
,  // measure 20
0000
0000
0000
0000
0000
0000
0000
0000
1000
0010
0200
0000
0000
0000
0301
0010
,  // measure 21
0100
0000
0000
0000
1000
0000
0100
0000
1000
0000
0010
0000
0001
1000
0020
0000
,  // measure 22
0000
0000
0030
0000
1000
0000
0100
0000
0001
0000
0100
0000
1000
0010
0002
0000
,  // measure 23
0000
0000
0003
0000
1000
0000
0100
0000
1000
0000
0100
0000
1000
0010
0200
0000
,  // measure 24
0000
0000
0300
0000
1000
0000
0010
0000
2000
0000
0000
0000
3001
0000
0010
0100
,  // measure 25
0010
0200
0000
0000
0000
0000
0300
0000
0000
0000
0000
0000
0000
0000
0000
0000
,  // measure 26
0010
0000
0001
0000
0200
0000
0000
0000
0310
0000
0001
0100
0001
0200
0000
0000
,  // measure 27
0000
0300
0000
0000
0000
0000
0000
0000
,  // measure 28
0000
0000
0000
0000
0000
0000
1000
0100
,  // measure 29
1000
0001
0000
0000
0100
0000
0010
0000
0100
0000
0000
0000
0010
0000
1000
0010
,  // measure 30
0000
0000
0000
1000
0100
0010
0000
0000
0000
0000
0000
0000
1000
0000
0100
0000
,  // measure 31
1000
0010
0000
0001
0010
0000
0000
0000
1000
0000
0100
0000
1000
0000
0000
0000
,  // measure 32
0010
0000
0001
0010
0000
0000
0000
0000
1000
0000
0100
0000
1000
0000
0010
0000
,  // measure 33
1000
0010
1000
0200
0000
0000
0000
0300
0000
0000
0000
0000
0000
0000
0000
0000
,  // measure 34
0000
0000
0001
0000
1000
0000
0100
0000
1000
0000
0010
0000
1000
0010
1000
0002
,  // measure 35
0000
0003
0000
0000
,  // measure 36
0000
0000
0000
0000
,  // measure 37
0000
0000
0000
0000
1000
0010
0000
0100
0000
0000
0000
0001
0000
0100
0000
0020
,  // measure 38
0000
0030
0000
0000
,  // measure 39
0100
1000
0000
0001
0000
0000
0000
0010
0000
0001
0000
2000
0000
0000
0000
0000
,  // measure 40
3000
0000
0000
0000
0000
0000
0000
0000
0000
0000
0000
0000
1000
0010
0000
0100
,  // measure 41
0000
0000
0000
0001
0000
0100
0000
0020
0000
0000
0000
0000
0030
0000
0000
0000
,  // measure 42
0000
0000
0000
0000
1000
0100
1000
0010
,  // measure 43
0010
0000
0000
0000
1000
0010
0000
0000
1000
0000
0100
0000
0010
0000
0001
0000
,  // measure 44
0100
0000
0010
0000
1000
0010
0200
0000
0000
0000
0300
0000
0001
0010
0100
0000
,  // measure 45
0000
0000
1000
0000
0100
0000
1000
0000
0001
0000
0100
0010
0002
0000
0000
0000
,  // measure 46
0003
0000
0010
0000
1000
0000
0100
0000
1000
0000
0010
1000
0002
0000
0000
0000
,  // measure 47
0003
0000
1000
0000
0100
0000
1000
0000
0100
0000
1000
0010
0200
0000
0000
0000
,  // measure 48
0300
0000
0001
0000
0101
0000
0001
0000
0101
0000
0001
0000
0101
0000
1000
0001
,  // measure 49
0010
0000
0000
0000
0000
0000
0000
0001
,  // measure 50
1100
0000
0100
0000
1100
0000
0100
0000
0010
0001
0010
0000
2200
0000
0000
0000
,  // measure 51
0000
3300
0000
0000
0000
0000
0000
0000
0000
0000
0000
0000
1000
0000
0011
0000
,  // measure 52
0001
0000
0011
0000
0001
0000
1000
0100
1000
0000
0202
0000
0000
0000
0000
0000
,  // measure 53
0303
0000
0000
0000
;
