#TITLE:Wanted To;
#SUBTITLE:;
#ARTIST:Infected Mushroom feat. Maya Isacowitz;
#TITLETRANSLIT:;
#SUBTITLETRANSLIT:;
#ARTISTTRANSLIT:;
#GENRE:;
#CREDIT:;
#BANNER:Wanted To - Infected Mushroom feat. Maya Isacowitzbn.png;
#BACKGROUND:Wanted To - Infected Mushroom feat. Maya Isacowitzbg.PNG;
#LYRICSPATH:Wanted To - Infected Mushroom feat. Maya Isacowitz.lrc;
#CDTITLE:encorerebirth.png;
#MUSIC:Wanted To - Infected Mushroom feat. Maya Isacowitz.ogg;
#OFFSET:0.011;
#SAMPLESTART:69.442;
#SAMPLELENGTH:13.021;
#SELECTABLE:YES;
#BPMS:0.000=72.500
,14.000=36.250
,16.000=145.000
,76.000=108.750
,79.000=145.000
,139.000=96.667
,143.000=72.500
,143.500=217.500
,145.000=145.000
;
#STOPS:
;
#BGCHANGES:;
#KEYSOUNDS:;
#ATTACKS:;

//---------------dance-single - Spork!----------------
#NOTES:
     dance-single:
     Spork! - Beginner:
     Beginner:
     1:
     0.110,0.216,0.077,0.134,0.000,58.000,8.000,14.000,0.000,0.000,0.000,0.110,0.216,0.077,0.134,0.000,58.000,8.000,14.000,0.000,0.000,0.000:
0000
0000
0000
0000
,
0000
0000
0000
0000
,
0000
0000
0000
0000
,
0000
0000
0000
0000
,
0001
0000
0000
0000
,
0100
0000
0000
0000
,
0001
0000
0000
1000
,
1000
0000
0001
0000
,
1000
0000
0000
0000
,
0100
0000
0000
0000
,
1000
0000
0100
0000
,
0010
0000
0001
0000
,
1000
0000
0000
0000
,
0010
0000
0000
0000
,
1000
0000
0000
0001
,
0001
0000
1000
0000
,
0001
0000
0000
0000
,
0010
0000
0000
0000
,
0001
0000
0010
0000
,
0100
0000
0000
2000
,
0000
0000
0000
3000
,
0000
0000
0000
0020
,
0000
0000
0000
0030
,
0000
0000
0000
0200
,
0000
0000
0000
0300
,
0000
0000
0000
0002
,
0000
0000
0000
0003
,
0000
0100
0000
0200
,
0000
0000
0000
0300
,
0000
0000
0000
0010
,
0000
1000
0000
0001
,
0000
0010
0000
0020
,
0000
0000
0000
0030
,
0000
0000
0000
0100
,
0000
1000
0000
2002
,
0000
0000
0000
3003
,
0000
1001
0000
0000
,
0000
0100
0000
0000
,
0000
0020
0000
0000
,
0000
0030
0000
0000
,
0000
1001
0000
0000
,
0000
0010
0000
0000
,
0000
0200
0000
0000
,
0000
0000
0000
0300
,
0000
0110
0000
0000
,
0000
0001
0000
0000
,
0000
2000
0000
0000
,
0000
3000
0000
0000
,
0000
0110
0000
0000
,
0000
1000
0000
0000
,
0000
0002
0000
0000
,
0000
1003
0000
0001
,
0000
1001
0000
0000
,
0000
1001
0000
0000
,
0000
0000
0001
0000
0000
1000
0000
0000
,
0001
0000
0000
1000
0000
0000
2002
0000
,
0000
3003
0000
0000
;

//---------------dance-single - Spork!----------------
#NOTES:
     dance-single:
     Spork! - Light:
     Easy:
     4:
     0.293,0.297,0.240,0.317,0.000,156.000,25.000,33.000,0.000,0.000,0.000,0.293,0.297,0.240,0.317,0.000,156.000,25.000,33.000,0.000,0.000,0.000:
0000
0000
0000
0000
,
0000
0000
0000
0000
,
0010
0010
1000
1000
,
0001
0001
1001
0000
,
0020
0000
0000
0030
1010
0000
0000
0000
,
2000
0000
0000
3000
1100
0000
0000
0000
,
0002
0000
0000
0003
0011
0000
0010
0000
,
0200
0000
0000
0300
1001
0000
0000
0000
,
0200
0000
0000
0300
0101
0000
0000
0000
,
0002
0000
0000
0003
0011
0000
0000
0000
,
0002
0000
0203
0000
,
0320
0000
2030
0000
,
3002
0000
0000
0003
1100
0000
0000
0000
,
2000
0000
0000
3000
0101
0000
0000
0000
,
0020
0000
0000
0030
1001
0000
0001
0000
,
0200
0000
0320
0000
,
2030
0000
0000
3000
0011
0000
0000
0000
,
0002
0000
0000
0003
1010
0000
0000
0000
,
2000
0000
3020
0000
,
0230
0000
0000
0300
0000
0000
0001
0000
,
1000
0010
0000
0010
,
1000
0001
0100
0001
,
1000
0100
0000
0100
,
0010
0001
1000
0001
,
0010
0100
0000
0100
,
1000
0010
1000
0001
,
0100
0010
0000
0010
,
0100
0001
1000
0100
,
0100
0110
0000
0100
,
1000
0100
0100
0010
,
0001
0010
0010
0001
,
0100
0010
0010
0110
,
0000
0100
0001
0100
,
0100
0010
1000
0010
,
0010
1000
0001
0020
,
0000
0000
0000
0000
0000
0000
0030
1001
,
0000
0001
0100
0010
,
0010
1000
0100
0001
,
0100
2000
0000
0000
,
3002
0000
0003
0101
,
1100
1000
0010
0100
,
0100
0001
0010
1000
,
0010
0002
0000
0000
,
2003
0000
0000
3010
,
1001
0100
0001
0010
,
0010
0001
0100
1000
,
0100
0020
0000
0000
,
0230
0000
0300
0210
,
0000
0310
1000
0100
,
0100
1000
0010
0001
,
0010
2000
0000
0000
,
0000
3002
0000
2003
,
0000
3000
0101
0000
0001
0000
0100
0000
,
0010
1010
0010
1000
,
0001
0000
1001
0000
0000
0110
0000
0000
,
1001
0000
0000
0110
0000
0000
0002
0000
,
2000
3003
0000
0000
;

//---------------dance-single - Spork!----------------
#NOTES:
     dance-single:
     Spork! - Standard:
     Medium:
     5:
     0.348,0.324,0.259,0.288,0.019,197.000,27.000,30.000,0.000,0.000,0.000,0.348,0.324,0.259,0.288,0.019,197.000,27.000,30.000,0.000,0.000,0.000:
0000
0000
0000
0000
,
0000
0000
0000
0000
,
0010
1000
0100
0100
,
0010
0001
1001
0000
,
0001
0010
0110
0000
,
0001
0100
0110
0010
,
2000
0000
3010
0100
,
0200
0010
0320
0000
,
1030
0100
0110
0100
,
1000
0010
0110
0100
,
0002
0000
0023
0000
,
0230
1000
2300
0100
,
3001
0100
1010
0000
,
1000
0100
0011
0010
,
0002
0000
1003
0001
,
0002
0100
0203
0000
,
0301
0010
1100
1001
,
1000
0010
0101
0001
,
2000
0000
3020
0000
,
0230
0000
0000
0300
0000
0000
0001
0000
,
0000
0000
0011
0000
0010
0001
0000
1000
,
0000
1001
0000
1000
,
0000
1010
0000
0020
,
0230
0320
2030
3001
,
0000
0000
1100
0000
0100
1000
0000
0010
,
0000
0110
0000
0100
,
0000
0000
0000
0000
0102
0000
0000
0000
0000
0000
0000
0000
1003
0000
0000
1000
,
0000
0001
0010
0000
0100
0000
1000
0000
,
0000
0000
0110
0000
0001
1000
0000
0010
,
0000
0000
1001
0000
0001
0100
0001
0100
,
0010
0100
0010
0000
0010
1000
0000
1000
,
0001
0010
0001
0100
,
0000
0000
1001
0000
0010
0100
0000
0001
,
0000
0000
0011
0000
0010
0100
0010
0100
,
1000
0100
0010
0000
0001
0000
2000
0000
,
0000
0000
0001
0000
0000
0000
0000
0000
0000
0000
0001
0000
0000
0000
0000
0000
0000
0000
3000
0000
0000
0011
0000
0000
,
0000
0000
1000
0000
1000
0100
1000
0000
,
0010
0100
0001
0010
,
0100
0000
0020
0000
0000
0001
0000
0000
,
0032
0000
0000
0100
0000
0003
1100
0000
,
0101
0000
0001
0000
0001
0010
0001
0000
,
0100
0010
1000
0100
,
0010
0000
0002
0000
0000
0100
0000
0000
,
0203
0000
0000
0010
0000
0000
0310
0000
,
1001
0000
0001
0000
0001
0100
0001
0000
,
0010
0100
1000
0010
,
0010
0000
2000
0000
0000
0100
0000
0000
,
3002
0000
0000
0000
0000
0000
0010
0000
0000
0000
0000
0000
0103
0000
0000
0100
,
0000
0010
1000
0000
1000
0010
1000
0000
,
0100
0010
0001
0100
,
0100
0000
0002
0000
0000
0010
0000
0000
,
0000
0000
0000
0000
2003
0000
0000
0000
0000
0000
0000
0000
0020
3000
0000
0000
,
0000
0030
0110
0000
0100
0000
0001
0000
,
1000
0101
0001
1000
,
0001
0000
1010
0000
1000
0100
0000
0100
,
0010
0000
0010
0001
0000
0001
0200
0000
,
0020
0330
0000
0000
;

//---------------dance-single - Spork!----------------
#NOTES:
     dance-single:
     Spork! - Expert:
     Challenge:
     9:
     0.666,0.647,0.681,0.240,0.441,390.000,71.000,25.000,0.000,0.000,2.000,0.666,0.647,0.681,0.240,0.441,390.000,71.000,25.000,0.000,0.000,2.000: // measure 0
0000
0000
0000
0000
,  // measure 1
0000
0000
0000
0000
,  // measure 2
1000
0000
0000
0000
0001
1000
0010
0100
0001
0010
0000
0000
0100
0000
0010
0000
,  // measure 3
0001
0000
0000
0000
0000
0000
0000
0000
0000
0000
0000
0000
0100
0000
0000
0000
0000
0000
0010
0000
0000
0000
0000
0000
1002
0000
0000
0000
0000
0000
0000
0000
0000
0003
0000
0000
1000
0000
0000
0010
0100
0010
1000
0010
0100
0004
0000
0000
,  // measure 4
2003
0000
3100
0010
0110
0000
0000
0000
,  // measure 5
0020
0000
0000
0000
0031
0000
0000
0100
0001
0000
0001
0000
0100
0010
0100
0010
,  // measure 6
2000
0000
0000
3000
0011
0000
0010
0000
,  // measure 7
0110
0000
0000
0000
0000
0000
0000
0000
0000
1100
0000
0000
0000
0000
0000
0000
0000
0000
0101
0000
0000
0000
0000
0000
0001
0000
0000
0000
0100
0000
0000
0000
0001
0000
0000
0000
0010
0000
0000
0000
0100
0000
0000
0000
1000
0000
0000
0000
,  // measure 8
0002
0000
0000
0000
0000
0000
0103
0000
0000
0010
0000
0000
0110
0000
0000
0000
0000
0000
0100
0001
0100
0001
0100
0001
,  // measure 9
2000
0000
0000
0000
0000
0000
3001
0000
0000
0010
0001
0010
0001
0000
0000
0100
0000
0000
0010
0000
0000
1000
0100
1000
,  // measure 10
0200
0000
0000
0300
0011
0000
0000
0000
,  // measure 11
1001
0000
0000
0101
0000
0000
1100
0000
1010
0000
0000
0000
1000
0000
0000
0000
,  // measure 12
1200
0000
0310
0100
0011
0000
0001
0000
,  // measure 13
0201
0000
0000
0000
0310
0000
0100
0000
1010
0000
1000
0000
0100
0010
0100
0010
,  // measure 14
0002
0000
1003
0010
0110
0000
0010
0000
,  // measure 15
1001
0000
0000
0000
0000
0000
0000
0000
0000
1010
0000
0000
0000
0000
0000
0000
0000
0000
0011
0000
0000
0000
0000
0000
0010
0000
0000
0000
0100
0000
0000
0000
1000
0000
0000
0000
0010
0000
0000
0000
0100
0000
0000
0000
0001
0000
0000
0000
,  // measure 16
0020
0000
0000
0000
0130
0000
0010
0000
1100
0000
0000
0000
4001
0000
0000
3000
,  // measure 17
0120
0000
0000
0000
0000
0000
0000
0000
0000
0000
0000
0000
0130
0000
0000
0000
0000
0000
0000
0000
0000
0001
0000
0000
0100
0000
0000
0000
0000
0000
0100
0000
0000
0000
0000
0000
0010
0000
0000
0000
0000
0000
1000
0000
0001
0000
1000
0000
,  // measure 18
0002
0000
0000
0003
2010
0000
0000
3000
,  // measure 19
0012
0000
0000
0000
0000
0000
0000
0000
0003
0100
0000
0000
0010
0000
0000
0000
0000
0000
1000
0000
0000
0000
0000
0000
0001
0000
0000
0000
1000
0000
0000
0000
,  // measure 20
0100
0010
0001
0100
0010
1000
0000
1100
,  // measure 21
0000
0000
0000
1000
0001
0000
0100
0000
0000
0000
0010
0000
0100
0000
0001
0000
,  // measure 22
0010
0000
0100
0000
1000
0000
0010
0000
0100
0000
0001
0000
0010
0000
0000
0010
,  // measure 23
0001
0000
0000
0001
1000
0000
0000
0000
1001
0000
0000
0000
1000
0000
0001
0000
,  // measure 24
0100
0010
1000
0100
0010
0001
0000
0101
,  // measure 25
0000
0000
0000
0001
1000
0001
1000
0000
0000
0010
0000
0000
0000
0000
0000
0100
0000
0000
0010
0000
0000
1000
0000
0000
,  // measure 26
0100
0000
0010
0000
0002
0000
0203
0000
0320
0000
1030
0000
1001
0000
0000
1100
,  // measure 27
0000
0101
0120
0000
0130
0000
0001
0010
,  // measure 28
1000
0010
0001
1000
0100
0010
0000
1100
,  // measure 29
0100
1000
1001
0000
0001
0100
1000
0100
,  // measure 30
0010
0000
1000
0000
0100
0000
0001
0000
0100
0000
1000
0000
1001
0000
0000
0011
,  // measure 31
0000
1010
0210
0000
0301
0000
1000
0010
,  // measure 32
0001
0000
0010
0000
1000
0000
0001
0000
0100
0000
0010
0000
1000
0001
1000
0001
,  // measure 33
1000
0001
1000
0001
0010
0000
0000
0000
0100
0000
1000
0000
0010
0000
0100
0000
,  // measure 34
1000
0100
0001
0010
1000
0010
0002
0000
,  // measure 35
0000
0000
0100
0000
0000
0000
0000
0000
0000
0000
1000
0000
0000
0000
0000
0000
0000
0000
0003
0000
0000
0110
0000
0000
,  // measure 36
0000
0000
0000
0000
1001
0000
0000
0000
0010
0000
1000
0000
0100
0000
0010
0100
,  // measure 37
1000
0000
0000
0000
1001
0000
0000
0000
1100
0000
0000
1000
0010
0000
0100
0000
,  // measure 38
0001
0010
0100
1000
0010
0000
0000
0000
0010
0000
1001
0000
0000
0000
0010
0000
,  // measure 39
1100
0000
0000
0000
0000
0000
0010
0000
0000
0101
0000
0000
0000
0000
0000
0010
0000
0000
1000
0000
0100
0000
1000
0000
,  // measure 40
0010
0000
0000
0000
0100
0000
0000
0000
0001
0000
0000
0000
0011
0000
0000
0000
0000
0000
0000
0000
0000
0000
0000
0000
0100
0000
0000
0000
0000
0000
0010
0000
0000
0000
0000
0000
0001
0000
0000
0000
0000
0000
0100
0000
0000
0001
0000
0000
,  // measure 41
1000
0000
1010
0000
0011
0000
0110
0100
,  // measure 42
1000
0010
0100
0001
0010
0000
0000
0000
0100
0000
0011
0000
0000
0000
0100
0000
,  // measure 43
1010
0000
0100
1001
1000
0010
0102
0000
,  // measure 44
1000
0000
0003
0000
1100
0000
0000
0000
0010
0000
0001
0000
0100
0001
0010
0001
,  // measure 45
1000
0000
0001
0000
1000
0010
1000
0010
1000
0000
0001
0000
0100
0010
0100
0010
,  // measure 46
0100
0001
0010
0100
1000
0000
0000
0000
0001
0000
0110
0000
0000
0000
1000
0000
,  // measure 47
0101
0000
0000
0000
0010
0000
1100
0000
0000
0000
1000
0000
0110
0000
0000
0011
,  // measure 48
0000
0000
1001
0000
1001
0000
0000
0000
0100
0000
1000
0000
0010
1000
0100
1000
,  // measure 49
0001
0000
1000
0000
0010
0100
0001
0000
0010
0100
1000
0000
0010
1000
0001
0000
,  // measure 50
0100
0000
0020
0000
1000
0100
0000
0130
,  // measure 51
0001
1000
0200
0000
1000
0010
0020
0000
,  // measure 52
0000
0000
0330
0000
1100
0000
0000
0000
0100
0000
1000
0001
0000
0001
0000
0010
,  // measure 53
0001
0100
0010
1000
0001
0000
0000
0000
0010
0000
0001
0100
0000
0100
0000
0001
,  // measure 54
1000
0001
1000
0001
1000
0001
0010
0000
0000
0000
0000
0000
0100
0000
0000
0011
0000
0000
0000
0000
0000
0100
0000
0000
,  // measure 55
1010
0000
0000
0000
0000
0000
0001
0000
0000
0110
0000
0000
0000
0000
0000
1000
0000
0000
0110
0000
0101
0000
0011
0000
,  // measure 56
1100
1010
0110
0000
0000
0000
0000
0000
0000
0000
0000
0000
;

//---------------dance-single - Spork!----------------
#NOTES:
     dance-single:
     Spork! - Heavy:
     Hard:
     8:
     0.527,0.485,0.461,0.288,0.134,306.000,48.000,30.000,0.000,0.000,0.000,0.527,0.485,0.461,0.288,0.134,306.000,48.000,30.000,0.000,0.000,0.000: // measure 0
0000
0000
0000
0000
,  // measure 1
0000
0000
0000
0000
,  // measure 2
0010
1000
0100
1001
,  // measure 3
0010
0001
0200
0300
,  // measure 4
0002
0000
0013
0001
0101
0000
0000
0000
,  // measure 5
0020
0000
0000
0000
1030
0000
0000
1000
0001
0000
0010
0000
0001
0000
0100
0000
,  // measure 6
0020
0000
0130
0101
,  // measure 7
1001
0000
0000
0000
0000
0000
0000
0000
0000
1000
0000
0000
0000
0000
0000
0000
0000
0000
0010
0000
0000
0000
0000
0000
0100
0000
0000
0000
0010
0000
0000
0000
1000
0000
0000
0000
0010
0000
0000
0000
0100
0000
0000
0000
0001
0000
0000
0000
,  // measure 8
2000
0000
3010
1000
1100
0000
0200
0000
,  // measure 9
0320
0000
0000
0000
0031
0000
0000
0100
0001
0000
0100
0000
0010
0000
1000
0000
,  // measure 10
0002
0000
0000
0003
0011
0000
0000
0000
,  // measure 11
1000
0000
0000
0010
0000
0000
0100
0000
0110
0000
0000
0000
0010
0000
0000
0000
,  // measure 12
2000
0000
3100
1000
1010
0000
1000
0000
,  // measure 13
0200
0000
0000
0000
0310
0000
0000
0100
1000
0000
0001
0000
0010
0000
0001
0000
,  // measure 14
0200
0000
0310
1010
,  // measure 15
1001
0000
0000
0000
0000
0000
0000
0000
0000
0001
0000
0000
0000
0000
0000
0000
0000
0000
0010
0000
0000
0000
0000
0000
0100
0000
0000
0000
0010
0000
0000
0000
0001
0000
0000
0000
0010
0000
0000
0000
0100
0000
0000
0000
1000
0000
0000
0000
,  // measure 16
0002
0000
0103
0001
0011
0000
0110
0000
,  // measure 17
0200
0000
0000
0000
0310
0000
0000
0001
1000
0000
0100
0000
1000
0000
0010
0000
,  // measure 18
0100
0000
0110
0000
,  // measure 19
2002
0000
0000
3003
0000
0000
0001
0100
,  // measure 20
0001
0100
0010
1000
0100
0010
0000
1001
,  // measure 21
0000
0010
1000
0100
0000
0100
1000
0010
,  // measure 22
0100
0000
0010
1000
0100
1000
1010
0000
,  // measure 23
1100
0000
0110
0000
0100
0000
1000
0010
,  // measure 24
1000
0010
0100
0001
0010
0100
0000
1001
,  // measure 25
0000
0100
0001
0000
0001
0010
0100
0000
,  // measure 26
0100
0000
1000
0000
0010
0000
0010
0000
0010
0000
1000
0000
1100
0000
0000
0100
,  // measure 27
0000
0010
1001
0000
0100
0000
0001
0010
,  // measure 28
1000
0010
0001
0010
0100
1000
0000
0110
,  // measure 29
0000
0000
1001
0000
0001
0100
0010
1000
,  // measure 30
0100
0010
0100
1000
0010
0100
0001
1000
,  // measure 31
0010
0000
0100
0010
0000
0010
1000
0100
,  // measure 32
0001
0100
1000
0100
0010
0001
0000
0110
,  // measure 33
0100
0010
1001
0000
1000
0010
0100
0001
,  // measure 34
0010
0100
0010
0001
0100
0010
2000
0000
,  // measure 35
0000
0000
0100
0000
0000
0000
0000
0000
0000
0000
0001
0000
0000
0000
0000
0000
0000
0000
3000
0000
0000
0110
0000
0000
,  // measure 36
0000
0000
1001
0000
1000
0100
0020
0000
,  // measure 37
1000
0030
0011
0000
0100
1000
1010
0000
,  // measure 38
0100
0000
0002
0000
0100
0010
0000
0010
,  // measure 39
2003
0000
0000
0000
0000
0000
0010
0000
0000
0100
0000
0000
0000
0000
0000
0100
0000
0000
3001
0000
0010
0000
0100
0000
,  // measure 40
1000
0000
0010
0000
0100
0000
0001
0000
0000
0000
0000
0000
0001
0000
0000
0010
0000
0000
0200
0000
0000
0000
0000
0000
,  // measure 41
0001
0300
1100
0000
0010
0100
0101
0000
,  // measure 42
1001
0000
0200
0000
0010
1000
0000
1000
,  // measure 43
0320
0000
0100
0001
0000
0130
1010
0000
,  // measure 44
1002
0000
0103
0000
0010
1000
0200
0000
,  // measure 45
0001
0000
0300
0000
0100
0000
1000
0000
1010
0000
0000
0010
0100
0000
0001
0000
,  // measure 46
1000
0100
0020
0000
0100
1000
0000
1000
,  // measure 47
0230
0000
0000
0000
0010
0000
0001
0000
0000
0000
0310
0000
0110
0000
0000
1100
,  // measure 48
0000
1001
1001
0000
0100
0001
0020
0000
,  // measure 49
1000
0030
0010
0001
0101
0000
0010
1000
,  // measure 50
1001
0000
0200
0000
0001
0010
0000
0310
,  // measure 51
1000
0001
0020
0000
0001
0100
0200
0000
,  // measure 52
0000
0330
1001
0000
0010
0001
0100
1000
,  // measure 53
0100
0010
1001
0000
0100
1000
0010
0001
,  // measure 54
0010
0010
0110
0000
0100
1001
0000
0010
,  // measure 55
1100
0000
0000
0000
0000
0000
0001
0000
0000
0110
0000
0000
0000
0000
0000
1001
0000
0000
0100
0000
1000
0000
0010
0000
,  // measure 56
0100
0001
0010
0000
0000
0000
0000
0000
0000
0000
0000
0000
;
