#TITLE:The Clear Blue Sky;
#SUBTITLE:;
#ARTIST:Tsukasa;
#TITLETRANSLIT:;
#SUBTITLETRANSLIT:;
#ARTISTTRANSLIT:;
#CREDIT:SupremeX;
#BANNER:The Clear Blue Sky.png;
#BACKGROUND:The Clear Blue Sky-bg.png;
#LYRICSPATH:;
#CDTITLE:SupremeX.png;
#MUSIC:The Clear Blue Sky.ogg;
#OFFSET:1.409;
#SAMPLESTART:55.808;
#SAMPLELENGTH:19.000;
#SELECTABLE:YES;
#BPMS:0.000=178.000;
#STOPS:;
#BGCHANGES:0.000=theclear.avi.AVI=1.000=1=0=1,
99999=-nosongbg-=1.000=0=0=0 // don't automatically add -songbackground-
;

//---------------dance-single - ----------------
#NOTES:
     dance-single:
     :
     Easy:
     2:
     0.212,0.252,0.000,0.087,0.000:
0000
0000
0000
0000
,
0000
0000
0000
0000
,
0000
0000
0000
0000
,
0000
0000
0000
0000
,
0000
0000
0000
0000
,
0000
0000
0000
0000
,
0000
2000
0000
0000
0000
0000
0000
0000
,
0000
3000
0000
0000
,
0000
0000
0001
0000
0000
0100
0000
0001
,
0000
0100
0000
0000
0000
0000
0010
0000
,
1000
0020
0000
0000
,
0000
0030
0000
0100
,
0001
0000
1000
0000
0000
0010
0000
0000
,
0000
0100
0000
0000
0000
0000
0001
0000
,
1000
0000
0001
0000
0000
0100
0000
0010
,
0000
0100
0000
0000
0000
0001
0000
0001
,
0000
2000
0000
0000
0000
0000
0000
0000
,
0000
0000
0000
3000
0000
0000
0000
0000
,
0000
0010
0100
0001
,
0000
1000
0000
1000
0000
1000
0000
0000
,
0000
0010
0100
0001
,
0000
1000
0000
0010
0000
1000
0000
0000
,
0000
0001
0010
0100
,
0000
1000
0000
0001
0000
1000
0000
0000
,
0000
0000
0010
0100
,
0000
0001
0000
1000
0000
0001
0000
0000
,
0000
0000
0100
0000
0000
0100
0000
0000
,
0000
0000
0000
0010
,
1000
0000
0001
0000
0000
0001
0000
0000
,
0000
0000
0000
0000
0000
0000
0000
0100
,
0000
0000
0010
0000
0000
1000
0000
0000
,
0000
0000
0000
0000
,
0000
0000
0001
0000
0000
1000
0000
0000
,
0010
0000
0000
0100
,
0001
1000
0010
0000
,
0000
0100
0000
0100
0000
0100
0000
0000
,
0000
0000
0001
0000
0000
0010
0000
0100
,
0000
1000
0000
0000
0000
0000
0001
0000
,
0000
1000
0000
0010
,
0000
0100
0000
0001
,
0000
1000
0100
0010
,
0000
0002
0000
0000
0000
0000
0000
0000
,
0003
0000
0000
0000
,
0000
1000
1000
0010
,
0000
0100
0000
0001
0000
0100
0000
0000
,
0000
0000
0010
0000
0000
1000
0000
0000
,
0000
0010
0000
0000
0000
0100
0000
0000
,
0000
0002
0000
0000
0000
0000
0000
0000
,
0000
0003
0000
0000
0000
0000
0000
0000
,
0000
0000
1000
0000
0000
0010
0000
0100
,
0000
0001
0000
0000
0000
0000
1000
0000
,
0010
2000
0000
0000
,
0000
0000
0000
3000
0000
0000
0001
0000
,
0100
0000
0010
0000
0000
1000
0000
0000
,
0000
0001
0000
0000
0000
0000
0100
0000
,
0010
0000
0100
0000
0000
0001
0000
1000
,
0000
0001
0000
0000
0000
1000
0000
0010
,
0000
0200
0000
0000
0000
0000
0000
0000
,
0000
0300
0002
0000
0000
0000
0000
0000
,
0003
1000
0000
0010
,
0000
0100
0000
0100
0000
0100
0000
0000
,
0000
0001
0000
1000
,
0000
0010
0000
0010
0000
0010
0000
0000
,
0000
0000
1000
0000
0000
0001
0000
1000
,
0000
0001
0000
0000
0000
0000
0000
0000
,
0000
0000
0100
0000
0000
0010
0000
0100
,
0000
0010
0000
0000
0000
0000
0000
0000
;

//---------------dance-single - ----------------
#NOTES:
     dance-single:
     :
     Medium:
     5:
     0.291,0.293,0.109,0.131,0.000:
0000
0000
0000
0000
,
0000
0000
0000
0000
,
0000
1000
0100
1000
,
0000
0000
0000
0000
,
0000
0001
0010
0100
,
1000
0000
0000
0010
,
0000
0200
0000
0000
0000
0000
0000
0000
,
0000
0300
0000
0000
,
0000
0000
0001
0000
0000
1000
0000
0010
,
0000
1000
0000
0000
0000
0000
0001
0000
,
0100
0000
0100
0000
0010
1000
0000
0000
,
0000
0000
0000
0000
1000
0000
0000
0010
,
0000
0000
1000
0000
0000
0010
0000
0000
,
0000
0100
0000
0000
0000
0000
0001
0000
,
0100
0000
0010
0000
0000
1000
0000
0010
,
0000
1000
0000
0000
0000
0001
0000
0100
,
0000
0002
0000
0000
0000
0000
0000
0000
,
0000
0000
0000
0000
0000
0003
0000
0000
,
0000
0000
1000
0000
1000
0000
0010
0100
,
0000
0010
0000
1000
0000
0010
0000
0000
,
0000
0000
1000
0000
0010
0000
0100
0001
,
0000
1000
0000
0100
0000
0010
0000
0000
,
0000
0000
0001
0000
0100
0000
0100
0010
,
0000
1000
0000
0100
0000
1000
0000
0000
,
0001
0000
0100
0000
0100
0000
0010
1000
,
0000
1000
0000
0001
0000
0001
0000
0000
,
0000
0000
0001
0000
0000
2000
0000
0000
,
0000
0000
0000
3000
0000
0000
0100
0000
,
0010
0000
0001
0000
0100
0020
0000
0000
,
0000
0000
0000
0030
0000
0000
1000
0000
,
0100
0000
0010
0000
0001
0200
0000
0000
,
0000
0000
0000
0300
0000
0000
0010
0000
,
0000
1000
0000
0000
0000
1010
0000
0000
,
0101
0000
0000
1000
,
0100
0010
0001
1000
,
0000
0010
0000
1000
0000
1000
0000
0000
,
0000
0001
0010
0100
,
1000
0100
1000
0001
,
1000
0010
0000
0000
,
0100
0001
0000
0000
0000
0000
0000
0000
,
1000
1000
0000
1100
,
0000
0022
0000
0000
0000
0000
0000
0000
,
0000
0033
0000
0000
0000
0000
0000
0000
,
0000
0000
1000
0000
1000
0000
0010
0100
,
0000
0001
0000
0001
0000
1000
0000
0000
,
1000
0000
0010
0000
0000
0010
0000
0000
,
0000
0101
0000
0000
0000
0001
0000
0000
,
1000
2000
0000
0000
0000
0000
0000
0000
,
0000
3000
0000
0010
,
0010
0000
0100
0000
0000
0001
0000
1000
,
0000
1000
0000
0000
0000
0000
0010
0000
,
0100
0000
0001
0000
1000
0000
0010
0100
,
0000
0100
0000
0001
0000
0001
0000
0000
,
1000
0000
1000
0000
0000
0010
0000
0000
,
0000
0010
0000
0000
0000
0000
1000
0000
,
0100
0000
0010
0000
0001
0100
0000
0100
,
0000
0010
0000
0000
1000
0001
0000
0001
,
0000
2000
0000
0000
0000
0000
0000
0000
,
3000
0000
0000
0020
0000
0000
0000
0000
,
0000
0030
0000
0000
0100
0000
0001
0000
,
0000
0100
0000
0010
0000
1010
0000
0000
,
0010
0100
0001
1000
,
0000
1001
0000
0000
0000
0000
0000
0000
,
0010
0000
0010
0000
0000
0100
0000
0110
,
0000
1001
0000
0000
0000
0000
0000
0000
,
0001
0000
1000
0000
0000
0001
0000
1000
,
0000
0220
0000
0000
0000
0000
0000
0000
,
0000
0330
0000
0000
;

//---------------dance-single - ----------------
#NOTES:
     dance-single:
     :
     Hard:
     8:
     0.441,0.590,0.087,0.076,0.000: // measure 1
0000
0000
0000
0000
,  // measure 2
0000
0000
0000
0000
,  // measure 3
0000
0000
1000
0100
0010
0001
0000
0000
,  // measure 4
0000
0000
0000
0000
,  // measure 5
0000
0000
0001
0010
0100
1000
0000
0000
,  // measure 6
0001
0100
0000
0010
,  // measure 7
0000
0000
1000
0001
0000
0001
0000
0000
,  // measure 8
0000
0000
0000
0000
,  // measure 9
0000
0100
0010
0000
0000
1000
0000
1000
,  // measure 10
0000
0001
0000
0000
0000
0000
0100
0000
,  // measure 11
0010
0000
1010
0000
0100
0001
0000
0000
,  // measure 12
0000
0000
0000
0000
0000
1000
0000
1000
,  // measure 13
0000
0000
0010
0000
0010
0100
0000
0000
,  // measure 14
0001
1000
0000
0000
0000
0000
0010
0000
,  // measure 15
1000
0000
0001
0000
0100
0010
0000
0010
,  // measure 16
0000
1000
0000
0000
0001
0100
0000
0100
,  // measure 17
0000
0020
0000
0000
0000
0000
0000
0000
,  // measure 18
0000
0000
0000
0030
0000
0000
0000
0000
,  // measure 19
0000
0000
1000
0100
0010
0001
0100
0010
,  // measure 20
0000
1000
0000
0100
0000
0010
0000
0001
,  // measure 21
0100
0000
0100
0000
0010
1000
0010
1000
,  // measure 22
0000
0001
0000
1000
0000
0001
0000
0100
,  // measure 23
0010
0100
0001
1000
0010
0100
0010
1000
,  // measure 24
0000
0010
0000
0010
0000
1000
0000
0001
,  // measure 25
1000
0001
0100
0000
0010
1000
0010
1000
,  // measure 26
0000
0001
0000
0010
0000
0100
0000
1000
,  // measure 27
0010
1000
0001
0000
0100
0200
0000
0000
,  // measure 28
0000
0000
0300
0000
0000
0010
1000
0100
,  // measure 29
0010
0001
0100
0000
0010
0020
0000
0000
,  // measure 30
0000
0030
0000
0000
0000
0000
1000
0000
,  // measure 31
0100
0000
1000
0000
0001
0100
0000
0100
,  // measure 32
0000
0010
0000
0010
0000
0000
1000
0100
,  // measure 33
0000
0000
1100
0000
0000
0011
0000
0000
,  // measure 34
1001
0000
0000
0000
0000
1000
0100
0010
,  // measure 35
0001
0000
0100
0000
0010
1000
0010
1000
,  // measure 36
0000
0001
0000
1000
0000
0001
0000
0100
,  // measure 37
0001
1000
0010
0000
0100
0001
0000
0001
,  // measure 38
0000
1000
0000
0000
0010
0000
1000
0000
,  // measure 39
0010
0000
1000
0001
0010
0100
1000
0100
,  // measure 40
1000
0001
0100
0010
1000
0100
0010
0001
,  // measure 41
1000
0100
1000
0000
0100
1000
0010
0000
,  // measure 42
0100
0001
1000
0010
0100
0001
1000
0010
,  // measure 43
1000
0001
0000
0000
0000
0100
0000
0010
,  // measure 44
1000
0100
0010
0001
1000
0100
1000
0100
,  // measure 45
0000
0010
0000
0011
0000
1100
0000
0010
,  // measure 46
1000
0100
0010
0000
0001
0010
0000
0000
,  // measure 47
0100
1000
0000
0000
0000
0010
0000
0000
,  // measure 48
1000
2000
0000
0000
0000
0000
0000
0000
,  // measure 49
0000
3000
0000
0000
0000
0010
0000
0100
,  // measure 50
0000
0001
1000
0000
0010
1000
0000
1000
,  // measure 51
0000
0010
0000
0000
0000
0100
0000
0001
,  // measure 52
0010
0100
1000
0000
0010
1000
0010
0100
,  // measure 53
0000
0101
0000
1010
0000
0100
0000
0000
,  // measure 54
0010
0000
0001
0000
1000
0010
0000
0000
,  // measure 55
0100
0002
0000
0003
0000
0000
1000
0000
,  // measure 56
0100
0000
1000
0000
0001
0100
0000
0010
,  // measure 57
0000
1000
0000
0000
0010
1000
0000
0001
,  // measure 58
0000
0200
0000
0000
0001
0000
0001
0000
,  // measure 59
0001
0010
0010
0010
,  // measure 60
0310
0000
1000
0100
0010
0001
1000
0010
,  // measure 61
0000
0100
0000
0100
0000
0001
0000
1000
,  // measure 62
0100
0010
0001
1000
0100
1000
0010
0100
,  // measure 63
0000
0010
0000
1000
0000
0010
0000
0000
,  // measure 64
1000
0100
0010
0001
0000
1000
0000
0100
,  // measure 65
0000
1000
0000
0000
0000
0000
0000
0001
,  // measure 66
0010
0100
1000
0010
0000
0100
0000
0001
,  // measure 67
0000
2000
0000
0000
0000
0000
0000
0000
,  // measure 68
0000
0000
0000
0000
0000
3000
0000
0000
;

//---------------dance-single - Copied from----------------
#NOTES:
     dance-single:
     Copied from:
     Beginner:
     1:
     0.045,0.071,0.000,0.000,0.000:
0000
0000
0000
0000
,
0000
0000
0000
0000
,
0000
0000
0000
0000
,
0000
0000
0000
0000
,
0000
0000
0000
0000
,
0000
0000
0000
0000
,
0000
0000
0000
0000
,
0000
0000
0000
0000
,
0000
0000
0000
0000
,
0000
0000
0000
0000
,
0000
1000
0000
0000
,
0000
0000
0000
0000
,
0000
1000
0000
0000
,
0000
0000
0000
0001
,
0000
0000
0000
0000
,
0001
0000
0000
0000
,
0000
0001
0000
0000
0000
0000
0000
0000
,
0000
0000
0000
0000
,
0000
0100
0000
0000
,
0000
0000
0000
0000
,
0000
0000
0000
0100
,
0000
0000
0000
0000
,
0000
0000
0000
0010
,
0000
0000
0000
0000
,
0000
0000
0000
0010
,
0000
0000
0000
0000
,
0000
1000
0000
0000
,
0000
0000
0000
1000
,
0000
0000
0000
0000
,
0000
0000
0000
0000
,
0000
0001
0000
0000
,
0000
0000
0000
0000
,
0000
0001
0000
0000
,
0000
0000
0000
0000
,
0000
0100
0000
0000
,
0000
0000
0000
0000
,
0000
0100
0000
0000
,
0000
0000
0000
0000
,
0000
0010
0000
0000
,
0000
0000
0000
0000
,
0000
0010
0000
0000
,
0000
0000
0000
0000
,
0000
0000
0000
0000
,
0000
1000
0000
0000
,
0000
0000
0000
0000
,
0000
1000
0000
0000
,
0000
0000
0000
0000
,
0010
0000
0000
0000
,
0000
0000
0000
0000
,
0000
0010
0000
0000
,
0000
0000
0000
0000
,
0000
0100
0000
0000
,
0000
0000
0000
0000
,
0000
0100
0000
0000
,
0000
0000
0000
0000
,
0000
0001
0000
0000
,
0000
0000
0000
0000
,
0000
0001
0000
0000
0000
0000
0000
0000
,
0000
0000
0000
0000
,
0000
1000
0000
0000
,
0000
0000
0000
0000
,
0000
1000
0000
0000
,
0000
0000
0000
0000
,
0000
0010
0000
0000
,
0000
0000
0000
0000
,
0000
0010
0000
0000
;
