#TITLE:Recess;
#SUBTITLE:;
#ARTIST:Skrillex feat. Kill the Noise, Fatman Scoop, and Michael Angelakos;
#TITLETRANSLIT:;
#SUBTITLETRANSLIT:;
#ARTISTTRANSLIT:;
#GENRE:Dubstep;
#CREDIT:;
#BANNER:bn.png;
#BACKGROUND:bg.png;
#LYRICSPATH:;
#CDTITLE:;
#MUSIC:Recess.ogg;
#OFFSET:-0.055;
#SAMPLESTART:57.692;
#SAMPLELENGTH:12.000;
#SELECTABLE:YES;
#BPMS:0.000=104.000,47.000=208.000,47.667=52.000,48.000=104.000,52.000=208.000,53.000=104.000,60.000=208.000,61.000=104.000,68.000=208.000,69.000=104.000,84.000=208.000,85.000=104.000,92.000=208.000,93.000=104.000,100.000=208.000,101.000=104.000,159.000=208.000,159.667=52.000,160.000=104.000,164.000=208.000,165.000=104.000,172.000=208.000,173.000=104.000,180.000=208.000,181.000=104.000;
#STOPS:52.000=0.144
,52.500=0.144
,60.000=0.144
,60.500=0.144
,68.000=0.144
,68.500=0.144
,84.000=0.144
,84.500=0.144
,92.000=0.144
,92.500=0.144
,100.000=0.144
,100.500=0.144
,164.000=0.144
,164.500=0.144
,172.000=0.144
,172.500=0.144
,180.000=0.144
,180.500=0.144
;
#BGCHANGES:;
#KEYSOUNDS:;

//---------------dance-single - warpdr!ve----------------
#NOTES:
     dance-single:
     warpdr!ve:
     Challenge:
     10:
     0.661,0.650,0.088,0.521,0.734:
0000
0000
0000
0000
,
0000
0000
0000
0000
,
2000
0000
0000
3020
0000
0000
0230
0000
0000
0302
0000
0000
2003
0000
0000
3200
,
0000
0000
0000
0000
0320
0000
0000
0000
0000
0000
0032
0000
0000
0000
1003
0010
0100
0000
0010
0000
0000
0000
0100
0000
0002
0000
0000
0000
2003
0000
0000
0000
,
3001
0000
0000
0000
0000
0000
0010
0000
0000
0000
0000
0000
0100
0000
1000
0001
1000
0000
0000
0000
0000
0000
0010
0000
0000
0000
0000
0000
0100
0000
0000
0000
,
0001
0000
0000
0000
0000
0000
1000
0000
0000
0000
0000
0000
0010
0000
1000
0001
1000
0000
0100
0000
0000
0000
0010
0000
0000
0000
0000
0000
0100
0000
1000
0000
,
0001
0000
0000
0000
0000
0000
0010
0000
0000
0000
0000
0000
0001
0000
1000
0010
1000
0000
0000
0000
0000
0000
0010
0000
0000
0000
0100
0000
0001
0000
1000
0000
,
0001
0000
0010
0000
0100
0000
1000
0000
0001
0000
0010
0100
1000
0000
0001
0000
0100
0000
0010
0000
0100
0000
0001
0000
1000
0000
0010
1000
0001
0000
0010
0000
,
0100
0000
0100
1000
0002
0000
0103
1000
0100
1000
0100
0001
1000
0000
1000
0000
,
0001
0000
0001
1000
0002
0000
0013
1000
0010
1000
0010
0001
1000
0000
1000
0000
,
0001
0100
0010
1000
0100
0010
0001
0100
0010
1000
0100
0010
0001
0100
0010
1000
,
0M00
0000
0000
0000
000M
0000
0000
0000
M000
0000
0000
0000
00M0
0000
0000
0000
0M00
0000
0000
0000
M001
0000
0000
0000
2MM2
0000
0000
0000
0000
0000
0000
3003
,
2MM0
0000
0000
0000
0000
0000
3002
0000
0000
0000
0000
0000
1003
0000
0000
0000
0000
0000
0100
0000
0000
0001
0000
0000
0000
0000
0000
0100
0000
0000
1000
0000
0000
0000
0000
0000
0001
0000
0000
0000
1000
0000
0001
0000
0000
0000
0001
0000
,
0M10
0000
0M10
0000
1000
0000
0010
0001
0000
0010
1000
0000
0002
0000
0023
0000
,
0230
0000
0000
0000
0000
0000
2300
0000
0000
0000
0000
0000
3001
0000
0000
0000
0000
0000
0100
0000
0000
1000
0000
0000
0000
0000
0000
0100
0000
0000
0001
0000
0000
0000
0000
0000
1000
0000
0000
0000
0001
0000
1000
0000
0000
0000
1000
0000
,
0M10
0000
0000
0000
0000
0000
0M10
0000
0000
0000
0000
0000
0001
0000
0000
0000
0000
0000
0010
0000
0000
1000
0000
0000
0000
0000
0000
0010
0000
0000
0001
0000
0000
0000
0000
0000
1000
0000
0000
0000
0001
0000
2000
0000
0000
0000
0000
0000
,
3020
0000
0000
0000
0000
0000
2030
0000
0000
0000
0000
0000
3001
0000
0000
0000
0000
0000
0010
0000
0000
1000
0000
0000
0000
0000
0000
0010
0000
0000
0100
0000
0000
0000
0000
0000
1000
0000
0000
0000
0001
0000
1000
0000
0000
0000
1000
0000
,
01M0
0000
01M0
0000
0001
0000
0100
1000
0000
0100
0010
0000
2000
0000
3002
0000
,
0023
0000
0032
0000
1003
0000
0010
0100
0000
0001
0000
0100
0000
0010
1000
0000
,
0001
0000
0000
0100
0000
0000
0110
0000
0000
0010
0000
0000
1010
0000
0000
1000
0000
0000
1001
0000
0001
0100
0000
0000
,
0002
0000
0000
0000
0000
0000
2003
0000
0000
0000
0000
0000
3001
0000
0000
0000
0000
0000
0010
0000
0000
1000
0000
0000
0000
0000
0000
0010
0000
0000
0001
0000
0000
0000
0000
0000
1000
0000
0000
0000
0001
0000
1000
0000
0000
0000
1000
0000
,
01M0
0000
01M0
0000
0001
0000
0100
1000
0000
0100
0001
0000
2000
0000
3200
0000
,
0320
0000
0000
0000
0000
0000
0032
0000
0000
0000
0000
0000
1003
0000
0000
0000
0000
0000
0010
0000
0000
0001
0000
0000
0000
0000
0000
0010
0000
0000
1000
0000
0000
0000
0000
0000
0001
0000
0000
0000
1000
0000
0001
0000
0000
0000
0001
0000
,
01M0
0000
0000
0000
0000
0000
01M0
0000
0000
0000
0000
0000
1000
0000
0000
0000
0000
0000
0100
0000
0000
0001
0000
0000
0000
0000
0000
0100
0000
0000
1000
0000
0000
0000
0000
0000
0001
0000
0000
0000
1000
0000
0002
0000
0000
0000
0000
0000
,
0203
0000
0000
0000
0000
0000
0302
0000
0000
0000
0000
0000
1003
0000
0000
0000
0000
0000
0100
0000
0000
0001
0000
0000
0000
0000
0000
0100
0000
0000
0010
0000
0000
0000
0000
0000
0001
0000
0000
0000
1000
0000
0001
0000
0000
0000
0001
0000
,
0M10
0000
0000
0000
0M10
0000
0000
0000
1000
0000
0010
0100
0010
0000
0001
0000
0000
0000
0010
0000
0100
0000
0000
0000
0002
0000
0000
0000
2003
0000
0000
0000
,
3200
0000
2300
0000
3001
0000
0100
0010
0000
1000
0000
0010
0000
0100
0001
0000
,
1000
0000
0000
0010
0000
0000
0110
0000
0000
0100
0000
0000
0101
0000
0000
0001
0000
0000
1001
0000
1000
0100
0000
0000
,
1000
1000
1000
1000
0001
0001
0001
0001
,
0100
0000
0100
0000
0100
0000
0100
0000
0010
0000
0010
0000
0010
0000
0010
1000
,
0001
0010
0100
1000
0100
0010
0001
1000
0001
0100
0010
1000
0001
0100
0001
1000
,
0001
0010
0100
1000
0010
0100
0001
0010
0001
0000
1000
0010
0100
0010
1000
0000
,
0001
0000
0000
0000
0000
0000
0010
0000
0000
0000
0000
0000
0001
0000
1000
0010
1000
0000
0000
0000
0000
0000
0001
0000
0000
0000
0000
0000
1000
0000
0000
0000
,
0010
0000
0000
0000
0000
0000
1000
0000
0000
0000
0000
0000
0001
0000
1000
0100
1000
0000
0100
0000
0000
0000
0010
0000
0000
0000
0000
0000
0001
0000
1000
0000
,
0001
0000
0000
0000
0000
0000
0010
0000
0000
0000
0000
0000
0100
0000
1000
0001
1000
0000
0000
0000
0000
0000
0010
0000
0000
0000
0100
0000
0001
0000
1000
0000
,
0001
0000
0010
0000
0001
0000
1000
0000
0001
0000
0010
0100
0010
0000
0001
0000
1000
0000
0010
0000
1000
0000
0001
0000
0100
0000
0001
1000
0001
0000
0010
0000
,
0100
0000
1000
0001
0100
0000
0010
0000
0010
0000
1000
0001
0010
0000
0100
1000
,
0001
0000
1000
0010
0100
0000
0010
0000
0010
0000
1000
0001
0010
0000
0001
1000
,
0001
0100
1000
0100
0001
1000
0001
0010
1000
0010
0001
1000
,
0M01
0000
0000
0000
00M0
0000
0000
0000
M000
0000
0000
0000
00M0
0000
0000
0000
1M00
0000
1000
0000
10M0
0000
0000
0000
2MM2
0000
0000
0000
0000
0000
0000
3003
,
0MM2
0000
0000
0000
0000
0000
2003
0000
0000
0000
0000
0000
3001
0000
0000
0000
0000
0000
0010
0000
0000
1000
0000
0000
0000
0000
0000
0010
0000
0000
0001
0000
0000
0000
0000
0000
1000
0000
0000
0000
0001
0000
1000
0000
0000
0000
1000
0000
,
01M0
0000
01M0
0000
0001
0000
0100
1000
0000
0100
0001
0000
2000
0000
3200
0000
,
0320
0000
0000
0000
0000
0000
0032
0000
0000
0000
0000
0000
1003
0000
0000
0000
0000
0000
0010
0000
0000
0001
0000
0000
0000
0000
0000
0010
0000
0000
1000
0000
0000
0000
0000
0000
0001
0000
0000
0000
1000
0000
0001
0000
0000
0000
0001
0000
,
01M0
0000
0000
0000
0000
0000
01M0
0000
0000
0000
0000
0000
1000
0000
0000
0000
0000
0000
0100
0000
0000
0001
0000
0000
0000
0000
0000
0100
0000
0000
1000
0000
0000
0000
0000
0000
0001
0000
0000
0000
1000
0000
0020
0000
0000
0000
0000
0000
,
0230
0000
0000
0000
0000
0000
0302
0000
0000
0000
0000
0000
1003
0000
0000
0000
0000
0000
0100
0000
0000
0001
0000
0000
0000
0000
0000
0100
0000
0000
0010
0000
0000
0000
0000
0000
0001
0000
0000
0000
1000
0000
0001
0000
0000
0000
0001
0000
,
0M10
0000
0M10
0000
1000
0000
0010
0001
0000
0010
0100
0000
0002
0000
2003
0000
,
3200
0000
0320
0000
0031
0000
1000
0010
0000
0100
0000
0010
0000
1000
0001
0000
,
1000
0000
0000
0010
0000
0000
0110
0000
0000
0100
0000
0000
0101
0000
0000
0001
0000
0000
1001
0000
1000
0100
0000
0000
,
0020
0001
0001
0001
0100
0100
0100
0130
,
0200
1000
1000
1000
0010
0010
0010
0000
,
0320
0000
0000
0032
0000
0000
2003
0000
0000
3020
0000
0000
0230
0000
0000
0302
,
1000
1003
1000
1000
2000
0000
3020
0000
,
0030
0000
0000
0000
,
0M00
0000
0000
0000
,
000M
0000
0000
0000
;

//---------------dance-single - warpdr!ve----------------
#NOTES:
     dance-single:
     warpdr!ve:
     Hard:
     8:
     0.434,0.417,0.016,0.160,0.189:
0000
0000
0000
0000
,
0000
0000
0000
0000
,
1000
0010
1000
1000
0010
1000
0000
0001
,
0001
0010
0001
1000
0010
0100
0001
1000
,
0001
0010
0100
1000
0100
1000
0100
1000
,
0001
0100
0010
1000
0100
1000
0100
1000
,
0001
0100
0001
0001
0100
0001
0000
1000
,
1000
0100
0010
0001
1000
0010
0100
0001
,
1000
1000
1000
0001
0001
0001
0010
0010
,
0001
0001
0001
1000
1000
1000
0010
0010
,
1000
0001
1000
0000
0001
0010
0001
0000
1000
0010
1000
0000
0001
1000
0001
0000
,
0M00
0000
00M0
0000
0M00
0000
00M0
0000
0M00
0000
00M0
0000
2M02
0000
0000
3003
,
20M0
0000
0000
0000
3010
0000
0000
0010
0000
0000
0010
0000
0100
0000
0100
0000
,
00M1
0000
0001
0000
10M0
0000
0000
1000
0000
0000
1000
0000
0100
0000
0001
0000
,
0100
0000
1000
0000
0001
0000
0000
0001
0000
0000
0001
0000
0100
0000
0100
0000
,
00M1
0000
0001
0000
10M0
0000
0000
1000
0000
0000
1000
0000
0010
0000
0001
0000
,
0010
0000
0100
0000
0001
0000
0000
0001
0000
0000
0001
0000
1000
0000
1000
0000
,
010M
0000
0100
0000
001M
0000
0000
0010
0000
0000
0010
0000
0001
0000
0100
0000
,
1000
0000
0100
0000
0010
0000
0000
0010
0000
0010
0000
0010
0000
0000
1000
0000
,
0001
0010
0001
1000
0010
0100
0001
0100
,
0020
0000
0000
0000
1030
0000
0000
1000
0000
0000
1000
0000
0100
0000
0100
0000
,
10M0
0000
1000
0000
00M1
0000
0000
0001
0000
0000
0001
0000
1000
0000
0100
0000
,
0001
0000
0100
0000
1000
0000
0000
1000
0000
0000
1000
0000
0010
0000
0010
0000
,
M100
0000
0100
0000
M001
0000
0000
0001
0000
0000
0001
0000
0010
0000
1000
0000
,
0010
0000
0100
0000
1000
0000
0000
1000
0000
0000
1000
0000
0001
0000
0001
0000
,
M100
0000
0100
0000
M010
0000
0000
0010
0000
0000
0010
0000
1000
0000
0010
0000
,
0001
0000
0010
0000
1000
0000
0000
1000
0000
1000
0000
1000
0000
0000
0001
0000
,
1000
0100
0010
0001
0100
0010
1000
0010
,
0100
0001
0100
0001
1000
0100
1000
0100
,
0010
0001
0010
0001
1000
0010
1000
0010
,
0200
0001
0001
0001
0001
0001
0001
0301
,
0100
0010
1000
0010
0100
0001
0100
0010
1000
0000
0000
0000
0000
0000
0000
0000
,
0001
0010
0100
1000
0100
1000
0100
1000
,
0001
0100
0001
1000
0100
1000
0100
1000
,
0001
0100
0001
0001
0100
0001
0000
1000
,
1000
0100
0010
0100
1000
0001
0100
0001
,
1000
0100
0010
0001
0001
0010
0100
1000
,
0001
0100
0010
0100
0100
0010
1000
0001
,
1000
0100
1000
0100
1000
0100
0010
0001
0010
0001
0010
0001
,
1M00
0000
00M0
0000
0M00
0000
00M0
0000
0M00
0000
0000
0000
20M2
0000
0000
3003
,
2M00
0000
0000
0000
3001
0000
0000
0001
0000
0000
0001
0000
0100
0000
0100
0000
,
00M1
0000
0001
0000
10M0
0000
0000
1000
0000
0000
1000
0000
0100
0000
0001
0000
,
0100
0000
1000
0000
0001
0000
0000
0001
0000
0000
0001
0000
0100
0000
0100
0000
,
001M
0000
0010
0000
100M
0000
0000
1000
0000
0000
1000
0000
0010
0000
0001
0000
,
0010
0000
1000
0000
0001
0000
0000
0001
0000
0000
0001
0000
1000
0000
1000
0000
,
01M0
0000
0100
0000
10M0
0000
0000
1000
0000
0000
1000
0000
0001
0000
0100
0000
,
1000
0000
0100
0000
0001
0000
0000
0001
0000
0001
0000
0001
0000
0000
1000
0000
,
0001
0010
0001
1000
0010
1000
0001
0100
,
0020
0000
0000
0000
1030
0001
0100
0001
,
2000
0000
0000
0000
3100
0010
0001
0010
,
0002
0000
0000
2003
0000
0000
3020
0000
0000
0230
0000
0000
0302
0000
0000
2003
,
0000
0000
3200
0000
0000
0320
0000
0000
0032
0000
0000
0000
2003
0000
0000
0000
,
3000
0000
0000
0000
;

//---------------dance-single - warpdr!ve----------------
#NOTES:
     dance-single:
     warpdr!ve:
     Easy:
     3:
     0.141,0.167,0.000,0.056,0.000:
0000
0000
0000
0000
,
0000
0000
0000
0000
,
0000
0000
0000
0000
,
0000
0000
0000
0000
,
1000
0010
0010
0010
,
1000
0001
0001
0001
,
0010
0100
1000
0000
,
1000
0010
0100
0001
,
1000
0000
1000
0000
,
0001
0000
0001
0000
,
1000
0010
0100
0001
,
1000
0000
0000
0M00
,
0M01
0000
0000
1000
,
1M00
0M00
0000
0001
,
0001
0000
0000
1000
,
1M00
0M00
0000
0010
,
0010
0000
0000
0100
,
010M
000M
0000
0010
,
0010
0000
0000
0000
,
0100
0001
1000
0001
,
0010
0000
0000
0100
,
010M
000M
0000
1000
,
1000
0000
0000
0001
,
0M01
0M00
0000
1000
,
1000
0000
0000
0010
,
001M
000M
0000
0100
,
0100
0000
0000
0000
,
0001
1000
0100
0010
,
0001
1000
1000
1000
,
0010
0100
0100
0100
,
0002
0000
0000
0000
,
1003
0100
0010
0000
,
0001
1000
1000
1000
,
0010
0100
0100
0100
,
0001
1000
0100
0000
,
0100
1000
0001
1000
,
0010
0000
0010
0000
,
0100
0000
0100
0000
,
0002
0000
2003
0000
,
3001
0000
0000
00M0
,
10M0
0000
0000
0100
,
010M
000M
0000
1000
,
1000
0000
0000
0001
,
00M1
00M0
0000
0100
,
0100
0000
0000
0010
,
001M
000M
0000
0100
,
0100
0000
0000
0000
,
0001
1000
0100
0010
,
0002
0000
0000
0000
,
2003
0000
0000
0000
,
3020
0000
0000
0000
,
0130
0100
0100
0002
,
0003
0000
0000
0000
;

//---------------dance-single - warpdr!ve----------------
#NOTES:
     dance-single:
     warpdr!ve:
     Medium:
     6:
     0.331,0.291,0.000,0.385,0.108:
0000
0000
0000
0000
,
0000
0000
0000
0000
,
0000
0000
0000
0000
,
0000
0000
0000
0000
,
1000
0010
0100
0000
0100
0000
0100
0000
,
0001
1000
0100
0000
0100
0000
0100
0000
,
0010
0000
0000
0001
0000
0000
0000
1000
,
1000
0000
0000
0010
0100
0000
0010
0000
,
1000
0001
1000
0000
0001
1000
0001
0000
,
1000
0100
1000
0000
0001
0010
0001
0000
,
2000
3020
0230
0302
,
0003
0000
0000
20M0
,
30M2
0000
0000
0000
0103
0000
0000
0100
0000
0000
0100
0000
0020
0000
0000
0000
,
1M30
0000
1000
0000
0M01
0000
0000
0001
0000
0000
0001
0000
0020
0000
0000
0000
,
0032
0000
0000
0000
1003
0000
0000
1000
0000
0000
1000
0000
0020
0000
0000
0000
,
M130
0000
0100
0000
M001
0000
0000
0001
0000
0000
0001
0000
2000
0000
0000
0000
,
3200
0000
0000
0000
0310
0000
0000
0010
0000
0000
0010
0000
0002
0000
0000
0000
,
1M03
0000
1000
0000
0M10
0000
0000
0010
0000
0000
0010
0000
0200
0000
0000
0000
,
0302
0000
0000
0000
1003
0000
0000
0100
0000
0010
0000
0002
0000
0000
0000
0000
,
1003
0010
0100
0000
0001
1000
0001
0000
,
2000
0000
0000
0000
3010
0000
0000
0010
0000
0000
0010
0000
0200
0000
0000
0000
,
03M1
0000
0001
0000
10M0
0000
0000
1000
0000
0000
1000
0000
0200
0000
0000
0000
,
2300
0000
0000
0000
3001
0000
0000
0001
0000
0000
0001
0000
0200
0000
0000
0000
,
031M
0000
0010
0000
100M
0000
0000
1000
0000
0000
1000
0000
0002
0000
0000
0000
,
0023
0000
0000
0000
0130
0000
0000
0100
0000
0000
0100
0000
2000
0000
0000
0000
,
30M1
0000
0001
0000
01M0
0000
0000
0100
0000
0000
0100
0000
0020
0000
0000
0000
,
2030
0000
0000
0000
3001
0000
0000
0010
0000
0100
0000
2000
0000
0000
0000
0000
,
3001
0100
0010
0000
1000
0001
0010
0000
,
0002
0100
1000
0100
,
2003
0100
0001
0100
,
3001
1000
0010
0000
0100
0001
1000
0000
,
0001
0010
0100
0000
,
1000
0001
0100
0000
0100
0000
0100
0000
,
0001
1000
0100
0000
0100
0000
0100
0000
,
0010
0000
0000
0001
0000
0000
0000
1000
,
1000
0000
0000
0001
0100
0000
0010
0000
,
1000
0001
1000
0000
0001
1000
0001
0000
,
1000
0100
1000
0000
0001
0010
0001
0000
,
2000
3020
0230
0302
,
1003
0000
0000
00M2
,
20M3
0000
0000
0000
3100
0000
0000
0100
0000
0000
0100
0000
0020
0000
0000
0000
,
0M31
0000
0001
0000
1M00
0000
0000
1000
0000
0000
1000
0000
0020
0000
0000
0000
,
2030
0000
0000
0000
3001
0000
0000
0001
0000
0000
0001
0000
0020
0000
0000
0000
,
0M31
0000
0001
0000
1M00
0000
0000
1000
0000
0000
1000
0000
0002
0000
0000
0000
,
0203
0000
0000
0000
0310
0000
0000
0010
0000
0000
0010
0000
2000
0000
0000
0000
,
3M01
0000
0001
0000
0M10
0000
0000
0010
0000
0000
0010
0000
0200
0000
0000
0000
,
2300
0000
0000
0000
3001
0000
0000
0100
0000
0010
0000
2000
0000
0000
0000
0000
,
3001
0010
0100
0000
1000
0001
1000
0000
,
0020
0000
0000
0000
1030
0001
0100
0001
,
2000
0000
0000
0000
3001
0010
0100
1000
,
0002
0000
0000
0000
1003
0010
0100
0001
,
1000
0100
1000
0100
1000
0001
0100
0010
;
