#TITLE:Nobody's Supposed To Be Here (Dance Mix);
#SUBTITLE:;
#ARTIST:Deborah Cox;
#TITLETRANSLIT:;
#SUBTITLETRANSLIT:;
#ARTISTTRANSLIT:;
#CREDIT:;
#BANNER:[Sentimental Value] - Nobody's Supposed To Be Here (Dance Mix).png;
#BACKGROUND:[Sentimental Value] - Nobody's Supposed To Be Here (Dance Mix)-bg.png;
#LYRICSPATH:;
#CDTITLE:cdtitle.png;
#MUSIC:[Sentimental Value] - Nobody's Supposed To Be Here (Dance Mix).mp3;
#OFFSET:-0.032;
#SAMPLESTART:44.280;
#SAMPLELENGTH:14.087;
#SELECTABLE:YES;
#BPMS:0.000=128.000;
#STOPS:;
#BGCHANGES:;

//---------------dance-single - ----------------
#NOTES:
     dance-single:
     :
     Hard:
     8:
     0.493,0.484,0.655,0.200,0.278: // measure 1
0000
0000
0000
0000
,  // measure 2
0000
0000
0000
0000
,  // measure 3
0000
0000
0000
0000
,  // measure 4
1100
0000
0000
1100
0000
0000
1100
0000
0001
0010
0000
0001
0010
0000
0100
0000
,  // measure 5
0010
0000
0000
0000
0100
0000
0000
0000
1000
0000
0000
0001
0000
0000
1000
0000
,  // measure 6
0010
0000
0000
0000
1000
0000
0000
0000
0001
0000
0000
0010
0000
0000
0001
0000
,  // measure 7
1000
0000
0000
0000
0100
0000
0000
0000
0010
0000
0000
0001
0000
0000
0100
0000
,  // measure 8
0001
0000
0000
0000
1000
0000
0000
0000
0010
0000
0000
1000
0000
0000
1000
0000
,  // measure 9
0100
0000
0000
0000
0010
0000
0000
0000
0001
0000
0000
1000
0000
0000
0001
0000
,  // measure 10
0100
0000
0000
0000
0010
0000
0000
0000
1000
0000
0000
1000
0000
0000
0010
0000
,  // measure 11
0100
0000
0000
0000
0010
0000
0000
0000
1000
0000
0000
0001
0000
0000
0100
0000
,  // measure 12
0010
0000
0000
0000
0000
0000
0010
0000
1000
0001
0000
0001
0000
0000
0010
0000
,  // measure 13
0100
0000
1000
0000
0010
0000
1000
0000
0100
1000
0000
1000
0010
0000
0100
0000
,  // measure 14
0001
0000
0010
0000
0001
0000
0100
0000
0001
0010
0000
0010
0001
0000
1000
0000
,  // measure 15
0100
0000
0010
0000
0001
0000
0010
0000
0100
0010
0000
0010
0001
0000
0010
0000
,  // measure 16
0100
0000
1000
0000
0001
0000
1000
0000
0100
1000
0000
1000
0010
0000
0100
0000
,  // measure 17
0001
0000
0010
0000
0001
0000
0100
0000
0001
1000
0000
1000
0100
0000
0010
0000
,  // measure 18
0001
0000
1001
0000
0000
0011
0000
0000
,  // measure 19
0101
0000
0000
0000
0010
0000
0000
0000
1000
0100
0000
0100
1000
0000
0001
0000
,  // measure 20
0011
0000
0100
0000
1100
0000
0001
0010
,  // measure 21
0100
0000
0000
0000
1000
0000
0010
0100
0000
0010
0100
0000
0001
0000
0010
0000
,  // measure 22
0100
0000
0000
0000
1000
0000
0001
0010
0000
0001
0010
0000
0100
0000
1000
0000
,  // measure 23
0001
0000
0000
0000
0100
0000
0010
1000
0000
0010
1000
0000
0001
0000
0010
0000
,  // measure 24
0100
0000
0000
0000
1000
0000
0010
1000
0000
0010
1000
0000
0001
0000
1000
0000
,  // measure 25
0010
0000
0000
0000
0100
0000
0001
0010
0000
0001
0010
0000
0100
0000
0000
0000
,  // measure 26
0011
1001
1100
0012
,  // measure 27
2000
3003
0202
0303
,  // measure 28
2002
3003
2020
0000
,  // measure 29
3030
0000
2200
3300
,  // measure 30
2002
3003
0022
0033
,  // measure 31
1001
0000
0000
0000
1001
0000
0000
0000
0001
0000
0000
0010
0000
0000
0001
0000
,  // measure 32
1000
0000
0000
0000
0010
0000
0000
0000
1000
0010
0000
0010
0000
0000
0100
0000
,  // measure 33
0001
0000
0010
0000
0100
1000
0100
0010
,  // measure 34
0001
1000
1000
0000
1100
0000
0011
0000
,  // measure 35
1100
0000
0000
0000
0001
0000
0000
0000
0010
0000
0000
0100
0000
0000
1000
0000
,  // measure 36
1100
0000
0000
0000
0001
0000
0000
0000
0001
1000
0000
1000
0000
0000
0010
0000
,  // measure 37
0101
0010
2001
3100
,  // measure 38
1200
0310
0012
1003
,  // measure 39
0110
0000
0000
0000
1000
0000
0000
0000
0011
0000
0000
0011
0000
0000
1100
0000
,  // measure 40
0011
0000
0000
0000
0000
0000
0000
0000
0000
1001
0000
1001
0000
0000
1010
0000
,  // measure 41
0101
0000
0000
0000
0000
0000
0000
0000
1010
0000
0000
1010
0000
0000
0101
0000
,  // measure 42
1001
0100
1100
1001
,  // measure 43
0011
0000
0000
0000
0000
0000
0000
0000
0110
0000
0000
0110
0000
0000
1100
0000
,  // measure 44
0110
0000
0000
0000
0000
0000
0000
0000
0000
1001
0000
1001
0000
0000
0101
0000
,  // measure 45
0110
0000
0000
0000
0000
0000
0000
0000
1010
0000
0000
1010
0000
0000
0101
0000
,  // measure 46
1010
0000
0002
0000
0000
0000
0003
0000
0000
1001
0000
1001
0000
0000
1001
0000
;

//---------------dance-single - ----------------
#NOTES:
     dance-single:
     :
     Medium:
     6:
     0.386,0.382,0.322,0.167,0.017:
0000
0000
0000
0000
,
0000
0000
0000
0000
,
0000
0000
0000
0000
,
0000
0000
0000
0000
,
0001
0000
0010
0100
1000
0100
0010
0000
,
0001
0000
0100
0000
0001
0010
0100
1000
,
0010
0000
1000
0010
0100
0000
0001
0000
,
0010
0000
0001
0000
0100
0001
1000
0001
,
0010
0000
0100
1000
0010
0100
0001
0000
,
0001
0010
0100
0000
1000
0001
0100
0001
,
1000
0000
0010
0000
1000
0100
0010
0000
,
0001
0000
1000
0010
0100
0001
0010
0100
,
1000
0000
0001
0000
1000
0100
1000
0100
,
0010
0000
0001
0000
0010
0001
0010
0100
,
1001
0000
0000
0101
0000
2002
0000
0000
,
3003
0000
0001
0000
0010
0000
0100
1000
,
0010
1000
0100
0100
,
0010
0001
0010
0000
0100
1000
0100
0000
,
0010
1001
0100
0010
,
1000
0100
1000
0100
0010
0001
0010
0001
,
1000
0000
0100
0000
1000
0010
0100
0001
,
1000
0100
2100
3001
,
0001
0010
0100
0000
0010
0100
1000
0000
,
0010
0010
0100
0101
,
1010
0001
1100
1100
,
1001
0000
0100
0000
0010
0000
0001
0010
,
0100
1000
0202
0303
,
2002
3003
2020
0000
,
0000
3030
2002
3003
,
0022
0033
0220
0330
,
1100
0000
0101
0000
0010
1000
0001
1000
,
0010
0000
0100
0000
0001
0010
0100
1000
,
0001
0000
0100
0000
0001
0010
0100
1000
,
0010
1000
1100
0011
,
1100
0000
0001
0010
0100
0000
1000
0000
,
0001
0000
1000
0010
0100
0000
0001
0000
,
1000
1100
0001
0101
,
1000
1001
0010
0101
,
0010
1000
0100
0100
,
0100
0100
0100
0000
,
0000
0000
0000
0010
0001
0010
0100
1000
,
0001
0010
0100
1000
,
0000
0000
0010
1000
0100
0000
1000
0000
,
0010
0100
0001
1000
,
0100
0000
0000
0000
0000
0000
0000
0000
1000
0000
0000
1000
0000
0000
1000
0000
,
1000
0000
0101
0000
0000
0000
0000
0000
0000
1001
0000
1001
0000
0000
1001
0000
;

//---------------dance-single - ----------------
#NOTES:
     dance-single:
     :
     Easy:
     3:
     0.233,0.331,0.167,0.000,0.000:
0000
0000
0000
0000
,
0000
0000
0000
0000
,
0000
0000
0000
0000
,
0000
0000
0000
0000
,
0001
0010
0100
1000
,
0001
0000
1000
1000
,
0100
0000
1000
0010
,
0100
0000
0001
0001
,
0001
0000
0010
0010
,
0100
0000
1000
0010
,
1000
0000
0001
0010
,
0100
0000
1000
1000
,
0010
1000
0100
1000
,
0010
1000
0100
1000
,
0010
0100
0001
0100
,
0010
0100
0001
0100
,
0010
0010
0010
0000
,
1000
1000
1000
0000
,
0001
0010
0100
0000
,
1000
0100
0010
0001
,
1001
0100
0100
0100
,
1001
0100
0100
0100
,
0010
0001
0010
0000
,
0100
1000
0100
0000
,
1000
0010
0100
0000
,
0001
0001
0001
0001
,
1000
0000
1100
0000
,
1100
0000
1100
0000
,
0000
0000
0101
0000
,
0101
0000
0101
0000
,
1010
1001
0010
0100
,
0010
0000
0001
0001
,
0010
0000
0001
0010
,
0000
0100
0100
1000
,
0010
1000
0010
0100
,
0000
0010
0100
0001
,
1000
1100
0001
0101
,
1000
1100
0001
0101
,
0010
0000
1000
1000
,
1000
1000
1000
0000
,
0000
0000
0001
0010
,
0100
1000
0001
1000
,
0100
0000
0010
0000
,
0100
1000
0010
0010
,
0000
0000
0100
0100
,
0100
0000
0000
0000
0000
0000
0000
1001
;

//---------------dance-single - ----------------
#NOTES:
     dance-single:
     :
     Beginner:
     1:
     0.105,0.171,0.111,0.000,0.000:
0000
0000
0000
0000
,
0000
0000
0000
0000
,
0000
0000
0000
0000
,
0000
0000
0000
0000
,
1001
0000
0000
0000
,
0000
0000
0000
0000
,
0100
0000
0000
0000
,
0000
0000
0000
0000
,
0010
0000
0000
0000
,
0000
0000
0000
0000
,
1000
0000
0000
0000
,
1000
0000
0000
0000
,
0110
0000
0000
0000
,
0010
0000
0010
0000
,
0010
0000
0000
0000
,
1000
0000
1000
0000
,
1000
0000
0000
0000
,
0100
0000
0000
0000
,
0010
0000
0000
0000
,
0100
0000
0000
0000
,
1001
0000
0000
0000
,
0010
0000
0000
0000
,
0100
0100
0100
0000
,
0010
0000
0000
0000
,
1000
0000
0000
0000
,
1000
1000
1000
0000
,
0000
0000
1001
0000
,
1001
0000
1001
0000
,
0000
0000
1001
0000
,
1001
0000
1001
0000
,
1000
0000
0000
0000
,
0100
0000
0000
0000
,
1000
0000
0010
0010
,
0010
0000
0100
0000
,
0000
0010
0010
0010
,
0000
0010
0010
0010
,
0000
1000
0000
1000
,
0000
1000
0000
1000
,
0000
0000
1000
1000
,
1000
0000
0000
0000
,
0010
0000
0000
0000
,
0100
0000
0000
0000
,
0010
0000
0000
0000
,
0100
0000
0000
0000
,
1001
0000
0000
0000
;
