#VERSION:0.83;
#TITLE:NORTH;
#SUBTITLE:;
#ARTIST:WALL5;
#TITLETRANSLIT:;
#SUBTITLETRANSLIT:;
#ARTISTTRANSLIT:;
#GENRE:;
#ORIGIN:;
#CREDIT:;
#BANNER:;
#BACKGROUND:;
#PREVIEWVID:;
#JACKET:;
#CDIMAGE:;
#DISCIMAGE:;
#LYRICSPATH:;
#CDTITLE:;
#MUSIC:13.NORTH.mp3;
#OFFSET:-0.340000;
#SAMPLESTART:29.900000;
#SAMPLELENGTH:13.800000;
#SELECTABLE:YES;
#BPMS:0.000=138.000;
#STOPS:;
#DELAYS:;
#WARPS:;
#TIMESIGNATURES:0.000=4=4;
#TICKCOUNTS:0.000=4;
#COMBOS:0.000=1;
#SPEEDS:0.000=1.000=0.000=0;
#SCROLLS:0.000=1.000;
#FAKES:;
#LABELS:0.000=Song Start;
#BGCHANGES:;
#KEYSOUNDS:;
#ATTACKS:
;

//---------------dance-single - ----------------
#NOTEDATA:;
#CHARTNAME:;
#STEPSTYPE:dance-single;
#DESCRIPTION:;
#CHARTSTYLE:;
#DIFFICULTY:Beginner;
#METER:1;
#RADARVALUES:0.172316,0.251858,0.106147,0.250893,0.000000,125.000000,114.000000,11.000000,26.000000,0.000000,0.000000,0.000000,0.000000,0.000000,0.172316,0.251858,0.106147,0.250893,0.000000,125.000000,114.000000,11.000000,26.000000,0.000000,0.000000,0.000000,0.000000,0.000000;
#CREDIT:;
#NOTES:
0000
0000
0000
0000
,
0000
0000
0000
0000
,
0000
0000
0000
0000
,
0000
0000
0000
0000
,
0100
0000
0010
0000
,
0001
0000
1000
0000
,
0100
0000
1000
0000
,
0001
0000
0010
0000
,
2000
0000
0000
3000
,
0200
0000
0000
0300
,
0002
0000
0000
0003
,
0020
0000
0000
0030
,
1000
0000
1000
0000
,
0100
0000
0100
0000
,
0001
0000
0001
0000
,
0010
0000
0010
0000
,
0220
0000
0000
0330
,
0100
0000
0100
0001
,
0001
0000
0001
1000
,
1000
0000
1000
0010
,
0010
0000
0010
0100
,
0100
0000
1000
0001
,
1000
0000
0010
1000
,
0010
0000
0001
0100
,
0001
0000
0100
0000
,
2000
0000
3100
0000
,
0002
0000
1003
0000
,
0020
0000
0130
0000
,
2000
0000
3010
0000
,
0200
0000
0301
0000
,
0002
0000
1003
0000
,
0200
0000
0310
0000
,
0002
0000
1003
0000
,
1001
0000
0001
0000
,
0101
0000
0100
0000
,
0110
0000
0010
0000
,
1010
0000
1000
0000
,
2001
0000
3100
0000
,
0210
0000
0301
0000
,
0012
0000
0103
0000
,
0210
0000
0310
0010
,
0020
0000
0000
0000
,
2030
0000
0000
0000
,
3002
0000
0000
0000
,
0203
0000
0000
0000
,
0301
0000
0001
0000
,
1000
0000
1000
0000
,
0010
0000
0100
0000
,
0220
0000
0000
0330
,
0100
0000
0001
0100
,
0001
0000
0010
0100
,
0010
0000
1000
0100
,
1000
0000
0001
1000
,
0001
0000
0100
0001
,
0100
0000
0010
1000
,
0010
0000
0010
0100
,
0010
0100
0001
1000
,
2002
0000
0000
0000
,
3003
0000
0000
0000
;

//---------------dance-single - ----------------
#NOTEDATA:;
#CHARTNAME:;
#STEPSTYPE:dance-single;
#DESCRIPTION:;
#CHARTSTYLE:;
#DIFFICULTY:Easy;
#METER:3;
#RADARVALUES:0.264678,0.307826,0.106147,0.443887,0.009650,192.000000,181.000000,11.000000,46.000000,0.000000,0.000000,0.000000,0.000000,0.000000,0.264678,0.307826,0.106147,0.443887,0.009650,192.000000,181.000000,11.000000,46.000000,0.000000,0.000000,0.000000,0.000000,0.000000;
#CREDIT:;
#NOTES:
0000
0000
0000
0000
,
0000
0000
0000
0000
,
0000
0000
0000
0000
,
0000
0000
0000
0000
,
0100
0001
1000
0100
,
0001
1000
0010
0100
,
0001
0010
1000
0100
,
0001
0010
1000
1001
,
2000
0000
3002
0000
,
0203
0000
0320
0000
,
2030
0000
3200
0000
,
0320
0000
0032
0000
,
0203
0010
0320
1000
,
2030
0001
3002
0100
,
0203
0001
0302
1000
,
2003
0010
3020
0130
,
0220
0000
0000
0330
,
0001
0100
0001
1000
,
0100
1000
0100
0010
,
0001
0010
0001
1000
,
0001
1000
0001
0010
,
0100
1000
0010
0100
,
0001
0010
0001
0100
,
0001
1000
0100
0010
,
0001
1000
2002
3003
,
2000
0000
3010
0100
,
0002
0000
0103
0010
,
0200
0000
0301
1000
,
0020
0000
1030
0001
,
0200
0001
0310
1000
,
0002
1000
0013
0100
,
2000
0100
3010
0001
,
0020
0001
0130
1000
,
2001
0000
0001
3010
,
0120
0000
1000
0130
,
0102
0000
1000
0103
,
2001
0000
0010
3100
,
1200
0000
0010
0310
,
0010
0000
0000
0100
0000
0000
0010
0000
0000
0100
0000
0000
0010
0000
0000
0000
,
0120
0000
0100
0130
,
1000
0100
0010
0001
,
0002
0000
0203
0000
,
0320
0000
2030
0000
,
3200
0000
0320
0000
,
0032
0000
2003
0000
,
3001
0001
0100
0100
,
0010
0010
1000
1000
,
0001
1000
0100
0010
,
0220
0000
0000
0330
,
0001
0100
0010
1000
,
0100
0010
0001
1000
,
0010
0100
0001
0100
,
0010
1000
0100
1000
,
0001
1000
0010
0100
,
0001
0010
1000
0100
,
0001
1000
0100
0010
,
0001
0010
0100
1000
,
2002
0000
0000
0000
,
3003
0000
0000
0000
;

//---------------dance-single - ----------------
#NOTEDATA:;
#CHARTNAME:;
#STEPSTYPE:dance-single;
#DESCRIPTION:;
#CHARTSTYLE:;
#DIFFICULTY:Medium;
#METER:6;
#RADARVALUES:0.410802,0.447747,0.125446,0.453537,0.221943,298.000000,285.000000,13.000000,47.000000,0.000000,0.000000,0.000000,0.000000,0.000000,0.410802,0.447747,0.125446,0.453537,0.221943,298.000000,285.000000,13.000000,47.000000,0.000000,0.000000,0.000000,0.000000,0.000000;
#CREDIT:;
#NOTES:
0000
0000
0000
0000
,
0000
0000
0000
0000
,
0000
0000
0000
0000
,
0000
0000
0000
0000
,
0002
0000
0103
0000
0100
0010
1000
0000
,
0100
0010
0001
0010
0200
0000
0301
0000
,
2000
0000
3010
0000
0010
0100
0001
0000
,
1000
0100
0010
0001
1000
0000
1001
0000
,
2000
0000
0000
0001
0000
0000
0001
0000
3002
0000
0000
0100
0000
0000
0100
0000
,
0203
0000
0000
0010
0000
0000
0010
0000
0320
0000
0000
1000
0000
0000
1000
0000
,
2030
0000
0000
0001
0000
0000
0001
0000
3002
0000
0000
0100
0000
0000
0100
0000
,
0203
0000
0000
0010
0000
0000
0010
0000
0320
0000
0000
1000
0000
0000
1000
0000
,
1030
0000
0000
1000
0000
0000
1000
0000
0100
0000
0000
0100
0000
0000
0100
0000
,
0010
0000
0000
0010
0000
0000
0010
0000
0001
0000
0000
0001
0000
0000
0001
0000
,
0100
0000
0000
0100
0000
0000
0100
0000
0010
0000
0000
0010
0000
0000
0010
0000
,
1000
0000
0000
1000
0000
0000
1000
0000
0001
0000
0000
0001
0000
0000
0001
0000
,
2002
0000
0000
3003
,
1000
0000
0000
0001
0000
0000
1000
0000
0010
0000
0000
0100
0000
0000
0010
0000
,
0100
0000
0000
0001
0000
0000
0100
0000
0010
0000
0000
1000
0000
0000
0010
0000
,
1000
0000
0000
0001
0000
0000
1000
0000
0010
0000
0000
1000
0000
0000
0010
0000
,
0100
0000
0000
0001
0000
0000
0100
0000
0001
0000
0000
0010
0000
0000
0001
0000
,
1000
0000
0000
0100
0000
0000
1000
0000
0010
0000
0000
0100
0000
0000
0010
0000
,
1000
0000
0000
0010
0000
0000
1000
0000
0001
0000
0000
0100
0000
0000
0001
0000
,
0010
0000
0000
0100
0000
0000
0010
0000
0100
0000
0000
0001
0000
0000
0100
0000
,
0010
0100
0010
0100
0010
0000
0110
0000
,
2000
0000
3100
1000
0200
0000
1300
0001
,
1000
0100
0010
0001
2000
0000
3001
1000
,
0002
0000
0103
0010
0200
0000
0301
0100
,
0002
0000
0103
0001
0200
0000
0310
0100
,
0020
0000
1030
0010
2000
0000
3010
0100
,
0001
0010
0100
1000
0002
0000
1003
0001
,
2000
0000
3010
1000
0020
0000
0130
0010
,
0200
0000
0301
0100
0002
0000
1003
0000
,
1001
0000
1000
0001
1000
0000
1001
0000
,
0110
0000
0010
0100
0010
0100
0010
0000
,
1010
0000
1000
0000
0010
1000
0010
0000
,
1001
0000
1000
0100
0010
0001
1000
0000
,
1001
0000
0001
0100
0010
0100
0001
0100
,
0100
0000
0000
0110
0000
0000
0010
0000
0000
0110
0000
0000
0100
0000
0000
0000
,
0010
0100
0010
0100
0010
0000
0100
0000
,
2000
0000
3002
0000
1003
0100
0010
0001
,
2000
0000
3020
0000
,
0230
0000
0302
0000
,
2003
0000
3002
0000
,
0203
0000
0320
0000
,
2030
0001
3002
0100
,
0203
0010
0320
1000
,
2030
0001
3002
1003
,
2002
0000
0000
3003
,
0001
0000
0000
0100
0000
0000
0001
0000
1000
0000
0000
0010
0000
0000
1000
0000
,
0001
0000
0000
1000
0000
0000
0001
0000
1000
0000
0000
0010
0000
0000
1000
0000
,
0001
0000
0000
0100
0000
0000
0001
0000
1000
0000
0000
0010
0000
0000
1000
0000
,
0100
0000
0000
0010
0000
0000
0100
0000
0010
0000
0000
0001
0000
0000
0010
0000
,
0001
0000
0000
0001
0000
0000
0001
0000
1000
0000
0000
1000
0000
0000
1000
0000
,
0010
0000
0000
0010
0000
0000
0010
0000
0100
0000
0000
0100
0000
0000
0100
0000
,
0001
0000
0000
0001
0000
0000
0001
0000
1000
0000
0000
1000
0000
0000
1000
0000
,
0001
0100
0010
1000
0100
0010
0001
0000
,
2002
0000
0000
0000
,
3003
0000
0000
0000
;

//---------------dance-single - ----------------
#NOTEDATA:;
#CHARTNAME:;
#STEPSTYPE:dance-single;
#DESCRIPTION:;
#CHARTSTYLE:;
#DIFFICULTY:Hard;
#METER:10;
#RADARVALUES:0.614825,0.727589,0.077198,0.318441,0.632056,446.000000,438.000000,8.000000,33.000000,0.000000,0.000000,0.000000,0.000000,0.000000,0.614825,0.727589,0.077198,0.318441,0.632056,446.000000,438.000000,8.000000,33.000000,0.000000,0.000000,0.000000,0.000000,0.000000;
#CREDIT:;
#NOTES:
// measure 0
0000
0000
0000
0000
,  // measure 1
0000
0000
0000
0000
,  // measure 2
0000
0000
0000
0000
,  // measure 3
0000
0000
0000
0000
,  // measure 4
0002
0000
0000
0000
0103
0000
0000
0001
0100
0000
0010
0000
1000
0000
0100
0000
,  // measure 5
0010
0001
1000
0100
2000
0000
3001
0100
,  // measure 6
0020
0000
0000
0000
1030
0000
0000
0001
1000
0000
0010
0000
0100
0000
0001
0000
,  // measure 7
1000
0100
0010
0001
1000
0000
1001
0000
,  // measure 8
1000
0001
0000
1000
0000
0000
0001
0000
0100
0010
0000
0100
0000
0000
0010
0000
,  // measure 9
1000
0100
0000
1000
0000
0000
0100
0000
0010
0001
0000
0010
0000
0000
0001
0000
,  // measure 10
0100
0001
0000
0100
0000
0000
0001
0000
1000
0010
0000
1000
0000
0000
0010
0000
,  // measure 11
0100
0010
0000
0100
0000
0000
0010
0000
0100
0001
0000
0100
0000
0000
0001
0000
,  // measure 12
1000
0100
0001
0100
0010
1000
0001
0100
,  // measure 13
0001
1000
0010
0100
0001
0010
0100
1000
,  // measure 14
0010
0100
0001
1000
0100
0010
0001
1000
,  // measure 15
0001
1000
0001
1000
0001
1000
0001
1000
0001
1000
0001
1000
0001
1000
0001
0000
,  // measure 16
2002
0000
0000
3003
,  // measure 17
1001
0000
1000
0000
0001
1000
0000
0000
0001
0000
0100
0000
0001
0100
0000
0001
,  // measure 18
1000
0000
0010
0000
1000
0010
0000
0000
0100
0000
0001
0000
0100
0001
0000
0001
,  // measure 19
1000
0000
0100
0000
1000
0010
0000
0000
1000
0000
0001
0000
0100
0010
0000
0100
,  // measure 20
0001
0000
1000
0000
0100
0010
0000
0000
0100
0000
0001
0000
1000
0001
0000
1000
,  // measure 21
0001
0000
0100
0000
0001
0100
0000
0000
0001
0000
1000
0000
0010
1000
0000
0010
,  // measure 22
0100
0000
0001
0000
1000
0100
0000
0000
0001
0000
0100
0000
0010
0100
0000
0010
,  // measure 23
1000
0000
0001
0000
1000
0100
0000
0000
0010
0000
0100
0000
0010
0100
0000
0001
,  // measure 24
0100
0000
0010
0000
0100
0010
0100
0010
0100
0010
0100
0010
0100
0000
0000
0000
,  // measure 25
2000
0000
3100
0010
0002
0000
0103
0010
,  // measure 26
1000
0000
0001
1000
0001
0000
0100
0000
0020
0000
0000
0000
0130
0000
0001
0000
,  // measure 27
2000
0000
3001
0100
0020
0000
1030
0100
,  // measure 28
0002
0000
0013
0100
2000
0000
3001
1000
,  // measure 29
0002
0000
0103
0010
2000
0000
3100
0010
,  // measure 30
0100
0000
0010
0001
0010
0000
0100
0000
2000
0000
0000
0000
3001
0000
0100
0000
,  // measure 31
0002
0000
1003
0100
2000
0000
3010
0100
,  // measure 32
0020
0000
0130
0010
0200
0000
0301
0000
,  // measure 33
0101
0000
0001
0000
0100
0001
0000
0100
0001
0100
0000
0000
0010
0000
1000
0000
,  // measure 34
0010
0000
0100
0000
0001
1000
0001
1000
0001
1000
0000
0000
0001
0000
1000
0001
,  // measure 35
1000
0000
0010
0000
0100
0000
0000
0000
0100
0000
0001
0000
0010
0000
0100
0010
,  // measure 36
0100
0000
0010
0100
0001
0100
0010
0100
0001
0100
0010
0100
0001
0000
2000
0000
,  // measure 37
3100
0000
0001
0000
0100
0001
0000
0100
0001
0100
0010
0000
0100
0001
1000
0001
,  // measure 38
1000
0000
0001
1000
0000
0001
1000
0000
0001
1000
0000
0001
1000
0000
0000
0000
,  // measure 39
0100
0000
0010
0100
0010
0000
0100
0010
0100
0010
0000
0000
0110
0000
0000
0000
,  // measure 40
1000
0010
0000
0000
0200
0000
0301
0000
0010
0000
0100
0000
1000
0000
0001
0000
,  // measure 41
2001
0000
0000
0001
0000
0000
0001
0000
3002
0000
0000
0100
0000
0000
0100
0000
,  // measure 42
0203
0000
0000
0010
0000
0000
0010
0000
0320
0000
0000
1000
0000
0000
1000
0000
,  // measure 43
2030
0000
0000
0100
0000
0000
0100
0000
3200
0000
0000
0010
0000
0000
0010
0000
,  // measure 44
0320
0000
0000
0001
0000
0000
0001
0000
0032
0000
0000
1000
0000
0000
1000
0000
,  // measure 45
1003
0010
0000
1000
0000
0010
1000
0010
0100
0010
0000
0100
0000
0010
0100
0010
,  // measure 46
1000
0100
0000
1000
0000
0100
1000
0100
1000
0010
0000
1000
0000
0010
1000
0010
,  // measure 47
1000
0100
0010
0001
0100
0010
1000
0002
,  // measure 48
2000
0000
0000
3003
,  // measure 49
1001
0000
1000
0000
0001
1000
0000
0000
0010
0000
0100
0000
0001
0100
0000
0001
,  // measure 50
1000
0000
0010
0000
1000
0001
0000
0000
0001
0000
0100
0000
0010
1000
0000
0010
,  // measure 51
0100
0000
0001
0000
1000
0001
0000
0000
0100
0000
0001
0000
0100
0001
0000
1000
,  // measure 52
0001
0000
0100
0000
0010
0100
0000
0000
0001
0000
0100
0000
1000
0010
0000
1000
,  // measure 53
0001
0000
0100
0000
0001
0100
0000
0001
1000
0000
0100
0000
1000
0010
0000
1000
,  // measure 54
0100
0000
0010
0000
0100
0001
0000
0100
0010
0000
1000
0000
0100
1000
0000
0100
,  // measure 55
0010
0000
1000
0000
0001
1000
0000
0001
1000
0000
0001
0000
0100
0010
0000
0100
,  // measure 56
0010
0100
0000
0000
0001
1000
0001
1000
0001
1000
0001
1000
0001
0000
0000
0000
,  // measure 57
2002
0000
0000
0000
,  // measure 58
3003
0000
0000
0000
;
