#TITLE:瞬く星の下で;
#SUBTITLE:;
#ARTIST:Porno Graffiti;
#TITLETRANSLIT:Matataku Hoshi no Shita de;
#SUBTITLETRANSLIT:;
#ARTISTTRANSLIT:Porno Graffiti;
#GENRE:;
#CREDIT:;
#BANNER:[Sentimental Value] - Matataku Hoshi no Shita de.png;
#BACKGROUND:[Sentimental Value] - Matataku Hoshi no Shita de-bg.png;
#LYRICSPATH:;
#CDTITLE:;
#MUSIC:[Sentimental Value] - Matataku Hoshi no Shita de.ogg;
#OFFSET:0.000000;
#SAMPLESTART:47.200001;
#SAMPLELENGTH:14.000000;
#LASTBEATHINT:196.503769;
#SELECTABLE:YES;
#BPMS:0.000000=135.000000
;
#STOPS:25.000000=0.889000,
98.000000=0.222000,
98.500000=0.222000,
99.000000=0.222000,
99.500000=0.222000,
189.000000=0.888000
;
#BGCHANGES:-3.350=[Sentimental Value] - Matataku Hoshi no Shita de.avi=1.000=1=0=0=StretchNoLoop==CrossFade==,
99999=-nosongbg-=1.000=0=0=0 // don't automatically add -songbackground-
;
#KEYSOUNDS:;
#ATTACKS:;

//---------------dance-single - ----------------
#NOTES:
     dance-single:
     :
     Hard:
     9:
     0.610053,0.676142,0.394188,0.120446,0.421562,390.000000,354.000000,36.000000,11.000000,0.000000,0.000000,0.610053,0.676142,0.394188,0.120446,0.421562,390.000000,354.000000,36.000000,11.000000,0.000000,0.000000:
0000
0000
0000
0000
,
0000
0000
0000
0000
,
0000
0000
0000
0000
,
0000
0000
0000
0000
0000
0000
0000
0110
,
0000
1001
0000
0011
0000
1100
0000
0200
,
0000
0000
0000
0000
0310
0000
0000
0001
0100
0000
0001
0000
1000
0000
0200
0000
,
0010
0000
0010
0000
0310
0000
1001
0000
0000
0000
0001
0000
0100
0000
0000
0100
,
0010
0000
1000
0000
0000
0000
1010
0000
0000
0000
1000
0000
0100
0000
0000
0100
,
0010
0000
0001
0000
0100
0001
0010
0000
0000
0000
0001
0000
0010
0000
0000
0010
,
0100
1000
0010
0110
0000
0001
1000
1001
,
0000
1000
0100
0000
0010
0001
0010
0001
0100
0000
0100
0000
0010
0000
1000
0001
,
1000
0010
0000
0000
1010
0000
0001
1000
0100
0000
0100
0000
0010
0000
0001
1000
,
0001
0100
0000
0000
0101
0000
0001
0100
0010
0000
0010
0000
2000
0000
3100
0000
,
0000
0010
0001
0000
1000
0000
0100
0000
1000
0000
0000
0000
0002
0000
0013
0000
,
0000
0100
1000
0000
0010
1000
0010
1000
0100
0000
0100
0000
0010
0000
0001
1000
,
0001
0010
0000
0000
0011
0000
1000
0001
0100
0000
0100
0000
0010
0000
1000
0001
,
1000
0100
0000
0000
1100
0000
1000
0100
0010
0000
0010
0000
0002
0000
0103
0000
,
0000
0010
1000
0000
0001
0000
0100
0000
0001
0100
0001
0100
0010
1000
0010
1000
,
0100
0010
0100
0010
0001
0000
0000
0000
0101
0000
0001
0000
1000
0000
0100
0000
,
1000
0100
1000
0100
0010
0000
0000
0000
1100
0000
1000
0000
0001
0000
0010
0000
,
0000
0001
0100
0000
0010
0000
0100
0000
0001
0000
1010
0000
0000
0000
0011
0000
,
0000
0001
1000
0000
0110
0000
0000
0000
1000
0000
0101
0000
0000
0000
1100
0000
,
0000
1000
0001
0000
1001
0000
1000
0000
0100
0000
0010
0000
0001
0000
0100
0000
,
0001
0100
0001
0100
0010
0000
0000
0000
1000
0000
0100
0000
0010
0000
0001
0000
,
0100
0000
0010
0000
1000
0001
1000
0000
1010
0000
1100
0000
0101
0000
0011
0000
,
0001
0010
0000
0000
0110
0000
0100
1000
0000
1000
0010
1000
0001
0010
0001
0000
,
0000
0000
0001
0000
0010
0000
0100
0000
1000
0010
1000
0000
0001
0000
0010
0000
,
0000
0000
0001
0000
0100
0000
0001
0000
0000
0010
0100
0000
1000
0000
0010
1000
,
0001
0000
0000
0100
1000
0000
0000
0100
0001
0000
0010
0000
0100
0000
2100
0000
,
0000
0000
3001
0000
0010
0000
0001
0000
0100
0001
0100
0001
1000
0010
1000
0000
,
0000
0000
1000
0000
0010
0000
0100
0000
0001
0010
0001
0000
1000
0000
0010
0000
,
0000
0000
1000
0000
0100
0000
1000
0000
0000
0010
0100
0000
0001
0000
0010
0000
,
0000
0001
1000
0010
0010
1000
0001
0100
,
0000
0000
0001
0010
0001
0010
0100
1000
0100
0000
0010
0000
0000
0000
2001
0000
,
0000
0000
3010
0000
0100
0001
0010
0001
,
0000
0000
1000
0000
0010
0000
1000
0100
1000
0100
0010
0001
0010
0001
0100
0000
,
0001
0000
0000
0010
1000
0000
0000
0010
0001
0000
0100
0010
0100
0010
0100
0000
,
1001
1001
0000
0000
0110
0110
0000
1001
,
0000
0000
1000
0000
0100
0000
0010
0000
0001
0100
0001
0000
1000
0000
0100
0000
,
0000
0000
1000
0000
0010
0000
1000
0000
0000
0100
0010
0000
0001
0000
0100
0001
,
1000
0000
0000
0010
0001
0000
0010
0000
1000
0000
0100
0000
0010
0000
0012
0000
,
0000
0000
1003
0000
0100
0000
1000
0000
0010
1000
0010
1000
0001
0100
0001
0000
,
0000
0000
0001
0000
0100
0000
0010
0000
1000
0100
1000
0000
0001
0000
0100
0000
,
0000
0000
0001
0000
0010
0000
0001
0000
0000
0100
0010
0000
1000
0000
0020
0000
,
0000
1030
0001
0010
0001
1000
0010
0100
,
0000
0000
0001
0100
0001
0100
0010
1000
0010
0000
0100
0000
0000
0000
1002
0000
,
0000
0000
0013
0000
0100
1000
0000
2100
,
0000
0001
3001
0000
1001
0000
0000
0000
;

//---------------dance-single - ----------------
#NOTES:
     dance-single:
     :
     Easy:
     4:
     0.228379,0.364076,0.164245,0.065698,0.000000,146.000000,131.000000,15.000000,6.000000,0.000000,0.000000,0.228379,0.364076,0.164245,0.065698,0.000000,146.000000,131.000000,15.000000,6.000000,0.000000,0.000000:
0000
0000
0000
0000
,
0000
0000
0000
0000
,
0000
0000
0000
0000
,
0000
0000
0000
0000
0000
0000
0000
0010
,
0000
0010
0000
0010
0000
0010
0000
1001
,
0000
0000
0000
0000
1000
0000
0000
0001
,
0000
0000
0110
0001
0000
0000
1000
0000
,
0001
0000
0000
0100
0000
0000
0001
0000
,
1000
0000
0000
0010
0000
0000
1000
0000
,
0001
0000
0000
0011
0000
0000
0000
1100
,
0000
0000
1000
1000
,
1000
0000
0001
0001
,
0001
0000
0010
0001
,
0100
0000
0010
0000
,
0100
0000
0001
0001
,
0001
0000
1000
1000
,
1000
0000
0010
1000
,
0100
0010
0002
0000
,
1003
0000
0000
1000
,
1000
0100
0000
0010
,
0010
0001
0100
0000
,
0100
0000
0010
0010
,
0000
0100
0001
0100
,
0001
0000
1000
1000
,
0100
0000
0010
0000
0000
0100
0100
0100
,
0200
0000
0000
0000
0300
0000
0000
1001
,
0000
0000
1000
0000
0100
0000
0000
0010
,
0000
0001
0000
0100
,
0001
0000
0001
0000
0001
0000
0000
1000
,
0000
0000
1000
0000
0100
0000
0000
1001
,
0000
0000
0001
0000
0100
0000
0000
0010
,
0000
1000
0000
0100
,
0010
0010
0100
1000
,
0002
0000
0000
0000
2003
0000
0000
3010
,
0000
0100
0100
0001
,
0001
1000
1000
0000
,
1100
1100
0101
0101
,
1001
0000
0000
0000
0110
0000
0000
1001
,
0000
0000
0001
0000
0010
0000
0000
0100
,
0000
1000
0000
0010
,
1000
0000
1000
0000
1000
0000
0000
0001
,
0000
0000
0001
0000
0010
0000
0000
1001
,
0000
0000
1000
0000
0010
0000
0000
0100
,
0000
0001
0000
0010
,
0100
0100
0010
0001
,
2000
0000
0000
0000
3002
0000
0000
0103
,
0000
0000
0010
0000
1000
0000
0000
0001
,
0000
0010
1001
0000
;

//---------------dance-single - ----------------
#NOTES:
     dance-single:
     :
     Medium:
     6:
     0.409830,0.494104,0.306591,0.164245,0.000000,262.000000,234.000000,28.000000,15.000000,0.000000,0.000000,0.409830,0.494104,0.306591,0.164245,0.000000,262.000000,234.000000,28.000000,15.000000,0.000000,0.000000:
// measure 0
0000
0000
0000
0000
,  // measure 1
0000
0000
0000
0000
,  // measure 2
0000
0000
0000
0000
,  // measure 3
0000
0000
0000
0000
0000
0000
0000
0010
,  // measure 4
0000
1000
0000
0001
0000
0010
0000
0200
,  // measure 5
0000
0000
0310
0000
0001
1000
0000
0010
,  // measure 6
0000
1000
0001
1001
0000
0001
0010
0000
,  // measure 7
0100
1000
0000
1001
0000
1000
0010
0000
,  // measure 8
0100
0001
0000
0110
0000
0100
0010
0000
,  // measure 9
0010
1000
0001
0010
0000
0100
1000
0002
,  // measure 10
0000
0000
0003
0100
0010
0100
0001
0100
,  // measure 11
0010
0000
0000
1000
0100
1000
0010
1000
,  // measure 12
0100
0000
0000
1000
0010
0000
0100
0001
,  // measure 13
0000
0001
1000
0000
0001
0000
0010
0100
,  // measure 14
0000
1000
0001
0000
1000
0100
1000
0010
,  // measure 15
1000
0000
0000
0100
0010
0001
0010
0100
,  // measure 16
0010
0000
0000
0001
0100
0010
1000
0100
,  // measure 17
0000
1000
0010
0000
0200
0000
1000
0000
,  // measure 18
0010
0000
0301
0000
0000
0001
0100
0000
,  // measure 19
0001
1000
0001
0000
0000
1000
0100
0010
,  // measure 20
0000
0100
1000
0001
0000
0101
0000
1100
,  // measure 21
0000
0000
1001
0000
0000
1010
0000
0011
,  // measure 22
0000
0000
0110
0000
0100
1000
0001
0200
,  // measure 23
0000
0310
2000
3200
,  // measure 24
0320
0000
0032
0000
0103
0100
0100
0100
,  // measure 25
0110
0000
0000
1001
0000
1000
0100
0010
,  // measure 26
0000
0001
0010
0100
0010
0000
0001
0100
,  // measure 27
0000
0010
1000
0000
0000
1000
0010
0100
,  // measure 28
0101
0000
1100
0000
0101
0001
0010
0200
,  // measure 29
0000
1300
0001
0100
1000
0100
0001
0010
,  // measure 30
0000
1000
0010
0100
0010
0000
0100
1000
,  // measure 31
0000
0001
0010
0000
0000
0001
0100
0010
,  // measure 32
0000
0010
1000
0001
0010
0100
1000
0002
,  // measure 33
0000
0103
0100
0010
0010
1000
0000
2001
,  // measure 34
0000
0000
3010
0000
0100
0001
0100
0001
,  // measure 35
0000
1000
0100
2000
0000
0000
3000
0001
,  // measure 36
0011
0000
1010
0000
0011
0001
0000
1000
,  // measure 37
1100
1100
0000
0000
0101
0101
0000
1001
,  // measure 38
0000
1000
0100
0010
0100
0000
1000
0010
,  // measure 39
0000
0100
0001
0000
0000
0001
0100
0010
,  // measure 40
1010
0000
0011
0000
1010
1000
0100
0020
,  // measure 41
0000
0031
1000
0010
0001
0010
1000
0100
,  // measure 42
0000
0001
0100
0010
0100
0000
0010
0001
,  // measure 43
0000
1000
0100
0000
0000
1000
0010
0100
,  // measure 44
0000
0100
0001
1000
0100
0010
0001
2000
,  // measure 45
0000
3010
0010
0100
0100
0001
0000
1002
,  // measure 46
0000
0000
0013
0000
0100
1000
0000
0001
,  // measure 47
0100
0100
0100
0000
1001
0000
0000
0000
;
