#TITLE:Larger Than Life;
#SUBTITLE:;
#ARTIST:Backstreet Boys;
#TITLETRANSLIT:;
#SUBTITLETRANSLIT:;
#ARTISTTRANSLIT:;
#GENRE:;
#CREDIT:;
#BANNER:;
#BACKGROUND:;
#LYRICSPATH:;
#CDTITLE:cdtitle.png;
#MUSIC:largerthanlife.ogg;
#OFFSET:0.000000;
#SAMPLESTART:44.444447;
#SAMPLELENGTH:19.999996;
#SELECTABLE:YES;
#BPMS:0.000000=108.000000
;
#STOPS:
;
#BGCHANGES:;
#KEYSOUNDS:;
#ATTACKS:;

//---------------dance-single - ----------------
#NOTES:
     dance-single:
     :
     Hard:
     7:
     0.332182,0.400680,0.229253,0.196502,0.004094,284.000000,256.000000,28.000000,24.000000,0.000000,0.000000,0.332182,0.400680,0.229253,0.196502,0.004094,284.000000,256.000000,28.000000,24.000000,0.000000,0.000000:
0000
0000
0000
0000
,
0000
0000
0000
0000
,
2002
0000
0000
0000
,
0000
0000
3003
0110
,
1001
0000
1000
0000
1000
0010
0100
0000
,
0010
0100
0001
0010
0000
0010
0010
0000
,
0120
0000
0000
0230
0000
0000
2300
0000
,
3002
0000
0000
0203
0000
0000
0310
0000
,
0110
0000
0000
0000
0000
0010
0100
0000
,
0100
0001
1000
0001
0000
0000
0001
0010
,
0100
0000
0100
0000
0100
0010
0100
0000
,
1000
0100
0001
0010
0000
0000
1001
0000
,
0001
0100
0010
0100
0001
0000
1000
0100
,
0010
0100
1000
0010
0000
0000
0100
0001
,
0100
0000
0100
0000
0100
0010
0100
0000
,
0001
0100
1000
0010
0000
0000
1001
0000
,
0002
0000
0000
0200
0300
0000
0013
0000
,
2100
0000
0000
0020
0030
0000
3100
0000
,
2010
0000
0000
0200
0300
0000
3010
0100
,
0000
0100
1000
0100
0001
0100
1000
0000
,
0100
0000
0001
0000
0100
0010
1000
0001
,
0010
0000
0001
1000
0010
0000
0100
0010
,
0000
1000
0100
0010
0100
0001
0100
1000
,
0010
0000
0100
0001
0010
0000
0100
0010
,
0000
0010
0100
1000
0100
0000
0010
0001
,
0000
0100
0010
0100
0001
0001
1000
0000
,
2100
0000
0001
0000
0010
0010
3010
0000
,
0102
0000
1000
0000
0010
0010
0013
0000
,
1001
0000
1000
0000
1000
0001
1000
0000
,
1000
0100
0001
0010
0000
0000
0100
0000
,
0210
0000
0000
1000
0000
0000
0301
0000
,
0021
0000
0000
1000
0000
0000
0031
0000
,
1001
0000
0001
0000
0001
0100
1000
0000
,
1000
0100
0001
0010
0100
0000
0110
0000
,
1000
0000
1000
0000
1000
0100
0001
0000
,
0001
0100
1000
0010
0100
0000
0110
0000
,
0001
0000
0001
0010
0100
0000
1000
0010
,
0100
0000
0020
0000
0000
0000
0000
0000
0130
0010
0100
0000
0000
0000
0000
0000
,
0001
0100
1000
0100
0001
0001
0101
0000
,
0011
0000
0010
0100
1000
0010
0010
0000
,
0100
0000
0001
0000
0100
0010
1000
0001
,
0010
0000
0001
1000
0010
0000
0100
0010
,
0000
1000
0100
0010
0100
0001
0100
1000
,
0010
0000
0100
0001
0010
0000
0100
0010
,
0000
0010
0100
1000
0100
0000
0010
0001
,
0000
0100
0010
0100
0001
0001
1000
0000
,
2100
0000
0001
0000
0010
0010
3010
0000
,
0102
0000
1000
0000
0010
0010
0013
0000
,
0120
0000
1000
0000
0001
0001
0031
0000
,
0120
0000
0001
0000
1000
1000
1030
0000
,
1000
0100
0001
0000
0001
0001
0100
0000
,
1000
1001
1001
0000
0100
0110
0110
0000
,
2002
0000
0000
0000
,
0000
0000
0000
0000
,
0000
0000
0000
3003
0000
0000
0000
0000
;

//---------------dance-single - ----------------
#NOTES:
     dance-single:
     :
     Easy:
     3:
     0.215217,0.267120,0.090064,0.155564,0.000000,184.000000,173.000000,11.000000,19.000000,0.000000,0.000000,0.215217,0.267120,0.090064,0.155564,0.000000,184.000000,173.000000,11.000000,19.000000,0.000000,0.000000:
0000
0000
0000
0000
,
0000
0000
0000
0000
,
0000
0000
0000
0000
,
0000
0000
0000
0000
,
1000
0001
1000
0000
,
0100
0010
0100
0100
,
0200
0000
0000
0300
0000
0000
0100
0000
,
0020
0000
0000
0030
0000
0000
0010
0000
,
0110
0000
0000
0000
,
0001
0010
0100
1000
,
0001
0100
0100
0100
,
0001
0010
1000
0100
,
0010
1000
0010
0100
,
0001
0010
0001
0100
,
0010
1000
1000
1000
,
0001
0100
1000
0010
,
0002
0010
0000
0013
,
2000
0010
0000
3010
,
0002
0010
0000
0013
,
0000
0010
0010
0010
,
0001
0100
0001
1000
,
1000
0001
0001
0000
,
0001
1000
0100
0010
,
0001
0100
0010
1000
,
0010
0010
0100
0000
,
0100
0010
0001
0010
,
2000
0100
0100
3001
,
0002
0100
0100
1003
,
1001
1000
1000
0001
,
0100
1000
0010
0100
,
0220
0000
0000
0330
0000
0000
0100
0000
,
2002
0000
0000
3003
0000
0000
0001
0000
,
1001
0001
0100
1000
,
0100
0001
0100
1000
,
0010
0001
0010
1000
,
0010
0001
0010
1000
,
0100
0001
0100
1000
,
0010
0001
0010
0100
,
2100
0100
3100
1100
,
0012
0010
0013
0010
,
0001
0100
0001
1000
,
1000
0001
0001
0000
,
0001
1000
0100
0010
,
0001
0100
0010
1000
,
0010
0010
0100
0000
,
0100
0010
0001
0010
,
2000
0100
0100
3001
,
0002
0100
0100
1003
,
0200
1000
0010
1300
,
0020
0001
0100
0031
,
0001
0100
0010
0001
,
0100
0110
0010
0110
,
2002
0000
0000
0000
,
0000
0000
0000
0000
,
0000
0000
0000
3003
0000
0000
0000
0000
;

//---------------dance-single - ----------------
#NOTES:
     dance-single:
     :
     Medium:
     6:
     0.271360,0.311640,0.073688,0.417567,0.000000,232.000000,223.000000,9.000000,51.000000,0.000000,0.000000,0.271360,0.311640,0.073688,0.417567,0.000000,232.000000,223.000000,9.000000,51.000000,0.000000,0.000000:
// measure 0
0000
0000
0000
0000
,  // measure 1
0000
0000
0000
0000
,  // measure 2
1000
0000
1000
0000
1000
0001
0000
0000
,  // measure 3
0001
0100
0010
1000
0001
0000
1001
0000
,  // measure 4
1000
0000
0001
0000
0010
0001
0000
0000
,  // measure 5
0001
0010
0100
1000
0000
0010
0010
0020
,  // measure 6
0000
0000
0000
0230
0000
0300
0000
0000
,  // measure 7
0001
0000
1000
0000
0001
1000
0010
0000
,  // measure 8
0010
0100
0001
0100
0001
0000
1000
0001
,  // measure 9
1000
0100
0010
0001
0000
0000
0001
0020
,  // measure 10
0000
0030
0010
0000
0001
1000
0000
0000
,  // measure 11
1000
0010
0100
0001
0000
0000
0000
0100
,  // measure 12
0010
1000
0010
1000
0001
0000
0001
0010
,  // measure 13
0100
0010
0100
1000
0000
0000
0100
0020
,  // measure 14
0000
0030
0010
0000
0001
1000
0000
0000
,  // measure 15
0001
0010
0100
1000
0000
0001
1000
0000
,  // measure 16
0002
0000
0000
0203
0000
0000
2300
0000
,  // measure 17
3200
0000
0000
0302
0000
0000
0003
0000
,  // measure 18
2000
0000
0000
3200
0000
0000
0301
0100
,  // measure 19
0000
0100
0010
0100
0010
0100
0010
0000
,  // measure 20
0001
0000
1000
0000
0001
0100
0001
1000
,  // measure 21
0001
0000
1000
0001
1000
0000
0000
0020
,  // measure 22
0000
1030
0010
1000
0010
0100
0001
0010
,  // measure 23
0001
0000
0001
0100
0000
0000
0000
0020
,  // measure 24
0000
0130
0001
1000
0100
0000
0000
0020
,  // measure 25
0000
0130
1000
0100
0010
0000
0001
0000
,  // measure 26
0012
0000
0000
0023
0000
0000
2030
0000
,  // measure 27
3200
0000
0000
0302
0000
0000
1003
0000
,  // measure 28
1001
0000
1000
0000
0001
0100
0000
0000
,  // measure 29
0001
0100
0010
1000
0000
0100
0010
0200
,  // measure 30
0000
0000
0000
0000
0000
0000
0000
1300
,  // measure 31
0002
0000
0000
2003
0000
0000
3001
0000
,  // measure 32
0101
0000
0100
0000
0010
0100
0000
0000
,  // measure 33
0001
0010
0100
1000
0000
1000
0100
0000
,  // measure 34
0010
0000
0100
0000
1000
0001
0000
0000
,  // measure 35
1000
0010
0100
0001
0000
0001
0100
0000
,  // measure 36
0001
0000
0001
0020
0000
0000
0130
2000
,  // measure 37
0000
3020
0000
0000
1030
0010
0000
0000
,  // measure 38
1020
0000
0200
0030
0300
0001
2000
0000
,  // measure 39
3002
0023
0230
1300
,  // measure 40
0001
0000
1000
0000
0001
0100
0001
1000
,  // measure 41
0001
0000
1000
0001
1000
0000
0000
0020
,  // measure 42
0000
1030
0010
1000
0010
0100
0001
0010
,  // measure 43
0001
0000
0001
0100
0000
0000
0000
0020
,  // measure 44
0000
0130
0001
1000
0100
0000
0000
0020
,  // measure 45
0000
0130
1000
0100
0010
0000
0001
0000
,  // measure 46
0012
0000
0000
0023
0000
0000
2030
0000
,  // measure 47
3200
0000
0000
0302
0000
0000
0003
0000
,  // measure 48
1002
0000
0000
0203
0000
0000
2300
0000
,  // measure 49
3020
0000
0000
0032
0000
0000
0003
0000
,  // measure 50
1002
0000
0000
0023
0000
0000
2030
0000
,  // measure 51
3200
0000
0000
0302
0000
0000
1003
0000
,  // measure 52
2002
0000
0000
0000
,  // measure 53
0000
0000
0000
0000
,  // measure 54
0000
0000
0000
3003
0000
0000
0000
0000
;
