#TITLE:L'Amour Toujours;
#SUBTITLE:(Tiesto Edit);
#ARTIST:Dzeko & Torres ft Delaney Jane;
#TITLETRANSLIT:;
#SUBTITLETRANSLIT:;
#ARTISTTRANSLIT:;
#CREDIT:;
#BANNER:L'Amour Toujours (Tiësto Edit).png;
#BACKGROUND:L'Amour Toujours (Tiësto Edit) - bg.png;
#LYRICSPATH:;
#CDTITLE:cdtitle.png;
#MUSIC:L'Amour Toujours (Tiësto Edit).mp3;
#OFFSET:-0.515;
#SAMPLESTART:96.049;
#SAMPLELENGTH:15.000;
#SELECTABLE:YES;
#DISPLAYBPM:65.000:130.000;
#BPMS:0.000=130.000,95.000=65.000,135.000=130.000,198.500=97.500,199.000=195.000,199.500=130.000;
#STOPS:;
#BGCHANGES:;

//---------------dance-single - ----------------
#NOTES:
     dance-single:
     :
     Hard:
     9:
     0.562,0.872,0.241,0.293,0.455: // measure 1
0000
0000
0000
0000
,  // measure 2
0000
0000
0000
0000
,  // measure 3
0000
0000
0000
0000
,  // measure 4
0000
0000
0000
0000
0000
0000
0000
0000
0000
0000
0000
0000
0001
0000
0000
0001
,  // measure 5
0000
0000
1000
0000
0000
1000
0000
0000
0001
0000
0100
0000
0010
0000
0000
0010
,  // measure 6
0000
0000
0100
0000
0000
0100
0000
0000
0001
0000
1000
0000
0100
0000
0000
0100
,  // measure 7
0000
0000
1000
0000
0000
1000
0000
0000
0001
0000
0010
0000
0100
0000
0000
0100
,  // measure 8
0000
0000
0010
0000
0000
0010
0000
0000
0001
0000
0100
0000
0110
0000
0000
0100
,  // measure 9
0000
0000
0001
0000
0000
1000
0000
0000
0100
0000
1000
0000
0001
0010
0000
0010
,  // measure 10
0001
0000
0001
1000
0000
1000
0010
0000
0100
0000
0001
0000
1001
0000
0000
1000
,  // measure 11
0000
0000
0001
0000
0000
0010
0000
0000
0001
0000
0100
0000
0001
1000
0000
1000
,  // measure 12
0001
0000
0001
0100
0000
0100
0010
0000
1000
0000
0100
0000
0110
0000
0000
0100
,  // measure 13
0000
0000
1000
0000
0000
0001
0000
0000
0100
0000
0001
0000
1000
0010
0000
0010
,  // measure 14
1000
0000
1000
0001
0000
0001
0010
0000
0100
0000
1000
0000
1001
0000
0000
0001
,  // measure 15
0000
0000
1000
0000
0000
0010
0000
0000
1000
0000
0100
0000
1000
0001
0000
0001
,  // measure 16
1000
0000
1000
0100
0000
0100
0010
0000
0010
0100
0000
0100
1000
0000
0010
0000
,  // measure 17
0100
0001
0010
0100
1000
0010
0110
0100
,  // measure 18
0001
1000
0100
0010
0001
0100
0110
0010
,  // measure 19
1000
0100
0010
0001
0100
0001
0011
0010
,  // measure 20
0100
1000
0010
1000
0100
0010
0011
0001
,  // measure 21
0100
0001
0100
1000
0100
1000
0100
0001
,  // measure 22
0010
0000
0001
0000
0100
0000
0001
0000
1000
0000
0001
0000
1000
0100
1000
0100
,  // measure 23
1000
0100
1000
0100
1000
0001
1000
0001
1000
0001
1000
0001
1000
0010
1000
0010
,  // measure 24
1000
0010
1000
0010
1000
0001
1000
0001
1000
0001
1000
0001
2000
0000
0000
0000
,  // measure 25
0000
0000
0000
0000
,  // measure 26
0000
0000
0000
0000
0000
0000
0000
0000
0000
0000
0000
0000
3002
0003
0000
0000
,  // measure 27
2000
3000
2000
3200
0320
0030
0000
0000
0002
0003
0002
0023
0230
0300
0000
0000
,  // measure 28
2000
3000
2000
3002
0023
0030
0020
0030
0002
0203
2300
3200
0302
0003
0000
0000
,  // measure 29
0200
0300
0200
0302
0023
0030
0000
0000
0200
0300
0200
2300
3002
0003
0000
0000
,  // measure 30
2000
3000
2000
3200
0320
0030
0020
0230
2300
3020
0230
0302
1003
0000
0010
1000
,  // measure 31
0100
1000
0100
0000
1000
0000
0001
0100
0010
0100
0010
0000
0100
0000
0001
1000
,  // measure 32
0010
1000
0010
0000
0100
0000
0001
0010
0100
0010
0100
0000
1000
0000
0001
0010
,  // measure 33
0001
0100
0001
0000
1000
0000
0100
1000
0010
1000
0100
0000
0010
0000
0100
1000
,  // measure 34
0001
0100
0010
0000
0100
0000
0001
0010
0100
1000
0010
0100
1001
0000
0001
0000
,  // measure 35
1000
0100
0000
0100
1000
0000
0001
0000
0100
0000
0000
0001
1000
0000
0010
0000
,  // measure 36
0100
0001
0000
0001
0100
0000
0010
0000
1000
0000
0000
0001
0010
0000
0001
0000
,  // measure 37
0100
0010
0000
0010
0100
0000
0001
0000
0010
0000
0000
0100
1000
0000
0010
0000
,  // measure 38
1000
0001
0000
0001
1000
0000
0010
0000
0100
0000
0000
0010
1000
0000
1000
0000
,  // measure 39
0001
0001
0010
0010
1000
1000
0010
0010
,  // measure 40
0001
0000
0001
0000
0100
0000
0100
0000
0010
0000
0010
0000
1000
0100
1000
0100
,  // measure 41
1000
0100
1000
0100
0010
0100
0010
0100
0010
0100
0010
0100
0010
0001
0010
0001
,  // measure 42
0010
0001
0010
0001
0010
0100
1000
0000
1001
0000
0000
0000
1100
0000
0000
0000
,  // measure 43
0101
0000
1100
0000
1000
0001
0011
0000
,  // measure 44
0101
0000
0011
0000
0001
1000
1010
0000
,  // measure 45
1100
0000
1010
0000
1000
0100
0110
0000
,  // measure 46
0110
0000
0100
1000
0001
0100
0101
0000
,  // measure 47
1100
0000
0101
0000
0001
1000
1010
0000
,  // measure 48
1100
0000
1010
0000
1000
0001
0011
0000
,  // measure 49
0101
0000
0011
0000
0001
0100
0110
0000
,  // measure 50
0110
0000
0000
0000
0100
0000
0001
0000
1000
0010
0100
0000
0000
0000
0001
0100
,  // measure 51
0010
0000
1000
0000
0100
0000
1000
0000
0010
0100
0000
0000
0010
0000
1000
0100
,  // measure 52
0010
0000
0100
0000
1000
0000
0001
0000
0100
0010
0000
0000
0100
0000
0001
1000
,  // measure 53
0100
0000
0001
0000
0100
0000
1000
0000
0010
0100
0000
0000
0010
0000
1000
0001
,  // measure 54
0100
0000
0001
0000
0010
0000
0001
0000
0100
0010
0000
0000
0100
0000
0001
0010
,  // measure 55
0100
0000
1000
0000
0010
0000
1000
0000
0100
0010
0000
0000
0100
0000
1000
0010
,  // measure 56
0100
0000
0010
0000
1000
0000
0001
0000
0010
0100
0000
0000
0010
0000
0001
1000
,  // measure 57
0010
0000
0001
0000
0010
0000
1000
0000
0100
0010
0000
0000
0100
0000
1000
0001
,  // measure 58
0000
0000
0100
0000
0001
1000
0001
1000
0001
0000
0010
0000
0200
0000
0000
0000
,  // measure 59
0300
0000
0000
0000
;
