#TITLE:Euphoria;
#SUBTITLE:;
#ARTIST:Loreen;
#TITLETRANSLIT:;
#SUBTITLETRANSLIT:;
#ARTISTTRANSLIT:;
#GENRE:Eurodance;
#CREDIT:;
#BANNER:Euphoria.png;
#BACKGROUND:Euphoria-bg.png;
#LYRICSPATH:;
#CDTITLE:;
#MUSIC:Euphoria.ogg;
#OFFSET:-0.257437;
#SAMPLESTART:90.612000;
#SAMPLELENGTH:15.000000;
#SELECTABLE:YES;
#BPMS:0.000000=132.000000
,136.000000=66.000000
,152.000000=132.000000
;
#STOPS:
;
#BGCHANGES:-0.500=Euphoria.avi=1.000=0=0=0=StretchNoLoop==CrossFade_Fastest==,
99999=-nosongbg-=1.000=0=0=0 // don't automatically add -songbackground-
;
#KEYSOUNDS:;
#ATTACKS:;

//---------------dance-single - ----------------
#NOTES:
     dance-single:
     :
     Hard:
     7:
     0.346434,0.584171,0.082766,0.273127,0.248297,250.000000,10.000000,33.000000,0.000000,0.000000,0.000000,0.346434,0.584171,0.082766,0.273127,0.248297,250.000000,10.000000,33.000000,0.000000,0.000000,0.000000:
// measure 0
0000
0000
0000
0000
,  // measure 1
0000
0000
0000
0000
,  // measure 2
2000
0000
0000
0000
,  // measure 3
0000
0000
3010
0000
0100
0001
1000
0100
,  // measure 4
0010
0000
0000
0001
0000
0000
2000
0000
0000
0000
0000
0000
0000
0000
0000
0000
,  // measure 5
0000
0000
0000
0000
0000
0000
3000
0001
,  // measure 6
2000
0000
0000
0000
,  // measure 7
0000
0000
3100
0000
0010
0001
1000
0010
,  // measure 8
0100
0000
0000
0001
0000
0000
2000
0000
0000
0000
0000
0000
0000
0000
0000
0000
,  // measure 9
0000
0000
0000
3000
,  // measure 10
0002
0000
0010
0000
,  // measure 11
0100
0000
0103
0000
0010
1000
0001
0010
,  // measure 12
0100
0000
0000
1000
0000
0000
0002
0000
0000
0000
0000
0000
0000
0000
0000
0000
,  // measure 13
0100
0000
0000
0000
1000
0000
0003
1000
,  // measure 14
0002
0000
0100
0000
,  // measure 15
0010
0000
0013
0000
0100
1000
0001
0100
,  // measure 16
0010
0000
0000
1000
0000
0000
0002
0000
0000
0000
0000
0000
0100
0000
0000
0000
,  // measure 17
0100
0100
1000
1003
,  // measure 18
2001
0000
0010
3020
,  // measure 19
0000
0100
0130
0001
,  // measure 20
2000
0000
0000
3200
0000
0000
0320
0000
,  // measure 21
0000
0100
0000
0000
0130
0000
1000
0000
,  // measure 22
0002
0000
0000
0203
0000
0000
0320
0000
,  // measure 23
0000
1000
0000
0000
1030
0000
0100
0000
,  // measure 24
0010
0000
0000
0001
0000
0000
0010
0000
0000
0100
0000
0000
0010
0000
0000
1000
,  // measure 25
0000
0020
0000
0000
0130
0000
1000
0000
,  // measure 26
0001
0000
0000
0100
0000
0000
0010
0000
0000
1000
0000
0000
0001
0000
0000
0010
,  // measure 27
0000
0000
0100
0000
0000
1000
0000
0000
0001
0000
0100
0000
0010
0000
1000
0000
,  // measure 28
0001
0000
0000
1000
0000
0000
0010
0000
0000
0100
0000
0000
0001
0000
0000
1000
,  // measure 29
0000
0000
0100
0000
0000
0010
0000
0000
0100
0000
1000
0000
0001
0000
0100
0000
,  // measure 30
0010
0000
0000
1000
0000
0000
0001
0000
0000
0100
0000
0000
0001
0000
0000
1000
,  // measure 31
0000
0000
0010
0000
0000
0100
0000
0000
0001
0000
1000
0000
0100
0000
0010
0000
,  // measure 32
0001
0000
0000
0010
0000
0000
0001
0000
0000
1000
0000
0000
0001
0000
0000
0100
,  // measure 33
0000
0000
0010
0000
0000
1000
0000
0000
0001
0000
0000
0000
1001
0000
0000
0000
,  // measure 34
2000
0000
0000
0100
,  // measure 35
0010
0002
0000
3003
,  // measure 36
0002
0000
0000
0010
,  // measure 37
0100
2000
0000
3003
,  // measure 38
2000
0000
0010
0000
,  // measure 39
3020
0000
0100
0100
,  // measure 40
0230
0000
0001
0000
,  // measure 41
0302
0000
0010
0010
,  // measure 42
0023
0100
0230
1000
,  // measure 43
2300
0010
3020
0100
,  // measure 44
0230
0000
0000
0010
0000
0000
0010
0000
0000
0010
0000
0000
0010
0000
0000
0010
,  // measure 45
0000
0020
0000
0000
0330
0000
1001
0000
,  // measure 46
1000
0000
0000
0100
0000
0000
0001
0000
0000
0010
0000
0000
1000
0000
0000
0100
,  // measure 47
0000
0000
0001
0000
0000
1000
0000
0000
0010
0000
0001
0000
1000
0000
0010
0000
,  // measure 48
0100
0000
0000
1000
0000
0000
0010
0000
0000
0001
0000
0000
0100
0000
0000
1000
,  // measure 49
0000
0000
0001
0000
0000
0010
0000
0000
1000
0000
0010
0000
0100
0000
0001
0000
,  // measure 50
0010
0000
0000
1000
0000
0000
0100
0000
0000
0001
0000
0000
1000
0000
0000
0010
,  // measure 51
0000
0000
0001
0000
0000
0100
0000
0000
0010
0000
0001
0000
1000
0000
0100
0000
,  // measure 52
0010
0000
0000
0001
0000
0000
0100
0000
0000
1000
0000
0000
0001
0000
0000
0010
,  // measure 53
0000
0000
0100
0000
0000
0001
0000
0000
1000
0000
0100
0000
0010
0000
0001
0000
,  // measure 54
1000
0000
0000
0010
0000
0000
0001
0000
0000
0010
0000
0000
1000
0000
0000
0100
,  // measure 55
0000
0000
0010
0000
0000
0001
0000
0100
0001
0000
1000
0000
0100
0000
0010
0000
,  // measure 56
0001
0000
0000
0010
0000
0000
1000
0000
0000
0010
0000
0000
0001
0000
0000
0100
,  // measure 57
0000
0000
0010
0000
0000
1000
0000
0100
1000
0000
0001
0000
0100
0000
0010
0000
,  // measure 58
1000
0000
0000
0100
0000
0000
0001
0000
0000
0010
0000
0000
1000
0000
0000
0100
,  // measure 59
0000
0000
0010
0000
0000
0001
0000
0100
0001
0000
0010
0000
0100
0000
1000
0000
,  // measure 60
1010
0000
0000
1010
0000
0000
0110
0000
0000
0110
0000
0000
0011
0000
0000
0110
,  // measure 61
0000
2002
0000
3003
0000
0000
0000
0000
;

//---------------dance-single - ----------------
#NOTES:
     dance-single:
     :
     Medium:
     5:
     0.264850,0.355582,0.008277,0.322786,0.095181,184.000000,1.000000,39.000000,0.000000,0.000000,0.000000,0.264850,0.355582,0.008277,0.322786,0.095181,184.000000,1.000000,39.000000,0.000000,0.000000,0.000000:
// measure 0
0000
0000
0000
0000
,  // measure 1
0000
0000
0000
0000
,  // measure 2
2000
0000
0000
0000
,  // measure 3
0000
3010
0100
0001
,  // measure 4
2000
0000
0000
3002
0000
0000
0000
0000
,  // measure 5
0000
0000
0000
0003
,  // measure 6
2000
0000
0000
0000
,  // measure 7
0000
0000
3100
0000
0010
0000
0001
1000
,  // measure 8
0002
0000
0000
2003
0000
0000
0000
0000
,  // measure 9
0000
0000
0000
3000
,  // measure 10
0002
0000
0010
0000
,  // measure 11
0000
0013
0100
1000
,  // measure 12
0002
0000
0000
2003
0000
0000
0000
0000
,  // measure 13
0000
0000
0000
3000
,  // measure 14
0002
0000
0100
0000
,  // measure 15
0100
0000
0103
0000
0010
0000
1000
0001
,  // measure 16
2000
0000
0000
3002
0000
0000
0000
0000
,  // measure 17
0000
0000
1000
1003
,  // measure 18
2000
0000
0000
3020
,  // measure 19
0000
0000
0230
0000
,  // measure 20
0302
0000
0000
0023
,  // measure 21
0000
0000
0130
1000
,  // measure 22
0002
0000
0000
2003
,  // measure 23
0000
0000
3010
0100
,  // measure 24
0010
0000
0000
0010
0000
0000
0010
0000
0000
0010
0000
0000
0010
0000
0000
0010
,  // measure 25
0000
0020
0000
0000
0030
0000
1000
0000
,  // measure 26
0002
0010
0100
1003
,  // measure 27
0001
0000
0100
0000
0001
1000
0001
0000
,  // measure 28
0100
1000
0100
0010
,  // measure 29
0100
0001
0100
0010
,  // measure 30
1000
0100
1000
0001
,  // measure 31
1000
0010
0100
0001
,  // measure 32
0010
0000
0000
0100
0000
0000
0010
0000
0000
0100
0000
0000
0010
0000
0000
0100
,  // measure 33
0000
0020
0000
0000
0130
0000
1001
0000
,  // measure 34
2000
0000
0000
0000
,  // measure 35
0002
0000
0000
3003
,  // measure 36
0002
0000
0000
0000
,  // measure 37
2000
0000
0000
3003
,  // measure 38
2000
0000
0000
0000
,  // measure 39
3020
0000
0100
0000
,  // measure 40
0230
0000
0000
0000
,  // measure 41
0302
0000
0010
0000
,  // measure 42
0023
0000
0230
0000
,  // measure 43
2300
0000
3002
0000
,  // measure 44
0013
0000
0000
0100
0000
0000
0010
0000
0000
0100
0000
0000
0010
0000
0000
0100
,  // measure 45
0000
0020
0000
0000
0030
0000
0100
0000
,  // measure 46
2000
0010
0100
3001
,  // measure 47
1000
0000
0100
0000
1000
0010
0100
0001
,  // measure 48
1000
0010
1000
0001
,  // measure 49
1000
0000
0100
0000
0010
0001
1000
0010
,  // measure 50
0100
0001
0100
0010
,  // measure 51
0100
1000
0100
0010
,  // measure 52
1000
0000
0000
0010
0000
0000
1000
0000
0000
0010
0000
0000
0100
0000
0000
0001
,  // measure 53
0000
0200
0000
0000
0301
0000
0001
0000
,  // measure 54
2000
0100
0010
3001
,  // measure 55
1000
0000
0100
0000
0010
0001
0100
0010
,  // measure 56
1000
0000
0000
1000
0000
0000
0100
0000
0000
0100
0000
0000
0010
0000
0000
0010
,  // measure 57
0000
0000
0001
0000
0000
0001
0000
0000
1000
0000
0010
0000
0100
0000
0001
0000
,  // measure 58
0010
0000
0000
0010
0000
0000
0001
0000
0000
0001
0000
0000
1000
0000
0000
1000
,  // measure 59
0000
0000
0100
0000
0000
0100
0000
0000
0010
0000
0001
0000
1000
0000
0010
0000
,  // measure 60
0100
0000
0000
0010
0000
0000
0100
0000
0000
0010
0000
0000
1000
0000
0000
0001
,  // measure 61
0000
2000
0000
3000
0000
0000
0000
0000
;

//---------------dance-single - ----------------
#NOTES:
     dance-single:
     :
     Easy:
     2:
     0.147796,0.228123,0.000000,0.091042,0.000000,114.000000,0.000000,11.000000,0.000000,0.000000,0.000000,0.147796,0.228123,0.000000,0.091042,0.000000,114.000000,0.000000,11.000000,0.000000,0.000000,0.000000:
// measure 0
0000
0000
0000
0000
,  // measure 1
0000
0000
0000
0000
,  // measure 2
1000
0000
0000
0000
,  // measure 3
0000
0010
0000
0010
,  // measure 4
0010
0000
0010
0000
,  // measure 5
0000
0000
0000
0000
,  // measure 6
0001
0000
0000
0000
,  // measure 7
0000
0010
0000
0010
,  // measure 8
0010
0000
0010
0000
,  // measure 9
0000
0000
0000
0000
,  // measure 10
1000
0000
0000
0000
,  // measure 11
0000
0100
0000
0100
,  // measure 12
0100
0000
0100
0000
,  // measure 13
0000
0000
0000
0000
,  // measure 14
0001
0000
0000
0000
,  // measure 15
0000
0100
0000
0100
,  // measure 16
0100
0000
0100
0000
,  // measure 17
0000
0000
0000
0000
,  // measure 18
2000
0000
3000
0000
,  // measure 19
0020
0000
0030
0000
,  // measure 20
0200
0000
0000
0000
,  // measure 21
0000
0000
0300
0000
,  // measure 22
0002
0000
0000
0000
,  // measure 23
0000
0000
0003
0000
,  // measure 24
0010
0010
0010
0010
,  // measure 25
0010
0010
0000
0100
,  // measure 26
2000
0000
0000
0000
,  // measure 27
3001
0000
0001
0010
,  // measure 28
0001
0000
0010
0000
,  // measure 29
0100
0000
1000
0010
,  // measure 30
1000
0000
0100
0000
,  // measure 31
0010
0000
0001
0001
,  // measure 32
0010
0010
0010
0010
,  // measure 33
0010
0010
0000
0000
,  // measure 34
2000
0000
0000
0000
,  // measure 35
0000
0000
0000
3000
,  // measure 36
0002
0000
0000
0000
,  // measure 37
0000
0000
0000
0003
,  // measure 38
2000
0000
0000
0000
,  // measure 39
3001
0000
0000
0000
,  // measure 40
0010
0000
0000
0000
,  // measure 41
0100
0000
0000
0010
,  // measure 42
0002
0000
0000
0000
,  // measure 43
1003
0000
0000
1000
,  // measure 44
0010
0010
0010
0010
,  // measure 45
0010
0010
0000
1000
,  // measure 46
0002
0000
0000
0000
,  // measure 47
1003
0000
1000
0010
,  // measure 48
1000
0000
0010
0000
,  // measure 49
0100
0000
0001
0010
,  // measure 50
0001
0000
0100
0000
,  // measure 51
0010
0000
1000
1000
,  // measure 52
0010
0010
0010
0010
,  // measure 53
0010
0010
0000
0010
,  // measure 54
2000
0000
0000
0000
,  // measure 55
3001
0000
0010
0010
,  // measure 56
0100
0100
0010
0010
,  // measure 57
0100
0100
1000
0000
,  // measure 58
0010
0010
0100
0100
,  // measure 59
0010
0010
0100
0100
,  // measure 60
0010
0010
0010
0010
,  // measure 61
0010
0010
0000
0000
;

//---------------dance-single - ----------------
#NOTES:
     dance-single:
     :
     Beginner:
     1:
     0.052024,0.099319,0.008277,0.000000,0.000000,43.000000,1.000000,0.000000,0.000000,0.000000,0.000000,0.052024,0.099319,0.008277,0.000000,0.000000,43.000000,1.000000,0.000000,0.000000,0.000000,0.000000:
// measure 0
0000
0000
0000
0000
,  // measure 1
0000
0000
0000
0000
,  // measure 2
1000
0000
0000
0000
,  // measure 3
0000
0000
0000
0000
,  // measure 4
1000
0000
0000
0000
,  // measure 5
0000
0000
0000
0000
,  // measure 6
0001
0000
0000
0000
,  // measure 7
0000
0000
0000
0000
,  // measure 8
0001
0000
0000
0000
,  // measure 9
0000
0000
0000
0000
,  // measure 10
1000
0000
0000
0000
,  // measure 11
0000
0000
0000
0000
,  // measure 12
1000
0000
0000
0000
,  // measure 13
0000
0000
0000
0000
,  // measure 14
0001
0000
0000
0000
,  // measure 15
0000
0000
0000
0000
,  // measure 16
0001
0000
0000
0000
,  // measure 17
0000
0000
0000
0000
,  // measure 18
1000
0000
0000
0000
,  // measure 19
1000
0000
0000
0000
,  // measure 20
1000
0000
0000
0000
,  // measure 21
0000
0000
0000
0000
,  // measure 22
0001
0000
0000
0000
,  // measure 23
0001
0000
0000
0000
,  // measure 24
0001
0000
0000
0000
,  // measure 25
0000
0000
0000
0000
,  // measure 26
1000
0000
0000
0000
,  // measure 27
1000
0000
0000
0000
,  // measure 28
1000
0000
0000
0000
,  // measure 29
1000
0000
0000
0000
,  // measure 30
0001
0000
0000
0000
,  // measure 31
0001
0000
0000
0000
,  // measure 32
0001
0000
0000
0000
,  // measure 33
0001
0000
0000
0000
,  // measure 34
0001
0000
0000
0000
,  // measure 35
0000
0000
0000
0000
,  // measure 36
1000
0000
0000
0000
,  // measure 37
0000
0000
0000
0000
,  // measure 38
1000
0000
0000
0000
,  // measure 39
0000
0000
0000
0000
,  // measure 40
1000
0000
0000
0000
,  // measure 41
0000
0000
0000
0000
,  // measure 42
0001
0000
0000
0000
,  // measure 43
0000
0000
0000
0000
,  // measure 44
0001
0000
0000
0000
,  // measure 45
0000
0000
0000
0000
,  // measure 46
0001
0000
0000
0000
,  // measure 47
0001
0000
0000
0000
,  // measure 48
0001
0000
0000
0000
,  // measure 49
0001
0000
0000
0000
,  // measure 50
1000
0000
0000
0000
,  // measure 51
1000
0000
0000
0000
,  // measure 52
1000
0000
0000
0000
,  // measure 53
1000
0000
0000
0000
,  // measure 54
1000
0000
0000
0000
,  // measure 55
1000
0000
0000
0000
,  // measure 56
1000
0000
0000
0000
,  // measure 57
1000
0000
0000
0000
,  // measure 58
0001
0000
0000
0000
,  // measure 59
0001
0000
0000
0000
,  // measure 60
1001
0000
0000
0000
;
