#TITLE:Change;
#SUBTITLE:;
#ARTIST:MONKEY MAJIK ft. Yoshida Brothers;
#TITLETRANSLIT:;
#SUBTITLETRANSLIT:;
#ARTISTTRANSLIT:;
#GENRE:;
#CREDIT:;
#MUSIC:[Sentimental Value] - Change.ogg;
#BANNER:Banner.png;
#BACKGROUND:[Sentimental Value] - Change-bg.png;
#CDTITLE:;
#SAMPLESTART:62.684;
#SAMPLELENGTH:15.120;
#SELECTABLE:YES;
#OFFSET:-0.049;
#BPMS:0.000=125.000;
#STOPS:;
#BGCHANGES:;
#FGCHANGES:;

//--------------- dance-single - Wari ----------------
#NOTES:
     dance-single:
     Wari:
     Beginner:
     2:
     0,0,0,0,0:
0000
0000
0000
0000
,
0000
0000
0000
0000
,
0000
0000
0000
0000
,
0000
0000
0000
0000
,
0000
0000
0000
0000
,
0001
0000
1000
0000
,
0001
1000
0001
1000
,
0010
0000
0100
0000
,
0010
0100
0010
0100
,
0001
0000
0010
0000
,
0001
0010
0001
0010
,
0100
0000
1000
0000
,
0100
1000
0100
1000
,
2002
0000
0000
3003
,
0001
0100
0001
0100
,
2002
0000
0000
3003
,
1000
0100
1000
0100
,
0220
0000
0000
0330
,
1000
0010
1000
0010
,
1000
0001
0010
0001
,
1000
0001
1000
0000
,
0001
1000
0001
0000
,
0100
0000
0000
0200
0000
0000
0300
0000
,
0010
1000
0001
0000
,
0001
0010
0100
0000
,
0100
1000
0010
0000
,
0100
0001
0010
0000
,
0001
0000
1000
0000
,
0001
1000
0001
0000
,
0110
0000
1001
0000
,
0010
0000
0010
0000
,
1001
0000
0100
0000
,
0010
0000
0000
0010
0000
0000
0000
0000
,
0110
0010
0100
0010
,
0100
0010
0100
0010
,
0200
0000
0302
0000
,
0023
0000
0000
0000
0230
0000
0000
0300
,
1001
0000
0100
0001
,
1000
0001
1000
0001
,
0110
0000
1001
0000
,
0110
0000
1001
0000
,
1000
1000
1000
0000
,
0001
0001
0001
0000
,
0110
0000
0000
0000
;

//--------------- dance-single - Wari ----------------
#NOTES:
     dance-single:
     Wari:
     Easy:
     3:
     0,0,0,0,0:
0000
0000
0000
0000
,
0000
0000
0000
0000
,
0000
0000
0000
0000
,
0000
0000
0000
0000
,
0000
0000
0000
0000
,
1000
0100
1000
0000
0001
0100
0001
0000
,
1000
0100
0001
0100
,
1001
0000
0101
0000
,
1000
0010
0001
0010
,
1001
0100
0010
0100
,
0001
0010
1000
0100
,
0011
0000
1010
0000
,
0101
1000
0001
1000
,
0200
0001
0000
1000
,
0000
0001
0000
1000
,
2300
0010
0000
0001
,
0000
0010
0000
3002
,
0203
0001
0000
1000
,
0000
0001
0302
0013
,
0100
1000
0010
0000
0100
0000
0100
0000
,
0100
0000
0100
0002
0000
0000
0000
0000
,
0013
0010
0100
0000
,
1000
0000
0000
0001
0000
1000
0001
1000
,
0001
0001
0000
0000
0100
0100
0000
0000
,
0010
0010
0000
1000
0000
1000
0000
0100
,
0010
0010
0000
0000
0001
0001
0000
0000
,
0010
0100
1000
0010
,
0100
0100
0000
0000
0001
0001
0000
0000
,
0010
1000
0010
0001
,
0101
0100
0001
1000
,
0010
0000
0010
0000
0020
0000
0000
0030
,
0100
0000
0001
0000
0010
0000
0100
0010
,
0000
0010
0000
0010
0000
0000
0000
0000
,
1001
1000
0100
0001
,
0010
0001
0100
1000
,
1010
0101
0001
1000
,
0100
0010
0001
0100
,
1001
0000
1100
0000
,
1001
0110
1001
0110
,
1001
0000
0001
0000
1000
0000
0100
0100
,
0000
0010
0000
0100
0000
0001
0001
0000
,
1001
1000
0100
1000
,
0010
0001
0010
1000
,
1000
0000
0000
0000
0001
0000
0000
0100
,
0000
0010
0000
0100
0000
0000
0000
0000
;

//--------------- dance-single - Wari ----------------
#NOTES:
     dance-single:
     Wari:
     Medium:
     6:
     0,0,0,0,0:
0000
0000
0000
0000
,
0000
0000
0000
0000
,
0000
0000
0000
0000
,
0000
0000
0000
0000
,
0000
0000
0000
0000
0000
0000
0001
0010
,
1100
0000
0001
0100
0001
1000
0010
0000
,
1000
1000
0100
0020
0000
0001
0001
0031
,
0100
0010
0100
0000
0011
0000
1000
0000
,
1000
0100
0001
0200
0000
0010
0010
0310
,
0001
0100
0001
0000
1000
0010
1000
0000
,
0001
0100
0010
1000
0100
0010
0001
0000
,
1100
1000
0110
0010
,
0011
0000
0001
0000
0100
0000
0020
0000
0000
0000
1000
0000
1000
0000
0000
0030
,
0110
0000
0100
0001
0010
0000
0100
1000
,
0010
0100
1000
0200
0000
0000
0301
0000
,
1000
0100
1000
0000
0001
0100
0001
0000
,
1000
0100
0010
0001
0100
0010
1000
0001
,
1010
0000
0001
1000
0100
0000
0010
0001
,
0010
1000
0010
0002
0000
0100
0100
0203
,
0020
0300
2000
0030
3100
0100
0010
0000
,
0001
1000
0100
0020
0030
0010
0001
0100
,
0010
0010
0000
0000
1000
1000
0000
0000
,
0100
0001
0000
0020
0000
0100
0100
0100
,
0130
0010
1000
0100
0001
0000
0001
0100
,
1000
0001
0100
1000
0000
0110
0000
1001
,
0000
0001
0100
0010
0100
0010
1000
0100
,
0010
0100
0000
1000
0000
0010
0001
0010
,
1000
1000
0110
0000
0001
0001
0110
0000
,
0100
0001
1000
0010
0000
0011
0001
0000
,
0100
0010
1000
0100
,
0010
0000
0010
0000
0010
0000
0001
1000
,
0001
0100
0010
1000
0100
1000
0010
0100
,
0000
0010
0000
0010
0000
0100
0001
1000
,
0100
0001
0100
0000
1000
0010
0001
0000
,
1000
0100
0001
0000
0010
1000
0010
0000
,
0011
0000
0101
0000
1100
0000
1010
0001
,
0000
0100
0000
0010
0000
1000
0100
0010
,
0001
0100
1000
0000
0001
0010
1000
0000
,
0100
0001
1000
0000
0010
0001
0100
0000
,
1010
0000
1100
0000
0101
0000
0011
0010
,
0001
0010
0100
1000
0100
0010
0001
0010
,
0101
0000
1010
0100
0010
0001
0100
0010
,
0000
0010
0000
0010
0000
0001
0100
1000
,
0100
0000
0001
0000
0010
0000
1000
0100
,
0000
0010
0000
0001
0000
0000
0000
0000
;

//--------------- dance-single - Wari ----------------
#NOTES:
     dance-single:
     Wari:
     Hard:
     8:
     0,0,0,0,0:
0000
0000
0000
0000
,
0000
0000
0000
0000
,
0000
0000
0000
0000
,
0000
0000
0000
0000
,
0000
0000
0000
0000
0000
0000
0000
0000
0000
0000
0000
0000
1000
0001
1000
0001
,
0100
1000
0001
0000
0001
0010
1000
0000
,
1000
0100
0001
0010
0001
0100
1000
0010
,
0100
0100
0001
0000
0010
0010
0100
0000
,
1000
0100
1000
0010
0001
0010
1000
0010
,
0100
0100
0011
0000
0100
0100
1010
0000
,
1000
0100
0010
0100
0010
0001
0010
0100
,
1000
0001
0100
0000
0010
1000
0100
0000
,
0010
0001
0010
0100
1000
0100
0010
0001
,
0201
0000
0001
0000
1000
0000
1000
0300
,
0100
0000
0001
0000
0010
0000
2000
0000
0000
0000
3001
0000
0100
1000
0010
0100
,
1000
0100
0001
0000
1000
0001
1000
0000
,
0001
0100
0010
0100
0001
1000
0100
0010
,
0100
0100
1100
0000
0100
0100
0101
0000
,
0011
0100
0010
2000
0000
0010
0010
3010
,
1001
0100
0010
0000
1001
0100
0010
0000
,
1010
0010
1000
0200
0000
1000
1000
1300
,
0001
0100
0010
0000
0010
1000
0100
0000
,
0010
0000
0010
0000
0100
0000
1001
0000
0000
0000
0100
0000
0010
1000
0001
0010
,
0100
1000
0010
1000
0100
0010
0001
0100
,
0001
0010
0100
2000
3000
1010
0000
1100
,
0011
0001
0100
0010
0100
0010
1000
0100
,
0010
0000
0010
0000
0001
0000
0200
0000
0300
0000
0100
0000
0010
1000
0010
1000
,
0100
0010
0001
1000
0100
0010
0001
0100
,
0010
0000
0100
0000
0001
0000
0020
0000
0030
0000
0010
0000
0100
1000
0100
1000
,
0010
0000
0001
0000
0100
0000
1000
0010
,
0000
0010
0000
0020
0000
0130
0001
0010
,
1000
0000
0100
0000
0001
0000
0100
0010
,
0000
0000
0010
0100
0010
0100
0020
0000
0000
0000
1030
0000
0100
0010
0001
0100
,
0010
1000
0100
0001
0100
1000
0010
1000
,
0100
0001
0100
1000
0010
0100
0001
0010
,
1100
0000
0101
0010
0200
0000
1300
0100
,
0001
0100
1000
0100
0001
0010
0100
1000
,
1001
0000
0000
0000
0001
0010
0001
0000
0100
0000
0010
0000
0100
0000
0010
0000
,
1000
0100
1000
0000
0100
0000
0010
0000
0100
0000
0010
0000
0001
0100
0001
0000
,
0001
0010
1000
0010
0001
0010
1000
0010
,
0001
0100
1000
0100
0001
1000
0100
0001
,
0100
0010
0001
0010
0100
1000
0100
0010
,
0100
1000
0010
0100
0010
0001
0010
1000
,
0100
0000
0001
0010
1000
0000
0001
0100
,
0000
0010
0000
1000
0000
0000
0000
0000
;

//--------------- dance-single - Wari ----------------
#NOTES:
     dance-single:
     Wari:
     Challenge:
     10:
     0,0,0,0,0:
0000
0000
0000
0000
,
1001
1001
0000
0000
1100
1100
0000
0000
,
1010
0000
0011
0000
0000
0000
0210
0000
0000
0000
0310
0000
0001
0100
0010
1000
,
0100
1100
0000
0000
0101
0101
0000
0000
,
0110
0000
0110
0000
0000
0000
2010
0000
0000
3000
0001
0000
1000
0100
0010
0001
,
0010
0000
0001
0000
0100
0010
0100
0000
0010
1000
0010
0000
1000
0100
1000
0100
,
0010
0001
0010
0100
0010
0001
0100
0010
1000
0000
0100
0000
0010
0000
0010
0000
,
0001
0100
0010
0000
1000
0100
0010
0000
0001
0010
0100
0000
1000
0010
0100
0000
,
0100
0010
1000
0100
0010
0100
0001
0100
0010
0001
0010
0100
1000
0010
0100
1000
,
0100
0100
1010
0100
0011
0011
0100
0100
,
0010
0100
1000
0100
0010
0100
1000
0100
0010
0001
0010
0100
0010
0001
0010
0100
,
1000
1000
0110
0100
0001
0001
0110
0100
,
1000
0010
0100
0001
0010
0100
1000
0001
0010
0001
0100
1000
0001
0000
0110
0000
,
2100
0001
0010
0100
,
3010
0000
0100
0000
0001
0000
0020
0000
0000
0000
0130
0000
1000
0010
0100
0001
,
0010
0100
0010
1000
0010
0001
0010
0100
,
0001
0000
0100
0000
0000
0000
0110
0000
0000
0000
1001
0000
1000
0001
0010
0001
,
0100
0100
1010
0001
0100
0100
0101
1000
,
0010
0000
0100
0000
0001
0000
0020
0000
0000
0030
0100
0000
1000
0010
0100
1000
,
0100
0001
0010
0000
1000
0010
0001
0100
,
1000
0000
0100
0000
0001
0000
0100
0000
0000
0000
0010
0000
0100
0001
0010
0100
,
1000
1100
1010
0000
0001
0001
0000
0000
,
1000
0000
1000
0000
0100
0000
0020
0000
0000
0030
0010
0000
0100
0010
0001
1000
,
0010
1000
0100
1000
0010
0100
0001
1000
,
0100
0010
0100
0100
0000
1100
0000
0101
,
1010
0100
0010
0001
0100
0010
1000
0100
,
0010
0001
0010
0000
0100
0000
0010
0000
0000
0000
0110
0000
0001
0100
0010
1000
,
0100
1000
0010
0100
0001
0100
1000
0100
,
0001
0000
0010
0000
1000
0000
0010
0000
0001
0000
0001
0000
0100
0010
0100
0000
,
0110
1000
0100
0010
0100
0100
1010
0010
,
0100
0000
0100
0000
0000
0000
0202
0000
0000
0303
0010
0000
1000
0010
0100
0000
,
0001
0000
0010
0000
0100
1000
0010
0000
0100
0001
0010
0000
0100
0000
1000
0000
,
0010
0000
0000
0000
0000
0000
1000
0000
0001
0000
1000
0000
0001
0000
0000
0010
0000
0000
0100
0000
0000
0000
0000
0000
0000
0000
0000
0000
0000
0000
0010
0000
0000
0000
0000
0000
0010
0000
0000
0100
0000
0000
0010
0000
0000
0100
0000
0000
,
1000
0100
0010
0001
1000
0100
0010
0001
0100
0010
0001
0010
1000
0001
0010
0100
,
1000
0010
0100
1000
0100
0001
0010
0100
1000
0010
0100
0001
0010
0100
1000
0000
,
1100
0000
0010
1000
0010
0000
0100
0001
0100
0000
0001
0000
0001
0000
0110
0000
,
1000
0110
0001
0110
1000
0001
0100
0010
,
0100
0001
0010
0100
1000
0100
0010
0100
1000
0010
0100
0001
0010
0100
1000
0100
,
0010
0001
0010
0100
0010
0001
0010
0100
1000
0010
0100
0001
0100
1000
0100
0001
,
0010
0000
0010
0000
0100
1000
0100
0000
1000
0000
1000
0000
0010
0100
0010
0000
,
0100
0001
0010
1000
0010
0001
1010
0100
,
0010
0100
1000
0100
0010
0100
0001
0010
0100
1000
0100
0001
0100
1000
0010
0100
,
0001
0100
1000
0100
0001
0010
0100
1000
0010
0100
0001
0100
1000
0100
0001
0010
,
1000
0000
0100
0001
0010
0000
1000
0010
,
0000
0100
0000
0001
0000
0000
0000
0000
;
