#TITLE:BITE;
#SUBTITLE:;
#ARTIST:Benjamin Briggs;
#TITLETRANSLIT:;
#SUBTITLETRANSLIT:;
#ARTISTTRANSLIT:;
#GENRE:Chip Groove;
#CREDIT:;
#BANNER:[Sentimental Value] - BITE.png;
#BACKGROUND:[Sentimental Value] - BITE-bg.png;
#LYRICSPATH:;
#CDTITLE:cdtitle.png;
#MUSIC:[Sentimental Value] - BITE.ogg;
#OFFSET:0.000038;
#SAMPLESTART:27.428534;
#SAMPLELENGTH:13.714289;
#SELECTABLE:YES;
#BPMS:0.000000=140.000000
;
#STOPS:
;
#BGCHANGES:;
#KEYSOUNDS:;
#ATTACKS:;

//---------------dance-single - ----------------
#NOTES:
     dance-single:
     :
     Challenge:
     9:
     0.586229,0.623267,0.394907,0.661041,0.257548,478.000000,432.000000,46.000000,77.000000,0.000000,0.000000,0.586229,0.623267,0.394907,0.661041,0.257548,478.000000,432.000000,46.000000,77.000000,0.000000,0.000000:
0000
0000
0000
0000
,
0000
0000
0000
0000
,
0000
0000
0000
0000
,
0000
0000
0000
0000
,
2000
0000
3010
1000
0000
1000
0010
1000
,
0002
0000
0013
0001
0000
0001
0010
0001
,
0200
0000
1300
0100
0000
0100
0001
1000
,
0200
0000
0300
0100
1100
0100
0011
0000
,
2001
0000
3010
1000
0200
0000
1300
1000
,
1002
0000
0000
0000
0013
0000
0010
0001
0200
0000
0000
0000
0310
0000
0010
0000
,
0210
0000
0000
0000
1300
0000
0100
0000
0002
0000
0000
0000
1003
0001
1000
0000
,
1200
0000
0310
0001
0101
0100
1010
0000
,
1002
0000
0000
0000
0013
0000
0010
0001
0200
0000
0000
0000
0301
0000
0001
0000
,
2001
0000
0000
0000
3010
0000
0010
1000
0200
0000
0000
0000
0310
0000
0010
0000
,
0210
0000
0000
0000
0301
0000
0100
0010
0200
0000
0000
0000
1300
0000
0001
0000
,
0201
0000
0310
1000
1010
0010
0101
0000
,
2001
0000
0000
0000
0000
0000
3010
1000
0002
0000
0000
0000
0000
0000
0000
0000
,
0013
1000
0010
0002
0000
0103
2000
0000
,
3200
0000
0000
0000
0000
0000
0310
0100
0002
0000
0000
0000
0000
0000
0023
0230
,
2300
0000
0000
3010
1010
0010
0101
0000
,
1002
0000
0000
0000
0000
0000
0013
0001
2000
0000
0000
0000
0000
0000
0000
0000
,
3010
0001
0010
2000
0000
3100
0002
0000
,
0203
0000
0000
0000
0000
0000
0310
0100
2000
0000
0000
0000
0000
0000
3002
0203
,
0320
0000
0000
1030
1010
0001
0011
0100
,
1000
0000
0010
0000
0000
1000
0000
0000
0200
0000
0000
0000
0301
0000
0100
0010
,
0001
0000
0100
0000
1000
0000
0200
0000
0000
0000
0310
0100
0002
0000
0000
0000
,
2003
0000
0000
0000
3001
0010
0001
0010
0000
0000
0001
0000
0001
0000
1000
0010
,
2000
0000
0001
3002
0000
0103
1000
0100
,
0001
0000
0010
0000
0000
0001
0000
0000
0201
0000
0000
0000
1300
0000
0100
0010
,
1000
0000
0100
0000
0001
0000
0200
0000
0000
0000
1300
0000
0020
0000
0000
0130
,
0002
0000
0000
0000
0013
0001
0010
0001
1000
0000
0000
0000
0010
0000
1000
0000
,
0200
0000
0000
0000
0310
0100
0010
0100
1000
0000
1000
0000
0001
0000
0001
0000
,
1000
0000
0010
0000
1000
0100
1000
0100
0010
0000
0001
0000
0100
0000
1000
0000
,
0100
0000
0001
0000
0010
0100
0010
0100
1000
0000
0010
0000
0001
0000
0010
0000
,
1000
0000
0001
0000
0010
0100
0010
0100
0001
0000
0100
0000
0010
0000
0001
0000
,
1000
0000
0001
0000
0100
0010
0100
0010
0001
0000
0010
0000
1000
0000
1000
0000
,
0001
0000
0010
0000
0001
0100
0001
0100
0010
0000
1000
0000
0100
0000
0001
0000
,
0100
0000
1000
0000
0010
0100
0010
0100
0001
0000
0010
0000
1000
0000
0010
0000
,
0001
0000
1000
0000
0010
0100
0010
0100
1000
0000
0100
0000
0010
0000
1000
0000
,
0001
0000
1000
0000
0100
0010
0100
0010
1000
0000
0010
0000
0001
0000
0100
0000
,
0120
0000
0000
0000
1030
0000
0100
0010
0200
0000
0000
0000
0301
0000
0100
0000
,
1000
0000
0010
0000
0001
0000
0010
0100
0020
0000
0000
0000
1030
0000
0001
0000
,
0020
0000
0000
0000
0000
0000
0130
1000
0002
0000
0000
0000
0000
0000
0000
0000
,
0103
1000
0100
0001
0011
0001
1001
0000
,
2010
0000
0000
0000
3001
0000
0100
0010
0200
0000
0000
0000
0301
0000
0010
0000
,
1000
0000
0010
0000
0001
0000
0100
0010
0200
0000
0000
1300
0100
0000
0010
0000
,
2000
0000
0000
0000
3001
0000
1000
0001
1000
0000
0100
0000
0001
0000
0100
0000
,
2000
0000
3010
1000
1001
1000
1100
0000
,
0120
0000
0000
0000
0031
0000
0100
0010
0200
0000
0000
0000
1300
0000
0100
0000
,
0001
0000
0010
0000
1000
0000
0010
0100
0020
0000
0000
0000
0031
0000
1000
0000
,
0020
0000
0000
0000
0000
0000
0130
0001
2000
0000
0000
0000
0000
0000
0000
0000
,
3100
0001
0100
1000
1010
1000
1001
0000
,
0012
0000
0000
0000
1003
0000
0100
0010
0200
0000
0000
0000
1300
0000
0010
0000
,
0001
0000
0010
0000
1000
0000
0100
0010
0200
0000
0000
0301
0100
0000
0010
0000
,
0002
0000
0000
0000
1003
0000
0001
1000
0001
0000
0100
0000
1000
0000
0100
0000
,
0002
0000
0013
0001
1001
0001
0101
0000
,
2010
0000
0000
0000
3010
0000
0010
1000
0100
0000
1000
0000
0100
0000
0010
0000
,
0012
0000
0000
0000
0013
0000
0010
0001
0100
0000
1000
0000
0100
0000
0001
0000
,
0102
0000
0000
0000
0103
0000
0100
0001
0010
0000
0100
0000
1000
0000
0100
0000
,
2100
0000
3100
1000
1010
0010
0101
0000
,
0012
0000
0000
0000
0013
0000
0010
0001
0100
0000
0001
0000
0100
0000
0010
0000
,
2010
0000
0000
0000
3010
0000
0010
1000
0100
0000
0001
0000
0100
0000
1000
0000
,
2100
0000
0000
0000
3100
0000
0100
1000
0010
0000
0100
0000
0001
0000
0100
0000
,
0102
0000
0103
0001
0011
0010
1100
0000
,
2002
0000
0000
0000
,
0000
0000
0000
0000
,
3003
0000
0000
0000
;

//---------------dance-single - ----------------
#NOTES:
     dance-single:
     :
     Hard:
     8:
     0.445191,0.481615,0.206039,0.643871,0.068680,363.000000,339.000000,24.000000,75.000000,0.000000,0.000000,0.445191,0.481615,0.206039,0.643871,0.068680,363.000000,339.000000,24.000000,75.000000,0.000000,0.000000:
0000
0000
0000
0000
,
0000
0000
0000
0000
,
0000
0000
0000
0000
,
0000
0000
0000
0000
,
2000
0000
3010
1000
0000
1000
0001
0000
,
0020
0000
0130
0000
0000
0100
0010
0000
,
0002
0000
0013
0001
0000
0001
1000
0000
,
0020
0000
0030
0100
0010
0100
0010
0000
,
2001
0000
3010
1000
0200
0000
0300
0000
,
1002
0000
0013
0001
0200
0000
0300
0000
,
2001
0000
3001
0100
2000
0000
3000
0000
,
0210
0000
0301
1000
0100
1000
0100
0000
,
1002
0000
0103
0001
0020
0000
0030
0000
,
2001
0000
3100
1000
0020
0000
0030
0000
,
1002
0000
1003
0100
0002
0000
0003
0000
,
0210
0000
1300
0001
0100
0001
0100
0000
,
2001
0000
0000
3001
0020
0000
0000
0000
,
0031
0100
0010
0200
0000
1300
0200
0000
,
0302
0000
0000
0000
0000
0000
0013
0000
0012
0000
0000
0000
0000
0000
1003
0010
,
2000
0000
0000
3100
0001
0100
1000
0000
,
1002
0000
0000
1003
0020
0000
0000
0000
,
1030
0100
0010
0200
0000
0301
0200
0000
,
2300
0000
0000
0000
0000
0000
3010
0000
2010
0000
0000
0000
0000
0000
3001
0010
,
0002
0000
0000
0103
1000
0100
0001
1000
,
0001
0000
0010
0000
0000
0001
0000
0000
2000
0000
0000
0000
0000
0000
3010
0100
,
0010
0000
1000
0000
0001
0000
2000
0000
0000
0000
3100
0010
0200
0000
0000
0000
,
2300
0000
0000
0000
0010
0000
0000
0000
0000
0000
0000
0000
3010
0000
0100
0001
,
0200
0000
0310
2000
0000
3100
0010
0001
,
1000
0000
0010
0000
0000
0100
0000
0000
0002
0000
0000
0000
0000
0000
0013
0100
,
0010
0001
1000
0002
0000
0103
0020
0000
,
2030
0000
3001
1000
0001
0000
1000
0100
,
0020
0000
0130
0000
1000
1000
0001
0001
,
1000
0010
1000
0100
0010
0100
1000
0010
,
0100
0001
0010
0100
0010
0001
0100
0010
,
1000
0100
1000
0010
0100
0001
0010
0001
,
0100
0010
1000
0001
0010
0100
1000
0001
,
1000
0010
0100
1000
0100
0010
1000
0001
,
0010
0100
0001
0100
0010
0001
1000
0010
,
0100
0010
0001
0010
0100
0010
1000
0001
,
1000
0100
0010
1000
0010
0100
1000
0001
,
0200
0000
0310
1000
0200
0000
0310
0001
,
0100
1000
0100
0001
0020
0000
0130
1000
,
0002
0000
0000
0100
0200
0000
0303
0000
,
0001
0100
1000
0100
0002
0000
1003
0000
,
1002
0000
0013
0001
0200
0000
1300
0100
,
0010
0000
0100
0000
0001
0000
1000
0000
0200
0000
0000
0310
0100
0000
1000
0000
,
0020
0000
0130
0001
0100
0001
1000
0001
,
0020
0000
0130
1000
0010
0100
0001
0000
,
1200
0000
0310
0001
0200
0000
0310
1000
,
0100
0001
0100
1000
0020
0000
0130
0001
,
2000
0000
0000
0100
0200
0000
3300
0000
,
1000
0100
0001
0100
2000
0000
3001
0000
,
2001
0000
3010
1000
0200
0000
0301
0100
,
0010
0000
0100
0000
1000
0000
0001
0000
0200
0000
0000
0310
0100
0000
0001
0000
,
0020
0000
0130
1000
0100
1000
0001
1000
,
0020
0000
0130
0001
0010
0100
1000
0000
,
2010
0000
0000
0000
0000
0000
3001
1000
0001
0000
0000
0000
0000
0000
0000
0000
,
0012
0000
0000
0000
0000
0000
1003
0001
1000
0000
0000
0000
0000
0000
0000
0000
,
0102
0000
0000
0000
0000
0000
1003
0001
1000
0000
0000
0000
0000
0000
0000
0000
,
2100
0000
0000
3001
0100
0010
1000
0000
,
0012
0000
0000
0000
0000
0000
0103
0001
0100
0000
0000
0000
0000
0000
0000
0000
,
2010
0000
0000
0000
0000
0000
3100
1000
0100
0000
0000
0000
0000
0000
0000
0000
,
0102
0000
0000
0000
0000
0000
0013
0001
0010
0000
0000
0000
0000
0000
0000
0000
,
2100
0000
0000
3010
0001
0010
1000
0000
,
2002
0000
0000
0000
,
0000
0000
0000
0000
,
3003
0000
0000
0000
;

//---------------dance-single - ----------------
#NOTES:
     dance-single:
     :
     Medium:
     5:
     0.363020,0.396624,0.429247,0.515097,0.000000,296.000000,246.000000,50.000000,60.000000,0.000000,0.000000,0.363020,0.396624,0.429247,0.515097,0.000000,296.000000,246.000000,50.000000,60.000000,0.000000,0.000000:
0000
0000
0000
0000
,
0000
0000
0000
0000
,
0000
0000
0000
0000
,
0000
0000
0000
0000
,
0002
0000
1003
0010
0000
0010
1000
0000
,
0002
0000
1003
0000
0000
1000
0010
0000
,
2000
0000
3001
0010
0000
0010
0001
0000
,
2000
3000
1100
0101
,
2001
0000
3010
1000
0020
0000
0030
0000
,
1002
0000
0013
0001
0020
0000
0030
0000
,
2001
0000
3001
0100
0002
0000
0003
0000
,
2001
3100
0101
1100
,
1002
0000
0103
0001
0200
0000
0300
0000
,
2001
0000
3100
1000
0200
0000
0300
0000
,
1002
0000
1003
0010
2000
0000
3000
0000
,
1002
0013
1100
0101
,
2001
0000
3200
0000
,
0310
0100
1000
0002
0000
0103
0020
0000
,
2030
0000
3000
0000
2001
0000
0000
3100
,
0020
0030
0011
1100
,
1002
0000
0203
0000
,
0310
0100
0001
2000
0000
3100
0020
0000
,
0032
0000
0003
0000
1002
0000
0000
0103
,
0020
0030
1010
0101
,
2000
0100
0000
0100
,
3002
0100
0000
0100
,
2003
0010
0000
0010
,
3002
0010
0000
0010
,
1003
1000
1010
0100
,
0001
0001
0011
0100
,
1000
0001
1001
0100
,
0010
0100
1001
1001
,
1000
0000
0010
1000
0200
0000
0310
0000
,
0001
0000
0010
0001
0200
0000
0310
0000
,
1000
0000
0100
1000
0020
0000
0130
0000
,
0001
0001
1100
0011
,
1000
0000
0010
1000
0020
0000
0031
0000
,
0010
0000
1000
0100
2000
0000
3100
0000
,
0001
0000
0100
0010
0200
0000
1300
0000
,
0010
0010
1001
0110
,
0001
0000
1000
0010
1000
0000
0001
0000
,
1000
0100
1000
0100
1000
0000
0001
0000
,
0201
0000
0020
0330
,
1000
0100
0010
0001
2000
0000
3000
0000
,
0001
0000
0100
0010
0100
0000
0001
0000
,
0010
0100
0010
0100
0010
0000
0001
1000
,
0001
0000
1000
0000
0010
0100
0010
1000
,
0002
0003
1001
0110
,
1000
0000
0001
0010
0001
0000
1000
0000
,
0001
0100
0001
0100
0001
0000
1000
0000
,
1200
0000
0020
0330
,
0001
0100
0010
1000
0002
0000
0003
0000
,
1000
0000
0100
0010
0100
0000
1000
0000
,
0010
0100
0010
0100
0010
0000
1000
0001
,
1000
0000
0001
0000
0010
0100
0010
0001
,
2000
3000
1001
0110
,
2001
0000
0000
0010
3010
0000
0000
0000
,
1002
0000
0000
0010
0013
0000
0000
0000
,
1002
0000
0000
0100
0103
0000
0000
0000
,
2001
3000
1100
0011
,
2010
0000
0000
0100
3100
0000
0000
0000
,
0012
0000
0000
0100
0103
0000
0000
0000
,
2100
0000
0000
0010
3010
0000
0000
0000
,
0102
0003
1001
0110
,
2002
0000
0000
0000
,
0000
0000
0000
0000
,
3003
0000
0000
0000
;

//---------------dance-single - ----------------
#NOTES:
     dance-single:
     :
     Easy:
     3:
     0.213397,0.254973,0.154529,0.412077,0.000000,174.000000,156.000000,18.000000,48.000000,0.000000,0.000000,0.213397,0.254973,0.154529,0.412077,0.000000,174.000000,156.000000,18.000000,48.000000,0.000000,0.000000:
// measure 0
0000
0000
0000
0000
,  // measure 1
0000
0000
0000
0000
,  // measure 2
0000
0000
0000
0000
,  // measure 3
0000
0000
0000
0000
,  // measure 4
2000
3000
0000
0000
,  // measure 5
0020
0030
0000
0000
,  // measure 6
0200
0300
0000
0000
,  // measure 7
0002
0003
0100
0100
,  // measure 8
1002
0000
0020
0033
,  // measure 9
2001
0000
0020
3030
,  // measure 10
2001
0000
0200
3300
,  // measure 11
1002
0000
0100
0103
,  // measure 12
2010
0000
0002
3003
,  // measure 13
0012
0000
2000
3003
,  // measure 14
0102
0000
2000
3003
,  // measure 15
2100
0000
0001
3001
,  // measure 16
1001
0000
2000
0000
,  // measure 17
3010
0000
0000
0010
0000
0000
0100
0000
,  // measure 18
0002
0000
0013
0000
,  // measure 19
0002
0000
0103
0010
,  // measure 20
1000
0000
0002
0000
,  // measure 21
0013
0000
0000
0010
0000
0000
0100
0000
,  // measure 22
2000
0000
3010
0000
,  // measure 23
0200
0000
0001
0301
,  // measure 24
1000
0100
0000
0100
,  // measure 25
1000
0010
0000
0010
,  // measure 26
1000
0001
0000
0001
,  // measure 27
1000
0100
0000
0100
,  // measure 28
1000
1000
0010
0000
,  // measure 29
0100
0100
0001
0000
,  // measure 30
0010
0010
0100
0000
,  // measure 31
1000
0001
0100
0100
,  // measure 32
0010
1000
0002
0003
,  // measure 33
0010
0001
2000
3000
,  // measure 34
0100
1000
0002
0003
,  // measure 35
0100
0001
1000
1000
,  // measure 36
0010
1000
0200
0300
,  // measure 37
0010
0001
0200
0300
,  // measure 38
0001
0010
0200
0300
,  // measure 39
1000
0010
0100
0100
,  // measure 40
0001
0000
0100
0000
,  // measure 41
0100
0001
0010
0000
,  // measure 42
0002
0000
0203
0000
,  // measure 43
1300
0100
0002
0000
,  // measure 44
1003
0000
0100
0000
,  // measure 45
0010
0100
1000
0000
,  // measure 46
0010
0100
0001
0000
,  // measure 47
2000
0000
0001
3001
,  // measure 48
1000
0000
0100
0000
,  // measure 49
0100
1000
0010
0000
,  // measure 50
2000
0000
3200
0000
,  // measure 51
0301
0100
2000
0000
,  // measure 52
3001
0000
0100
0000
,  // measure 53
0010
0100
0001
0000
,  // measure 54
0010
0100
1000
0000
,  // measure 55
0002
0000
1000
1003
,  // measure 56
2010
0000
3001
0000
,  // measure 57
0012
0000
1003
0000
,  // measure 58
2100
0000
3001
0000
,  // measure 59
0102
0000
1000
1003
,  // measure 60
2100
0000
3010
0000
,  // measure 61
0102
0000
0013
0000
,  // measure 62
2010
0000
3100
0000
,  // measure 63
0012
0000
0100
0103
,  // measure 64
2002
0000
0000
0000
,  // measure 65
0000
0000
0000
0000
,  // measure 66
3003
0000
0000
0000
;

//---------------dance-single - ----------------
#NOTES:
     dance-single:
     :
     Beginner:
     1:
     0.093208,0.141652,0.008585,0.291888,0.000000,76.000000,75.000000,1.000000,34.000000,0.000000,0.000000,0.093208,0.141652,0.008585,0.291888,0.000000,76.000000,75.000000,1.000000,34.000000,0.000000,0.000000:
// measure 0
0000
0000
0000
0000
,  // measure 1
0000
0000
0000
0000
,  // measure 2
0000
0000
0000
0000
,  // measure 3
0000
0000
0000
0000
,  // measure 4
1000
0000
0000
0000
,  // measure 5
0100
0000
0000
0000
,  // measure 6
0010
0000
0000
0000
,  // measure 7
0001
0000
0000
0000
,  // measure 8
2000
3000
0000
0000
,  // measure 9
0020
0030
0000
0000
,  // measure 10
2000
3000
0000
0000
,  // measure 11
0002
0003
0000
0000
,  // measure 12
0002
0003
0000
0000
,  // measure 13
0020
0030
0000
0000
,  // measure 14
0002
0003
0000
0000
,  // measure 15
2000
3000
0000
0000
,  // measure 16
0010
0000
0010
0000
,  // measure 17
1000
0000
0001
0000
,  // measure 18
0020
0000
0030
0000
,  // measure 19
0200
0000
0300
0000
,  // measure 20
0010
0000
0010
0000
,  // measure 21
0001
0000
1000
0000
,  // measure 22
0020
0000
0030
0000
,  // measure 23
0200
0000
0300
0000
,  // measure 24
0001
0000
0000
0000
,  // measure 25
0001
0000
0000
0000
,  // measure 26
1000
0000
0000
0000
,  // measure 27
1000
0000
0000
0000
,  // measure 28
0100
0000
0000
0000
,  // measure 29
0010
0000
0000
0000
,  // measure 30
0100
0000
0000
0000
,  // measure 31
0010
0000
0000
0000
,  // measure 32
0002
0003
0000
0000
,  // measure 33
0200
0300
0000
0000
,  // measure 34
2000
3000
0000
0000
,  // measure 35
0020
0030
0000
0000
,  // measure 36
0002
0003
0000
0000
,  // measure 37
0200
0300
0000
0000
,  // measure 38
2000
3000
0000
0000
,  // measure 39
0020
0030
0000
0000
,  // measure 40
0001
0000
0001
0000
,  // measure 41
0100
0000
0100
0000
,  // measure 42
0020
0000
0030
0000
,  // measure 43
1000
0000
0000
0000
,  // measure 44
0001
0000
0001
0000
,  // measure 45
0010
0000
0010
0000
,  // measure 46
0001
0000
1000
0000
,  // measure 47
0020
0000
0030
0000
,  // measure 48
1000
0000
1000
0000
,  // measure 49
0100
0000
0100
0000
,  // measure 50
0020
0000
0030
0000
,  // measure 51
0001
0000
0000
0000
,  // measure 52
1000
0000
1000
0000
,  // measure 53
0010
0000
0010
0000
,  // measure 54
1000
0000
0001
0000
,  // measure 55
0020
0000
0030
0000
,  // measure 56
0002
0003
0000
0000
,  // measure 57
0200
0300
0000
0000
,  // measure 58
0020
0030
0000
0000
,  // measure 59
2000
3000
0000
0000
,  // measure 60
0002
0003
0000
0000
,  // measure 61
0020
0030
0000
0000
,  // measure 62
0200
0300
0000
0000
,  // measure 63
2000
3000
0000
0000
,  // measure 64
2002
0000
0000
0000
,  // measure 65
0000
0000
0000
0000
,  // measure 66
3003
0000
0000
0000
;
