#TITLE:noah;
#SUBTITLE:;
#ARTIST:LIGHT BRINGER;
#TITLETRANSLIT:;
#SUBTITLETRANSLIT:;
#ARTISTTRANSLIT:;
#GENRE:;
#CREDIT:;
#BANNER:bn.png;
#BACKGROUND:bg.png;
#LYRICSPATH:;
#CDTITLE:;
#MUSIC:noah.ogg;
#OFFSET:-0.101;
#SAMPLESTART:28.378;
#SAMPLELENGTH:13.900;
#SELECTABLE:YES;
#BPMS:0.000=139.990,52.000=69.995,54.000=139.990,118.000=69.995,122.000=139.990,202.000=69.995,218.000=139.990;
#STOPS:;
#BGCHANGES:;
#KEYSOUNDS:;

//---------------dance-single - warpdr!ve----------------
#NOTES:
     dance-single:
     warpdr!ve:
     Challenge:
     12:
     0.897,1.000,0.331,0.361,1.000:
0000
0000
0000
0000
,
0000
0000
0000
0000
,
0000
0000
0000
0000
,
0000
0000
0000
0000
,
1001
0000
1000
0000
0010
0000
0100
0001
1000
0000
1000
0001
0000
0000
0011
0000
,
0011
0000
0010
0000
0100
0000
1000
0001
0010
0000
0010
0001
0000
0000
1001
0000
,
1001
0000
1000
0000
0010
0000
0100
0001
0100
0000
0000
0010
0000
0000
1000
0000
,
0001
0000
1000
0001
1000
0000
0100
0000
0010
0000
0100
0000
1000
0000
0001
0000
1001
0000
0000
0000
0000
0000
1001
0000
0000
0000
0000
0000
1001
0000
0000
0000
,
1000
0010
0100
0010
1000
0001
0010
0100
1000
0001
0100
0010
0100
0001
1000
0001
,
0010
0100
1000
0001
1000
0010
0100
0010
1000
0001
0010
0100
1000
0001
0100
0001
,
1000
0100
0010
0001
1000
0001
0100
0010
1000
0001
0010
0001
1000
0010
0100
0010
,
1000
0001
0010
0100
1000
0001
0100
0001
2000
0000
0000
3200
0000
0000
1300
0000
,
0001
0100
0000
0100
0000
0010
1000
0000
0010
0000
0000
0000
1010
0000
0000
0000
,
20M0
0000
0000
0000
0000
0000
0000
0000
0000
0000
0000
0000
3000
0000
0001
1000
0001
0000
0000
0000
0000
0000
0100
0000
0000
0000
0000
0000
0100
0000
0000
0000
00M1
0000
0000
0000
0000
0000
0000
0000
1000
0000
0000
0000
0100
0000
0000
0000
0010
0000
0000
0000
0001
0000
0000
0000
1000
0000
0000
0000
0001
0000
0000
0000
,
0010
0100
1000
0001
1000
0100
1000
0000
0001
0000
0000
1001
0000
0000
1001
0000
,
1000
0000
0000
1001
0000
0000
1001
0000
0002
0000
0000
0003
1000
0010
1000
0010
,
2000
0000
0000
0000
3002
0000
0000
0000
0013
0000
0001
0010
0000
0010
0001
0000
,
1000
0000
0001
0010
0000
0010
0100
0000
1000
0000
0001
0100
0000
0100
0010
0000
,
1000
0000
0010
0100
0000
0100
0001
0000
1000
0000
0100
0010
0000
0010
0100
0000
,
1000
0000
0001
0010
0000
0010
0001
0000
1000
0010
0100
0010
1000
0001
0100
0001
,
1000
0100
0010
0001
1000
0100
1000
0001
0020
0000
0000
0001
0000
0000
0031
0000
,
2000
0000
0000
0001
0000
0000
3001
0000
2000
0000
0000
3020
0000
0000
0230
0000
,
0301
0000
1000
0000
0100
0000
0001
0000
0200
0000
1300
0001
0100
0000
0000
0010
,
1000
0001
0010
0100
1000
0001
0010
0001
1000
0000
0000
1001
0000
0000
0101
0000
,
0101
0000
0000
0000
0000
0000
0000
0000
0001
1000
0100
1000
0001
0100
0010
0100
,
0001
1000
0100
0010
0100
1000
0001
0100
0001
1000
0100
1000
0001
0100
0010
0100
,
0001
1000
0100
0010
0001
1000
0010
0100
0001
1000
0100
1000
0001
0100
0010
0100
,
0001
1000
0100
0010
0001
1000
0001
0100
0001
1000
0100
0010
0001
1000
0010
1000
,
0001
0010
0100
1000
0001
0100
0010
0100
0001
1000
0000
1000
0000
0001
0010
0000
,
0001
0000
0000
0000
1001
0000
0000
0000
10M0
1000
0000
0001
0010
0001
1000
0100
,
2000
0000
0000
3002
0000
0000
0203
0000
0000
0000
0310
0000
1000
0000
0001
0000
1M01
0000
0000
0000
0000
0000
1000
0000
0000
0000
0000
0000
1001
0000
0000
0000
,
0001
0010
0100
0010
0001
1000
0001
0010
0002
0003
1000
0010
0000
1000
0010
0000
,
0100
0001
0000
1000
0100
0010
0100
1000
0002
0000
0013
0000
0100
1000
0100
0000
,
2000
0000
3001
0000
0100
0010
0100
0000
0002
0000
1003
0000
0001
0010
0001
0000
,
0000
0000
0010
0000
0100
0000
1000
0000
2001
0000
0000
3001
0000
0000
1002
0000
,
1003
0000
0100
0000
0010
0000
0100
0000
1000
0000
0001
0000
0010
0000
0100
0000
0010
0000
0001
0000
0000
0000
0000
0000
1000
0000
0000
0000
0000
0000
0100
0000
0000
0010
0000
0000
0001
0000
0000
1000
0000
0000
0001
0000
1000
0000
0100
0000
,
0010
0001
1000
0010
1000
0001
0100
0001
1000
0000
0001
0000
1000
0100
0000
0010
,
0001
1000
0001
0000
0010
0100
1000
0000
0001
0000
1000
0000
0010
0100
0000
0010
,
1000
0010
0100
0000
0001
1000
0010
0000
0200
0000
0302
0000
1003
0100
0000
0010
,
0100
1000
0000
0001
0010
0100
0010
0001
1000
0000
0000
0010
0100
0001
0000
0100
,
0010
1000
0000
0001
1000
0010
1000
0001
0100
0000
0000
0101
0000
0000
0101
0000
,
0001
0000
0000
1001
0000
0000
1001
0000
2000
0000
0000
0000
3100
0010
0100
0010
,
0200
0000
0000
0000
2300
0000
0000
0000
3001
0000
0100
0010
0000
0010
1000
0000
,
0001
0000
1000
0001
0000
0001
1000
0000
0001
0000
0010
0100
0000
0100
0010
0000
,
0001
0000
1000
0100
0000
0100
1000
0000
0001
0000
1000
0010
0000
0010
0100
0000
,
0010
0000
1000
0001
0000
0001
0100
0000
0001
1000
0100
0010
0001
1000
0100
1000
,
0001
0100
0010
1000
0010
0100
0001
1000
0001
0000
0010
0100
0000
0100
0010
0000
,
0001
0000
1000
0100
0000
0100
1000
0000
0001
0000
1000
0010
0000
0010
0100
0000
,
0001
0000
0100
0001
0000
0001
1000
0000
0001
0000
0010
0100
2000
0000
0000
0000
,
3001
0100
0010
0100
0001
1000
0010
1000
0001
0000
0000
1001
0000
0000
0011
0000
,
0011
0000
0000
0000
0000
0000
0000
0000
0000
0000
0000
0000
0000
0000
0000
0000
1M01
0000
1000
0000
0000
0000
0010
0100
0010
0000
1000
0000
0001
0000
0100
0000
,
0001
0000
0001
0000
1000
0100
0010
0001
1000
0000
1000
0000
0100
0000
0010
0000
0001
0000
0001
0000
1000
0010
0100
0000
0010
0000
0010
0000
0000
0000
0100
0000
,
0001
0000
0001
0000
1000
0001
0010
0100
0010
0000
0001
0000
1000
0000
0001
0000
1000
0000
1000
0000
0010
0100
0001
1000
0002
0000
0203
0000
2300
0000
3200
0000
,
0310
0000
0010
0000
1000
0001
0010
0100
2000
0000
3200
0000
0302
0000
0203
0000
1300
0000
1000
0000
0001
1000
0010
1000
0002
0000
0203
0000
2300
0000
3200
0000
,
0301
1000
0100
0010
0100
1000
0001
0100
0001
1000
0100
0010
0001
0000
0000
0000
1M01
0000
0000
0000
0000
0000
1001
0000
0000
0000
0000
0000
1001
0000
0000
0000
,
1000
0010
0100
0010
0100
0001
0100
0010
1000
0001
0000
0001
1000
0100
0010
0001
,
0010
0100
1000
0001
1000
0000
0000
0000
1001
0000
0000
1001
0000
0000
1001
0000
,
0000
0000
0000
0000
0001
0000
0100
0000
0020
0000
0030
0000
0000
0000
1000
0010
1000
0000
0001
0000
0010
0000
0100
0000
1000
0000
0100
0000
1000
0000
0001
0000
,
0010
0000
0100
0000
1000
0000
0001
1000
0001
0000
0100
0000
0010
0000
1000
0000
0001
0000
0000
0000
0100
0000
0010
0000
0000
0000
0010
0000
1000
0000
0000
0000
,
0002
0000
0000
0023
0000
0000
0130
0000
1000
0000
0001
0010
0000
0010
0001
0000
,
1000
0000
0010
0100
0000
0100
0001
1000
0010
0000
0100
0001
0000
1000
0001
1000
,
0100
0000
0000
0010
0000
0000
0100
0000
0000
1000
0000
0000
0001
0000
0100
0000
0010
0000
1000
0000
0010
0000
0100
0000
0002
0000
0000
0000
0000
0000
0000
0000
0000
0000
0000
0000
1003
0000
0000
0000
0000
0000
0400
0000
0000
0000
0000
0000
,
0000
0000
0000
0000
0000
0000
0300
0000
1100
0000
0000
1000
0002
0000
0103
0000
,
0010
1000
0000
1000
0020
0000
0130
0000
0001
1000
0000
1000
0002
0000
0013
0000
,
0100
1000
0000
1000
0200
0000
1300
0000
0001
0100
0010
1000
0100
0010
0001
0100
,
0010
1000
0100
0010
0001
0100
0010
1000
0001
0000
0000
0101
0000
0000
0101
0000
,
0100
0000
0000
0110
0000
0000
0110
0000
0010
0000
0000
1010
0000
0000
1010
0000
,
1000
0000
0000
1001
0000
0000
1001
0000
0001
0010
0100
0010
0001
1000
0001
0010
,
0100
0010
0001
1000
0001
0010
0100
0010
0001
1000
0001
0100
0010
1000
0020
0000
,
0000
0000
0000
0000
,
0000
0000
0000
0000
,
0000
0000
0000
0000
0000
0000
0000
0030
,
00M0
0000
0000
0000
;

//---------------dance-single - warpdr!ve----------------
#NOTES:
     dance-single:
     warpdr!ve:
     Hard:
     9:
     0.674,0.866,0.203,0.902,0.541:
0000
0000
0000
0000
,
0000
0000
0000
0000
,
0000
0000
0000
0000
,
0000
0000
0000
0000
,
1001
0000
0000
0000
0000
0000
0000
0011
,
0011
0000
0000
0000
0000
0000
0000
1001
,
2002
0000
0000
0000
0000
0000
0000
3003
,
1010
0000
0000
0000
0000
0000
0000
0000
1001
0000
0000
1001
0000
0000
1001
0000
,
0001
0000
0010
0000
0100
0000
0000
0000
0010
0000
0000
0010
0000
0000
0001
0000
,
1000
0000
0010
0000
0100
0000
0000
0000
0010
0000
0000
0010
0000
0000
1000
0000
,
0001
0000
0010
0000
0100
0000
0000
0000
0010
0000
0000
0010
0000
0000
0001
0000
,
1000
0000
0010
0000
0100
0000
0000
0000
0010
0000
0000
0010
0000
0000
1000
0000
,
0001
0010
0000
0010
0000
0100
1000
0000
0001
0000
0000
0000
1001
0000
0000
0000
,
20M0
0000
3002
0000
0203
0000
0302
0000
10M3
0000
0100
0010
0100
1000
0001
0000
,
2000
0000
0000
3020
0000
0000
0130
0000
0002
0003
0000
1000
0000
0000
1000
0000
,
0002
0003
0000
1000
0000
0000
1000
0000
0002
0003
0000
0000
0010
0100
0010
0100
,
0020
0000
0000
0000
0032
0000
0000
0000
2003
0000
0000
3020
0000
0000
0230
0000
,
0310
0000
1000
0001
0000
0001
1000
0000
0200
0000
0000
0320
0000
0000
0032
0000
,
1003
0000
0100
0010
0000
0010
0100
0000
2000
0000
0000
3002
0000
0000
0203
0000
,
0320
0000
2030
0000
3020
0000
0230
0000
0302
0000
0000
0000
0000
0000
1003
0100
,
0020
0000
0000
0000
0000
0000
0000
0000
0032
0000
0000
1000
0000
0000
1003
0000
,
0002
0000
0000
0100
0000
0000
0103
0000
0002
0000
0000
2003
0000
0000
3002
0000
,
0023
0000
0230
0000
0320
0000
0032
0000
1003
0000
0010
0100
0010
0000
0000
0000
,
0200
0000
0000
0302
0000
0000
1003
0000
1001
0000
0000
1001
0000
0000
1001
0000
,
0002
0000
0000
0023
0000
0000
0230
0000
1300
0000
0001
0100
0010
1000
0001
0000
,
1000
0010
0100
0000
0001
1000
0010
0000
0100
0001
1000
0000
0001
0010
0100
0000
,
0010
0100
1000
0000
0001
1000
0100
0000
0010
0001
1000
0000
0001
0100
0010
0000
,
0100
0001
1000
0000
0010
0100
0010
0000
1000
0001
0100
0000
0001
1000
0001
0000
,
1000
0100
0010
0000
0100
1000
0001
0000
0100
0010
0000
0010
0000
0100
0001
0000
,
1000
0000
0000
0000
1001
0000
0000
0000
0M02
0000
0000
1003
0100
0010
0100
1000
,
0001
0000
0000
0100
0000
0000
0010
0000
0000
0000
0100
0000
0001
0000
1000
0000
0M02
0000
0000
0000
0000
0000
0023
0000
0000
0000
0000
0000
0230
0000
0000
0000
,
0000
0000
0000
0000
0300
0000
0000
0000
2000
0000
0000
0000
3002
0000
0000
0003
0102
0000
0000
0000
0000
0000
2003
0000
0000
0000
0000
0000
3200
0000
0000
0000
,
0000
0000
0300
0000
1000
0100
1000
0100
1000
0000
0001
0000
0100
0010
0100
0000
,
0001
0000
1000
0000
0100
0010
0100
0000
1000
0000
0001
0000
1000
0010
1000
0000
,
0001
0000
0010
0000
0100
0010
0100
0000
0020
0000
0000
0032
0000
0000
2003
0000
,
0000
0000
3020
0000
0230
0000
0302
0000
0203
0000
0000
0320
0000
0000
2030
0000
,
0000
0000
0000
0000
3000
0000
0000
0000
0001
0000
0100
0000
0010
1000
0000
1000
,
0001
0000
0010
0000
0100
0000
1000
0000
0100
0000
0010
0000
0001
1000
0000
1000
,
0010
0100
0001
0100
0020
2030
3002
0000
,
0023
0230
0320
0000
,
0032
0000
0000
2003
0000
0000
3020
0000
0230
0300
0000
0001
0000
0000
0001
0000
,
0200
0300
0000
0001
0000
0000
0001
0000
0200
0300
0000
0000
0001
1000
0001
1000
,
0002
0000
0000
0000
0023
0000
0000
0000
0032
0000
0000
2003
0000
0000
3020
0000
,
0130
0000
0001
1000
0000
1000
0001
0000
0020
0000
0000
0230
0000
0000
0320
0000
,
0031
0000
1000
0100
0000
0100
1000
0000
0002
0000
0000
2003
0000
0000
3002
0000
,
0203
0000
0320
0000
0230
0000
0302
0000
2003
0000
0000
0000
0000
0000
3001
0010
,
0002
0000
0000
0000
0000
0000
0000
0000
2003
0000
0000
0010
0000
0000
3010
0000
,
2000
0000
0000
0001
0000
0000
3001
0000
2000
0000
0000
3002
0000
0000
2003
0000
,
3200
0000
0320
0000
0032
0000
2003
0000
3001
0000
0100
0001
0100
0000
0000
0000
,
0020
0000
0000
2030
0000
0000
3001
0000
1001
0000
0000
1001
0000
0000
1001
0000
,
2000
0000
0000
0000
0000
0000
3200
0000
0000
0000
0000
0000
0320
0000
0000
0000
M031
0000
0001
0000
0000
0000
1000
0010
1000
0000
0010
0000
0100
0000
0001
0000
,
1000
1000
0002
0000
0013
0100
0010
0001
1000
1000
0020
0000
0130
0001
0000
1000
,
0001
0001
0010
0100
1000
0001
0100
0001
1000
1000
0200
0000
1300
0100
0001
0100
,
1000
1000
0002
0000
1003
0010
0001
0010
1000
1000
0002
0000
1003
0100
0001
0100
,
2000
0000
3020
0000
0230
0000
0301
0000
10M0
0000
0000
1000
0000
0000
1000
0000
,
0000
0000
0001
0010
0100
0000
0000
0000
0010
0001
0000
0001
1000
0010
1000
0000
,
0010
0000
0010
0000
0110
0000
0000
0000
0100
0000
0000
0100
0000
0000
0100
0000
,
0000
0000
0001
1000
0200
0300
0000
0000
0010
0000
0001
0010
0000
0010
0001
0000
,
1000
0010
0000
0010
1000
0001
1000
0001
1000
0000
0100
0010
0000
0010
0100
0000
,
2000
0000
0000
3002
0000
0000
0203
0000
0310
0000
1000
0010
0000
0010
0100
0000
,
0002
0000
0000
2003
0000
0000
3100
0010
0100
0000
1000
0100
0000
0000
0010
0001
,
0010
0001
1000
0010
0200
0000
0310
2000
,
0000
0000
0000
0000
0000
0000
3000
0000
1001
0000
0000
0001
0000
0000
0001
0000
,
1001
0000
0000
1000
0000
0000
1000
0000
1010
0000
0000
0010
0000
0000
0010
0000
,
0110
0000
0000
0100
0000
0000
0100
0000
0001
0000
0100
0000
1000
0000
0100
0000
,
0010
0000
0100
0000
0001
0000
1000
0000
1001
0000
0000
0001
0000
0000
0001
0000
,
0011
0000
0000
0010
0000
0000
0010
0000
0110
0000
0000
0100
0000
0000
0100
0000
,
1100
0000
0000
1000
0000
0000
1000
0000
0001
0000
0010
0000
1000
0000
0010
0000
,
0100
0010
0001
1000
0001
0100
0010
2000
,
0000
0000
0000
0000
,
0000
0000
0000
0000
,
0000
0000
0000
0000
,
3000
0000
0000
0000
;
