#TITLE:What The Hell;
#SUBTITLE:;
#ARTIST:Avril Lavigne;
#TITLETRANSLIT:;
#SUBTITLETRANSLIT:;
#ARTISTTRANSLIT:;
#GENRE:FEMINIST PUNK ROCK;
#CREDIT:;
#BANNER:[Rock Out] - What The Hell.png;
#BACKGROUND:[Rock Out] - What The Hell-bg.png;
#LYRICSPATH:;
#CDTITLE:;
#MUSIC:[Rock Out] - What The Hell.ogg;
#OFFSET:1.339000;
#SAMPLESTART:45.030998;
#SAMPLELENGTH:15.000000;
#LASTBEATHINT:0.859137;
#SELECTABLE:YES;
#BPMS:0.000000=150.000000
;
#STOPS:
;
#BGCHANGES:;
#KEYSOUNDS:;
#ATTACKS:;

//---------------dance-single - ----------------
#NOTES:
     dance-single:
     :
     Hard:
     7:
     0.512535,0.560231,0.307521,0.109829,0.000000,490.000000,448.000000,42.000000,15.000000,0.000000,0.000000,0.512535,0.560231,0.307521,0.109829,0.000000,490.000000,448.000000,42.000000,15.000000,0.000000,0.000000:
// measure 0
0000
0000
0000
0000
,  // measure 1
0000
0000
0000
0000
,  // measure 2
0000
0000
0000
0000
,  // measure 3
0000
0000
0000
0000
,  // measure 4
0010
1000
0100
0010
0001
0100
0010
0000
,  // measure 5
1010
0000
0010
0100
0000
0100
0001
0000
,  // measure 6
0001
0010
0001
0010
0100
1000
0010
0000
,  // measure 7
0101
0000
0010
1000
0000
1000
0100
0000
,  // measure 8
0010
0001
0100
1000
0100
0001
0010
0000
,  // measure 9
0101
0000
0001
0100
0000
0100
0010
0000
,  // measure 10
1000
0010
1000
0010
0100
0001
1000
0000
,  // measure 11
0110
0000
0010
0001
0000
0001
0100
0000
,  // measure 12
0010
1000
0100
0001
0100
1000
0010
0000
,  // measure 13
0110
0000
0001
0001
0000
1000
1000
0000
,  // measure 14
0001
0100
0001
0100
0010
1000
0100
0000
,  // measure 15
1001
0000
1000
0100
1000
0001
0100
0000
,  // measure 16
1000
0100
0001
0100
1000
0010
1000
0000
,  // measure 17
0110
0000
1000
1000
0000
0001
0001
0000
,  // measure 18
1000
0100
1000
0100
0010
0001
0100
0000
,  // measure 19
1001
0000
0001
0010
0001
1000
0100
0000
,  // measure 20
0001
0100
1000
0100
0001
0010
0001
0100
,  // measure 21
0001
0000
0100
0020
1000
0000
0031
0000
,  // measure 22
1000
0100
1000
0020
0100
0000
1030
0000
,  // measure 23
0001
0010
0100
1000
0010
0100
0001
1000
,  // measure 24
0100
0010
0001
0100
0010
0100
0010
1000
,  // measure 25
0010
0000
0001
0020
0001
0000
1030
0010
,  // measure 26
0001
0000
0100
0010
1000
0010
0100
0001
,  // measure 27
0010
0100
1000
0000
0010
0100
0001
0000
,  // measure 28
1000
0100
0010
0001
0100
0010
1000
0000
,  // measure 29
1010
0000
0011
0000
1100
0000
0001
0010
,  // measure 30
0100
0000
1000
0010
0100
0001
0001
0000
,  // measure 31
1000
0100
0001
0100
1000
0010
0100
0001
,  // measure 32
0010
0000
0010
0001
0200
0000
1300
0000
,  // measure 33
0101
0000
1100
0000
0011
0000
1000
0010
,  // measure 34
0100
0000
0001
0010
0100
1000
1000
0000
,  // measure 35
0001
0010
1000
0010
0001
0100
0010
1000
,  // measure 36
0010
0000
0010
1000
0200
0000
0301
0000
,  // measure 37
0100
1000
0010
1000
0000
1000
0100
0000
,  // measure 38
0100
0010
0001
0010
0000
0010
0100
0000
,  // measure 39
0100
1000
0010
0000
0100
0001
0010
0000
,  // measure 40
0010
0010
0000
0100
0000
0100
1000
0000
,  // measure 41
1001
0000
0110
0000
1001
0000
1000
0100
,  // measure 42
0010
0000
0001
0100
0010
1000
1000
0000
,  // measure 43
0001
0100
1000
0100
0010
1000
0100
0010
,  // measure 44
0001
0000
0100
0010
0100
0000
1001
0000
,  // measure 45
0100
0000
0000
0000
,  // measure 46
0000
0000
0000
0000
0000
0000
0000
0001
,  // measure 47
1001
0000
0000
0000
,  // measure 48
0000
0000
0000
0000
,  // measure 49
1000
0000
0000
1000
0100
0000
0000
0000
,  // measure 50
0001
0000
0000
0001
0100
0000
0000
0000
,  // measure 51
0100
0000
0000
0100
0010
0000
0000
0000
,  // measure 52
0010
0000
0000
0010
0100
0000
0000
0000
,  // measure 53
1000
0000
1000
0100
0010
0000
0011
0000
,  // measure 54
0001
0000
0100
0010
1000
0000
1010
0000
,  // measure 55
1000
0000
0010
1000
0100
0000
1100
0000
,  // measure 56
0100
0000
0010
0001
0100
0000
0101
0000
,  // measure 57
0010
0000
1010
0000
1000
0100
0010
0000
,  // measure 58
0001
0010
0100
0010
0001
0100
0010
0000
,  // measure 59
0110
0000
0100
0000
0001
0010
0100
0000
,  // measure 60
1000
0100
0010
0100
1000
0010
0100
0000
,  // measure 61
0110
0000
0010
1000
0100
0000
0010
0001
,  // measure 62
0100
0000
0010
1000
0100
1000
0001
0100
,  // measure 63
0001
1000
1100
0101
,  // measure 64
1001
0000
0100
0100
,  // measure 65
0011
0000
1010
0000
1100
0000
0100
0010
,  // measure 66
0001
0000
0100
0010
1000
0001
0001
0000
,  // measure 67
1000
0010
0001
0010
1000
0001
1000
0100
,  // measure 68
0010
0000
0001
1000
0200
0000
0301
0000
,  // measure 69
1010
0000
0011
0000
0101
0000
0001
0100
,  // measure 70
0010
0000
1000
0100
0010
0001
0001
0000
,  // measure 71
0001
0100
1000
0100
0001
1000
0001
0010
,  // measure 72
0100
0000
1000
0001
0020
0000
1030
0000
,  // measure 73
0011
0001
0010
0001
0100
0010
1000
0000
,  // measure 74
1010
1000
0010
1000
0100
0010
0001
0000
,  // measure 75
0101
0001
0100
0001
0100
0010
1000
0000
,  // measure 76
1100
0100
0000
0100
0000
0010
0001
0000
,  // measure 77
1001
0000
0110
0000
1001
0000
0010
0100
,  // measure 78
0001
0000
1000
0100
0010
0001
0001
0000
,  // measure 79
1000
0100
0001
0100
1000
0010
0001
0010
,  // measure 80
0100
0000
0010
1000
0200
0000
0301
0000
,  // measure 81
2000
3000
0000
0000
0000
0000
0000
0000
0000
0000
0000
0000
0000
0000
0000
0000
0000
0000
0000
0000
0000
0000
0000
0000
0000
0000
0000
0000
0000
0000
0000
0000
0002
0003
0000
0000
0000
0000
0000
0000
0000
0000
0000
0000
0000
0000
0000
0000
0000
0000
0000
0000
0000
0000
0000
0000
0000
0000
0000
0000
0000
0000
0000
0000
,  // measure 82
0100
0010
1000
0001
0020
0000
1000
0000
,  // measure 83
0032
0003
0000
0000
0000
0000
0000
0000
0000
0000
0000
0000
0000
0000
0000
0000
0000
0000
0000
0000
0000
0000
0000
0000
0000
0000
0000
0000
0000
0000
0000
0000
2000
3000
0000
0000
0000
0000
0000
0000
0000
0000
0000
0000
0000
0000
0000
0000
0000
0000
0000
0000
0000
0000
0000
0000
0000
0000
0000
0000
0000
0000
0000
0000
,  // measure 84
0010
0100
0001
1000
0200
0000
0001
0000
,  // measure 85
2300
3000
0000
0000
0000
0000
0000
0000
0000
0000
0000
0000
0000
0000
0000
0000
0000
0000
0000
0000
0000
0000
0000
0000
0000
0000
0000
0000
0000
0000
0000
0000
0000
0000
0000
0000
0000
0000
0000
0000
0000
0000
0000
0000
0000
0000
0000
0000
0000
0000
0000
0000
0000
0000
0000
0000
0000
0000
0000
0000
0000
0000
0000
0000
;

//---------------dance-single - ----------------
#NOTES:
     dance-single:
     :
     Medium:
     5:
     0.429902,0.466773,0.197692,0.117151,0.000000,411.000000,384.000000,27.000000,16.000000,0.000000,0.000000,0.429902,0.466773,0.197692,0.117151,0.000000,411.000000,384.000000,27.000000,16.000000,0.000000,0.000000:
// measure 0
0000
0000
0000
0000
,  // measure 1
0000
0000
0000
0000
,  // measure 2
0000
0000
0000
0000
,  // measure 3
0000
0000
0000
0000
,  // measure 4
0000
0000
0000
0000
,  // measure 5
0010
1000
0010
1000
,  // measure 6
0001
0010
0001
0000
0010
0001
0010
0000
,  // measure 7
1000
0100
0010
0001
,  // measure 8
1000
0010
1000
0000
0001
0010
0001
0000
,  // measure 9
0100
0001
0100
0001
,  // measure 10
1000
0100
1000
0000
0100
1000
0100
0000
,  // measure 11
0001
0100
0010
1000
,  // measure 12
0001
0100
0001
0000
1000
0100
1000
0000
,  // measure 13
0001
0010
0001
0010
,  // measure 14
1000
0010
1000
0000
0010
1000
0010
0000
,  // measure 15
0001
0010
0100
1000
,  // measure 16
0001
0010
0001
0000
1000
0010
1000
0000
,  // measure 17
0100
1000
0100
1000
,  // measure 18
0001
0100
0001
0000
0100
0001
0100
0000
,  // measure 19
1000
0010
0100
0001
,  // measure 20
0010
0001
0010
0000
0100
1000
0100
0000
,  // measure 21
0010
0001
0010
0011
,  // measure 22
0010
0100
1000
1100
,  // measure 23
0010
0000
0001
0100
0010
0000
1000
0000
,  // measure 24
0100
0000
0010
0100
1000
0000
1001
0000
,  // measure 25
0001
0100
0010
1010
,  // measure 26
1000
0010
0100
0101
,  // measure 27
0001
0010
0100
0000
1000
0000
0010
0000
,  // measure 28
0100
0000
0010
0100
0001
0000
1000
0000
,  // measure 29
1001
0000
0110
0000
1001
0000
1000
0100
,  // measure 30
0010
0000
0001
0010
0001
0000
0100
0000
,  // measure 31
0010
0100
0010
0100
0010
0000
1000
0000
,  // measure 32
0002
0000
0000
1000
2000
0000
3003
0000
,  // measure 33
0110
0000
1001
0000
0110
0000
0001
0010
,  // measure 34
0100
0000
1000
0010
1000
0000
0010
0000
,  // measure 35
0100
0010
0100
0010
0100
0000
0001
0000
,  // measure 36
2000
0000
0000
0001
0002
0000
3003
0000
,  // measure 37
0100
0000
0010
1000
0010
0000
1000
0000
,  // measure 38
0100
0000
0010
0001
0010
0000
0100
0000
,  // measure 39
0010
0001
0100
0000
0010
1000
0100
0000
,  // measure 40
0100
0100
0000
0010
0000
0010
0000
0000
,  // measure 41
1001
0000
0110
0000
1001
0000
1000
0010
,  // measure 42
0100
0000
0001
0010
0100
0000
1000
0000
,  // measure 43
0001
1000
0001
1000
0001
0000
0100
0000
,  // measure 44
0020
0000
0000
0100
0200
0000
0330
0000
,  // measure 45
1000
0000
1000
0000
0000
0100
0010
0000
,  // measure 46
0001
0000
0001
0000
0000
0010
0100
0000
,  // measure 47
1000
0000
1000
0000
0000
0010
0100
0000
,  // measure 48
0001
0001
1000
1000
,  // measure 49
0100
0000
0010
0000
0001
0000
1000
0010
,  // measure 50
1000
0000
0100
0010
0100
0000
0010
0000
,  // measure 51
0001
0000
1000
0200
0000
0000
0310
0000
,  // measure 52
0001
0000
0001
0200
0000
0310
0000
0000
,  // measure 53
0010
0000
1000
0000
0100
1000
0100
0000
,  // measure 54
0010
0000
0001
0000
0100
0001
0100
0000
,  // measure 55
0010
0000
1000
0020
0000
0000
0130
0000
,  // measure 56
0001
0000
0001
0020
0000
0130
0000
0000
,  // measure 57
1000
0000
0010
0000
0100
0010
0100
0000
,  // measure 58
0001
0010
0001
0010
0001
0000
0100
0000
,  // measure 59
0110
1000
0001
0010
,  // measure 60
0100
1000
0100
1000
0100
0000
0010
0000
,  // measure 61
0110
0001
1001
0100
,  // measure 62
0001
0100
0001
0100
0001
0000
0100
0000
,  // measure 63
0010
1010
0001
0010
,  // measure 64
0100
1000
0100
0010
0001
0000
1000
0000
,  // measure 65
1001
0000
0110
0000
1001
0000
0001
0100
,  // measure 66
0010
0000
1000
0010
1000
0000
0100
0000
,  // measure 67
1000
0001
1000
0001
1000
0000
0001
0000
,  // measure 68
0200
0000
0000
0010
0020
0000
0330
0000
,  // measure 69
0110
0000
1001
0000
0110
0000
1000
0100
,  // measure 70
0010
0000
0001
0010
0001
0000
0100
0000
,  // measure 71
0001
1000
0001
1000
0001
0000
1000
0000
,  // measure 72
0020
0000
0000
0100
0200
0000
0330
0000
,  // measure 73
1000
0000
0100
0000
0010
0001
0010
0000
,  // measure 74
0100
0000
0010
1000
0010
0000
1000
0000
,  // measure 75
0100
0010
0001
0000
0100
0010
1000
0000
,  // measure 76
0001
0001
0000
1000
0000
1000
0000
0000
,  // measure 77
1001
0000
0110
0000
1001
0000
1000
0010
,  // measure 78
0100
0000
0001
0010
0001
0000
1000
0000
,  // measure 79
0010
0100
0010
0100
0010
0000
1000
0000
,  // measure 80
0002
0000
0000
1000
2000
0000
3003
0000
,  // measure 81
1000
1000
0001
0001
,  // measure 82
0010
0100
0010
0000
0100
0010
0100
0000
,  // measure 83
0010
0010
0100
0100
,  // measure 84
1000
0001
1000
0000
0001
1000
0001
0000
,  // measure 85
0010
0000
0000
0000
;

//---------------dance-single - ----------------
#NOTES:
     dance-single:
     :
     Easy:
     3:
     0.248946,0.311182,0.051254,0.131795,0.000000,238.000000,231.000000,7.000000,18.000000,0.000000,0.000000,0.248946,0.311182,0.051254,0.131795,0.000000,238.000000,231.000000,7.000000,18.000000,0.000000,0.000000:
// measure 0
0000
0000
0000
0000
,  // measure 1
0000
0000
0000
0000
,  // measure 2
0000
0000
0000
0000
,  // measure 3
0000
0000
0000
0000
,  // measure 4
0000
0000
0000
0000
,  // measure 5
1000
1000
0001
0001
,  // measure 6
0100
0010
0100
0010
,  // measure 7
1000
0001
1000
0001
,  // measure 8
1000
0100
0010
0001
,  // measure 9
0010
0010
0100
0100
,  // measure 10
1000
0001
1000
0001
,  // measure 11
0100
0010
0100
0010
,  // measure 12
1000
0010
0100
0001
,  // measure 13
1000
1000
0100
0100
,  // measure 14
0010
0001
0010
0001
,  // measure 15
1000
0100
1000
0100
,  // measure 16
0001
0010
0100
1000
,  // measure 17
0010
0010
0100
0100
,  // measure 18
0001
0100
0001
0100
,  // measure 19
0010
1000
0010
1000
,  // measure 20
0010
0100
0001
1000
,  // measure 21
0020
0000
0130
0000
,  // measure 22
0002
0000
1003
0000
,  // measure 23
2000
0000
3001
0000
,  // measure 24
0010
0010
0100
0100
,  // measure 25
2000
0000
3010
0000
,  // measure 26
0002
0000
0103
0000
,  // measure 27
0020
0000
0130
0000
,  // measure 28
2000
0000
0002
3003
,  // measure 29
0100
0100
0100
0010
,  // measure 30
1000
0000
0100
0000
,  // measure 31
0010
0001
1000
0001
,  // measure 32
0200
0000
0310
0000
,  // measure 33
1000
1000
1000
0100
,  // measure 34
0010
0000
0001
0000
,  // measure 35
0100
0010
1000
0100
,  // measure 36
0020
0000
0031
0000
,  // measure 37
1001
0000
0110
0000
,  // measure 38
1001
0000
0110
0000
,  // measure 39
0011
0000
1100
0000
,  // measure 40
0010
0010
0010
0000
,  // measure 41
0001
0001
0001
0100
,  // measure 42
0010
0000
1000
0000
,  // measure 43
0100
0010
0001
0010
,  // measure 44
0200
0000
1300
0000
,  // measure 45
0001
0000
0000
0000
,  // measure 46
0000
0000
0000
0000
,  // measure 47
1001
0000
0000
0000
,  // measure 48
0000
0000
0000
0000
,  // measure 49
1000
0000
1000
0000
,  // measure 50
0010
0000
0010
0000
,  // measure 51
0200
0000
0000
0300
,  // measure 52
0002
0000
0000
0003
,  // measure 53
0010
0100
0010
0000
,  // measure 54
1000
0100
1000
0000
,  // measure 55
2000
0000
0000
3000
,  // measure 56
0020
0000
0000
0030
,  // measure 57
0100
0001
0100
0000
,  // measure 58
0010
1000
0010
0000
,  // measure 59
1000
0100
1000
0000
,  // measure 60
0001
0010
0001
1000
,  // measure 61
0010
0000
0010
0000
,  // measure 62
0100
0001
0100
0001
,  // measure 63
0100
0000
0100
0000
,  // measure 64
0010
1000
0010
1000
,  // measure 65
0100
0100
0100
0010
,  // measure 66
0001
0000
1000
0000
,  // measure 67
0001
0100
0001
0100
,  // measure 68
0020
0000
0130
0000
,  // measure 69
0001
0001
0001
0010
,  // measure 70
0100
0000
1000
0000
,  // measure 71
0010
1000
0010
1000
,  // measure 72
0002
0000
1003
0000
,  // measure 73
0100
0100
0100
0000
,  // measure 74
0010
0010
0010
0000
,  // measure 75
0001
0001
0001
0010
,  // measure 76
0100
1000
1000
1000
,  // measure 77
0010
0010
0010
0100
,  // measure 78
0001
0000
1000
0000
,  // measure 79
0100
0010
0100
0010
,  // measure 80
0002
0000
1003
0000
,  // measure 81
1000
0000
1000
0000
,  // measure 82
0010
0010
0010
0100
,  // measure 83
0001
0000
0001
0000
,  // measure 84
0010
0010
0100
0100
,  // measure 85
1000
0000
0000
0000
;
