#VERSION:0.83;
#TITLE:超☆スーパーDragon Soul;
#SUBTITLE:;
#ARTIST:谷本貴義;
#TITLETRANSLIT:Ultra☆Super Dragon Soul;
#SUBTITLETRANSLIT:;
#ARTISTTRANSLIT:Takayoshi Tanimoto;
#GENRE:;
#ORIGIN:;
#CREDIT:;
#BANNER:Ultra Super Dragon Soul.png;
#BACKGROUND:Ultra Super Dragon Soul-bg.png;
#PREVIEWVID:;
#JACKET:;
#CDIMAGE:;
#DISCIMAGE:;
#LYRICSPATH:;
#CDTITLE:;
#MUSIC:Ultra Super Dragon Soul.ogg;
#OFFSET:-0.740000;
#SAMPLESTART:63.702999;
#SAMPLELENGTH:12.209000;
#SELECTABLE:YES;
#BPMS:0.000=86.000,
19.000=172.000,
253.000=86.000;
#STOPS:16.000=3.488,
150.500=1.047,
220.000=1.047,
254.000=0.698;
#DELAYS:;
#WARPS:;
#TIMESIGNATURES:0.000=4=4;
#TICKCOUNTS:0.000=4;
#COMBOS:0.000=1;
#SPEEDS:0.000=1.000=0.000=0;
#SCROLLS:0.000=1.000,
82.000=1.250,
83.000=1.000;
#FAKES:;
#LABELS:0.000=Song Start;
#BGCHANGES:;
#KEYSOUNDS:;
#ATTACKS:
;

//---------------dance-single - ----------------
#NOTEDATA:;
#CHARTNAME:;
#STEPSTYPE:dance-single;
#DESCRIPTION:;
#CHARTSTYLE:;
#DIFFICULTY:Hard;
#METER:8;
#RADARVALUES:0.470281,0.549431,0.216458,0.234496,0.063134,365.000000,341.000000,24.000000,26.000000,0.000000,0.000000,0.000000,0.000000,0.000000,0.470281,0.549431,0.216458,0.234496,0.063134,365.000000,341.000000,24.000000,26.000000,0.000000,0.000000,0.000000,0.000000,0.000000;
#CREDIT:;
#NOTES:
0000
0000
0000
0000
,
0000
0000
0000
2000
,
3200
0010
0310
0000
0110
0000
0020
0000
,
0032
0000
1000
0000
1003
0000
0000
0000
1001
0000
0000
0000
0001
1000
0010
0100
,
0010
0000
0000
0000
0100
0010
1000
0000
1000
0001
0000
0001
1000
0000
0100
0000
,
0010
0000
0100
0010
0000
0001
0010
0001
,
1000
0001
0100
0010
0000
0100
0002
0000
,
0100
0000
1000
0000
0023
0000
0130
0010
,
0001
1000
0010
0100
0000
0100
0001
0010
,
0100
0000
0010
0100
0000
1000
0100
1000
,
0001
1000
0010
0100
0000
0010
2000
0000
,
0010
0000
0000
0001
0000
0000
3200
0000
0000
1300
0100
1000
,
0100
0000
0010
0000
0100
0000
0010
0000
0000
0002
0000
0000
0000
0000
0000
0013
0000
0000
0001
0000
0000
0000
0000
0000
,
0001
0001
0001
0001
,
0001
0000
0001
0000
0011
0001
1000
0000
,
1000
1000
1000
1000
,
1000
0000
1000
0001
1000
0001
0100
0000
,
0010
0100
0001
1000
,
0100
0010
0110
0001
,
0001
0000
0001
0000
0001
0010
0011
0000
,
1100
0000
0011
0000
1001
0000
0001
0100
,
0010
0000
0100
0010
0000
0100
0010
0000
,
0100
0010
0000
0010
0100
0010
1000
0001
,
0010
0000
0001
0010
0000
0001
0010
0000
,
0001
0010
0100
0010
0100
0010
0100
0000
,
0010
0000
0001
0010
0000
0001
0000
1000
,
0001
0100
0010
0200
,
0000
0302
0000
0000
2000
0000
0000
0000
,
0000
0000
3003
1001
,
1000
0000
0100
0000
0010
0100
0110
0000
,
0010
0000
0001
0000
1000
0001
1001
0000
,
1000
0000
0010
0000
0100
0000
0010
0100
,
0001
1000
0100
0010
0100
1000
1100
0000
,
0100
0000
0010
0000
0001
0010
0011
0000
,
0001
0100
0010
0100
,
0100
0001
0000
0001
1000
0000
1000
0100
,
0000
0100
0020
0000
0230
0000
2300
0000
,
0001
0000
0010
0000
0001
3001
0000
2001
,
0000
0000
3200
0000
0310
0010
0000
0120
,
0000
0001
0031
0000
0010
0000
0001
1000
,
0000
1000
0001
0100
0010
0000
0010
0100
,
0000
0001
1000
0100
0010
0100
1000
0001
,
0000
0001
0100
0010
0100
0000
0100
0001
,
0000
0001
1000
0100
0010
0000
0001
0000
,
0010
0100
0000
0010
0001
0000
0010
0100
,
0000
0010
0001
0000
1000
0000
1000
1002
,
0000
0000
0203
0000
0310
0010
0000
0120
,
0000
1000
1030
0000
0010
0000
1000
0001
,
0000
0001
1000
0100
0010
0000
0100
0010
,
0000
0001
0000
0010
0001
1000
1000
0001
,
0000
0001
0100
0010
0100
0000
0010
1000
,
0000
1000
0001
0010
0100
0000
0010
0001
,
1000
0000
0010
0100
0000
0010
1000
0000
,
1010
0000
1001
0000
1000
0100
0010
0100
,
0000
0100
0010
0001
1000
0000
0001
0000
,
1001
0000
0001
0100
0010
0000
0100
0010
,
0000
1000
0010
1000
0001
1000
0100
0010
,
0000
0100
2000
0000
0100
0000
0001
0000
,
3020
0000
0130
0010
1000
0001
0010
0100
,
0000
0100
1000
0010
0100
0000
0010
0100
,
0000
0001
0100
0001
1000
0001
0010
0100
,
0000
0010
0002
0000
0010
0000
1000
0000
,
0203
0000
0000
0000
0000
0000
0301
0000
0100
0000
0010
0000
0100
0000
0001
0000
1000
0000
0100
0000
0000
2000
0000
0000
,
0000
0000
3100
0000
1100
0000
1100
0000
0000
0000
0000
0000
0100
0010
0000
0000
,
0110
1001
0000
0000
0000
0000
0000
0000
;

//---------------dance-single - ----------------
#NOTEDATA:;
#CHARTNAME:;
#STEPSTYPE:dance-single;
#DESCRIPTION:;
#CHARTSTYLE:;
#DIFFICULTY:Challenge;
#METER:9;
#RADARVALUES:0.573356,0.896441,0.315668,0.216458,0.193910,445.000000,410.000000,35.000000,24.000000,1.000000,0.000000,0.000000,0.000000,0.000000,0.573356,0.896441,0.315668,0.216458,0.193910,445.000000,410.000000,35.000000,24.000000,1.000000,0.000000,0.000000,0.000000,0.000000;
#CREDIT:;
#NOTES:
// measure 0
0000
0000
0000
0000
,  // measure 1
0000
0000
0000
0002
,  // measure 2
0203
0000
0010
0000
0310
0100
0000
0101
0000
1001
0000
1100
2000
0000
0000
0000
,  // measure 3
3200
0000
0000
0000
0010
0000
0000
0000
0310
0000
0100
0000
0010
0000
0001
0000
0100
0000
0010
0000
0001
0000
0010
0000
0100
0010
0100
0010
0100
0001
0100
0001
,  // measure 4
0100
0000
0000
0000
0000
0000
0000
0000
0001
0100
0001
0000
1000
0000
0000
0000
1100
0000
0010
0000
0000
0000
0100
0000
1000
0000
0000
0000
0001
0000
0000
0000
,  // measure 5
0100
0000
1000
0100
0001
1000
0100
0010
,  // measure 6
1000
0010
0100
1000
0000
0000
2100
0000
,  // measure 7
0100
0000
0001
0000
3020
0000
0000
0031
,  // measure 8
0010
0000
0100
0000
0010
0000
1000
0000
0000
0000
0010
1000
0001
0000
1000
0000
,  // measure 9
0100
0000
0001
0100
1000
0001
0100
0010
,  // measure 10
0001
0010
0100
0001
0000
0000
0102
0000
,  // measure 11
0100
0000
0000
1000
0000
0000
0023
0000
0000
1030
0010
0100
,  // measure 12
1000
0000
0100
0000
1000
0000
0001
0000
0000
1000
0000
0000
0000
0000
0000
1000
0000
0000
0001
0000
0000
0000
0000
0000
,  // measure 13
1002
0000
0103
0000
0000
0101
0000
1000
,  // measure 14
0010
0100
1000
0100
0110
1000
0000
0000
,  // measure 15
2001
0000
3100
0000
0000
1100
0000
0001
,  // measure 16
0010
0100
0001
0100
0001
0100
0010
0000
,  // measure 17
0001
0000
1000
0010
0000
0001
0000
0010
,  // measure 18
1000
0001
0110
0001
,  // measure 19
0001
0000
0000
0000
0001
0000
0000
0000
0001
0000
0010
0001
1000
0000
0000
0000
,  // measure 20
0110
0000
1000
0000
1001
0000
1000
0100
,  // measure 21
0010
1000
0010
0001
0100
0010
0001
1000
,  // measure 22
0100
0001
1000
0010
0100
0010
0000
0M10
,  // measure 23
0100
0001
0100
1000
0010
0100
1000
0001
,  // measure 24
0010
0100
0001
1000
0001
1000
1200
0000
,  // measure 25
0010
0301
0201
0010
,  // measure 26
1300
0000
1100
0000
1001
0000
1000
0001
,  // measure 27
0100
0010
0001
0010
0100
0010
1000
0100
,  // measure 28
0010
0000
1000
0000
0010
0000
0010
0000
0100
0010
0100
1000
0001
0000
0000
0000
,  // measure 29
1000
0000
0010
0000
0001
0010
1010
0000
,  // measure 30
0001
0000
0010
0000
1000
0010
0011
0000
,  // measure 31
1000
0000
0010
0000
0001
0010
0100
1000
,  // measure 32
0100
0010
0001
0010
0100
0001
0101
0000
,  // measure 33
1000
0000
0100
0000
0001
0100
1100
0000
,  // measure 34
0001
0000
1000
0001
0100
0000
0010
0000
1000
0000
0001
0000
0020
0000
0000
0000
,  // measure 35
0000
2030
0000
0000
3200
0000
0000
0302
,  // measure 36
0000
0000
0013
0001
1000
0000
0100
0000
0010
0000
0000
0000
0100
0000
0010
0000
,  // measure 37
0001
0100
0010
0001
0010
1000
0000
2010
,  // measure 38
0000
0000
3001
0000
1100
0010
0000
0210
,  // measure 39
0000
1000
1300
0000
0001
0000
1000
0010
,  // measure 40
0000
0001
0010
0100
0001
0010
1000
0001
,  // measure 41
0100
0000
1000
0000
0001
0000
1000
0100
0010
0000
0100
0010
0001
0000
0010
0000
,  // measure 42
0000
0010
0001
0100
0010
0100
0010
0100
,  // measure 43
1000
0100
1000
0100
0010
1000
0001
0000
,  // measure 44
1000
0100
0100
0001
0100
0100
1000
0001
,  // measure 45
0000
0001
0100
0000
0010
0000
0100
0102
,  // measure 46
0000
0000
1003
0000
0011
0100
0000
0120
,  // measure 47
0000
0001
0031
0000
1000
0000
0001
0100
,  // measure 48
0000
1000
0100
0010
1000
0100
0001
1000
,  // measure 49
0010
0001
1000
0010
0100
0001
0001
0100
,  // measure 50
0000
0100
0001
0010
0100
0010
0100
0010
,  // measure 51
1000
0000
0010
0000
1000
0000
0010
0100
1000
0000
0001
0000
1000
0000
0000
0000
,  // measure 52
0001
0000
0100
0000
0100
0000
1000
0000
0100
0000
0100
0000
0001
0000
0000
0001
,  // measure 53
1000
0000
0000
1000
0100
0000
0000
0100
0010
0100
0010
0100
1000
0000
0001
0000
,  // measure 54
0000
0100
0010
0001
0010
0000
1000
0000
,  // measure 55
1001
0000
1000
0001
0010
0000
1000
0010
,  // measure 56
0001
1000
0010
0100
1000
0100
0010
1000
,  // measure 57
0000
2010
0010
0001
,  // measure 58
3200
0000
0000
0301
0100
0010
0100
1000
,  // measure 59
0000
0000
0100
1000
0001
0000
1000
0000
0010
0000
0000
0000
0001
0000
0010
0000
,  // measure 60
1000
0001
0010
0100
0001
0100
0010
0001
,  // measure 61
0000
0000
0001
0010
0002
0000
0000
0000
0010
0000
0000
0000
1000
0000
0000
0000
,  // measure 62
0203
0000
0000
0000
0000
0000
1300
0000
0100
0000
0010
0000
0001
0000
0010
0000
1000
0000
0001
0000
0000
1000
0000
0000
,  // measure 63
0000
0000
1000
0000
1100
0000
1100
0000
0000
0000
0000
0000
0110
1000
0000
0000
,  // measure 64
0101
0110
0000
0000
0000
0000
0000
0000
;
