#TITLE:虹色遊園地;
#SUBTITLE:;
#ARTIST:Mutsuhiko Izumi VS DJ TOTTO;
#TITLETRANSLIT:Nijiiro yuenchi;
#SUBTITLETRANSLIT:;
#ARTISTTRANSLIT:;
#GENRE:;
#CREDIT:;
#BANNER:Nijiiro yuenchi.png;
#BACKGROUND:Nijiiro yuenchi-bg.png;
#LYRICSPATH:;
#CDTITLE:;
#MUSIC:Nijiiro yuenchi.mp3;
#OFFSET:-1.872002;
#SAMPLESTART:27.996365;
#SAMPLELENGTH:8.727272;
#SELECTABLE:YES;
#BPMS:0.000000=165.000000
,20.500000=220.000000
,280.000000=165.000000
,307.000000=220.000000
;
#STOPS:294.000000=0.273000
;
#BGCHANGES:;
#KEYSOUNDS:;
#ATTACKS:;

//---------------dance-single - ----------------
#NOTES:
     dance-single:
     :
     Hard:
     10:
     0.659958,1.023754,0.105547,0.186737,0.154261,569.000000,556.000000,13.000000,23.000000,0.000000,0.000000,0.659958,1.023754,0.105547,0.186737,0.154261,569.000000,556.000000,13.000000,23.000000,0.000000,0.000000:
0000
0000
0000
0000
,
0000
0000
0000
0000
,
0000
0000
0000
0000
,
0000
0000
0000
0000
,
2002
0000
0000
0000
,
3003
0000
1000
0000
1000
0001
0000
1000
,
0100
0010
0100
1000
0010
0100
0000
0001
,
0000
0010
0100
0010
0001
1000
0000
0010
,
0000
1000
0001
0010
0100
0010
0000
0100
,
0000
0010
0001
1000
0010
0000
1000
0001
,
0010
0000
0100
0010
0001
1000
0000
0010
,
0000
1000
0001
0010
0100
0010
0000
0001
,
0000
1000
0001
0100
1000
0000
1000
0100
,
0001
0000
0001
0100
0010
1000
0000
0010
,
0100
0001
1000
0010
1000
0010
0000
1000
,
0000
0010
0100
0001
0100
0001
0000
0010
,
0000
0001
1000
0100
1000
0100
0000
1000
,
0000
0001
0011
0000
1100
0000
1010
0000
,
0101
0000
0001
1000
0001
0010
0000
0100
,
0000
0010
0001
0100
0001
0010
0000
0100
,
0000
1000
0001
0010
1000
0000
1000
0010
,
0001
0000
0001
0100
0010
1000
0000
0002
,
2003
3002
1003
0100
1000
0100
0010
0100
,
0010
0100
0010
0001
0010
0001
1000
0001
,
1000
0001
0100
0001
0100
0001
0100
0010
,
0100
0010
1000
0010
0100
0001
0010
0100
,
0010
0001
1000
0100
1000
0100
0010
0100
,
0010
0100
0010
0001
0010
0001
1000
0001
,
1000
0001
1000
0010
1000
0010
0100
0001
,
0100
0001
0010
0001
0010
0001
1000
0100
,
1000
0001
1000
0001
0010
0001
0000
0100
,
0000
0010
1000
0100
1000
0010
0000
0100
,
0000
0010
0100
0001
0010
0100
0000
0010
,
0000
0100
1000
0010
1000
0000
0001
0100
,
0001
0000
1000
0010
0100
0001
0000
0010
,
0000
0100
0010
0001
1000
0010
0000
1000
,
0000
0001
1000
0100
0001
0000
0001
0100
,
1000
0000
1000
0010
0001
1000
0000
0000
,
0000
0000
0001
0000
0100
0000
0010
1000
,
0010
1000
0010
0000
0100
0000
0001
1000
,
0001
1000
0001
0000
0010
0000
0001
0100
,
0001
0100
0001
0001
1000
1000
0010
0010
,
0100
0100
0001
1000
0100
1000
0001
0010
,
0001
0010
0001
1000
0100
1000
0001
0010
,
0001
0010
0001
1000
0100
1000
0001
0010
,
0001
0010
0000
1001
0000
0110
0000
1001
,
0001
0000
1000
0000
0001
0000
0010
0000
0000
0000
0000
0000
0000
0000
0000
0100
0000
0000
0000
0000
0000
1000
0000
0000
,
0000
0010
0100
0000
0000
0001
0000
1000
,
0000
0010
0100
0001
0100
0000
0001
1000
,
0001
0010
0100
0000
0100
0010
0000
0000
,
0010
0001
1000
0000
0001
0100
0000
0010
,
0000
0100
0010
0000
1000
0100
0000
1000
,
0000
0100
2000
0000
3020
0000
0230
0000
,
0302
0000
0103
0010
0100
0001
1000
0100
,
0010
0001
1000
0000
0001
0100
0000
0001
,
1000
0000
0100
0000
0010
0001
0000
0001
,
0100
0010
0100
0000
0001
1000
0000
1000
,
0100
0000
0011
0000
0002
0200
0000
0000
,
0000
0303
0001
0000
0001
1000
0000
1000
,
0100
0000
0010
0000
0100
0010
0000
0010
,
0001
0000
0000
1000
0010
0100
0001
1000
0001
0100
0010
1000
,
0100
0000
0010
0000
0001
0000
0010
0000
0000
0010
0000
0000
0001
0000
0000
0001
0000
0000
0000
0000
0000
2000
0000
0000
,
3002
2003
3001
0010
0001
0010
0100
0010
,
0100
0010
0100
1000
0100
1000
0001
1000
,
0001
1000
0010
1000
0010
1000
0010
0100
,
0010
0100
0001
0100
0010
1000
0100
0010
,
0100
1000
0001
0010
0001
0010
0100
0010
,
0100
0010
0100
1000
0100
1000
0001
1000
,
0001
1000
0010
0100
0010
0100
0010
0100
,
0010
0100
0020
0000
0000
0000
0000
0000
,
0030
0000
0000
0000
0000
0000
0000
0000
0000
0000
0000
0000
0000
0000
0000
0000
0000
0000
0000
0000
0000
1000
0000
0000
0000
0000
0000
0000
0000
0000
0001
0000
0000
0000
0000
0000
0000
0000
0000
0000
0000
0000
0000
0000
0010
0000
0000
0000
,
0000
0000
0000
0000
0000
0000
0000
0000
0000
0000
0000
0000
0000
0000
0000
0000
0100
0000
0000
0000
0000
0000
0000
0000
0000
0000
0000
0000
0000
0000
0000
0000
0000
0000
0000
0000
0000
0000
0000
0000
0000
0000
0000
0000
0000
0000
0000
0000
0000
0000
0000
0000
0000
0000
0000
0000
0000
0000
0000
0000
0000
0000
0000
0000
0000
0000
0000
0000
0000
0000
0000
0000
0000
0000
0000
0000
0000
0000
0010
0000
0000
0000
0000
0000
0000
0000
0000
0000
0000
0000
0000
0000
0000
0000
0000
0000
0000
0000
0000
0000
0000
0000
0000
0000
0000
0000
0000
0000
0000
0000
0000
0000
0001
0000
0000
0000
0000
0000
0000
0000
0000
0000
0000
0000
0000
0000
0000
0000
0000
0000
0000
0000
0000
0000
0000
0000
0000
0000
0000
0000
0000
0000
0000
0000
0000
0000
0000
0000
0000
0000
0000
0000
0000
0000
0000
0000
0000
0000
0000
0000
0000
0000
0000
0000
0000
0000
0000
0000
0000
0000
0000
0000
0000
0000
0000
0000
0000
0000
0000
0000
1000
0000
0000
0000
0000
0000
0000
0000
0000
0000
0000
0000
,
0000
0000
0000
0000
0000
0000
0000
0000
0010
0000
0000
0100
0000
0000
0020
0000
0000
0000
0000
0000
0000
0000
0000
0000
0000
0000
0000
0000
0000
0000
0000
0000
,
0000
0000
0030
0100
,
0000
0000
0001
0000
,
0000
0010
0000
0000
,
1000
0000
0000
4004
,
0000
0000
0000
0000
,
0000
0000
3003
1000
0100
1000
0001
0000
,
0000
0100
0000
0010
0000
0100
0001
0000
,
0000
1000
0000
0001
0000
0010
0001
0000
,
0000
1000
0000
0100
0000
1000
0010
0001
,
0010
0100
0000
0001
0000
0000
1000
0000
,
0000
0001
0000
0100
0000
0010
1000
0000
,
0000
0100
0000
0010
0000
0001
0010
1000
,
0010
0000
0010
0001
0100
0000
0010
1000
,
0001
0000
0000
0100
0000
0000
0001
0000
1000
0000
0001
0000
1000
0000
0001
0000
1000
0000
0020
0000
0000
0000
0000
0000
,
1000
1000
1030
0200
,
0010
0010
0310
0002
,
1000
1000
1003
0200
,
0010
0000
0010
0000
0310
0000
0001
0100
,
0010
1000
0001
0010
0100
1000
0001
1000
,
0100
1000
0001
0010
0100
1000
0010
1000
,
0010
0100
0001
0010
0001
1000
0100
0010
,
0001
0000
0000
0100
0000
0000
0010
0000
0000
1000
0000
0000
0001
0000
0000
0010
0000
0000
0001
0000
1000
0000
0100
0000
,
1000
0010
0100
0010
0100
0001
0100
0001
0010
0001
0010
0100
,
0010
0100
1000
0100
0010
0001
0100
0010
1000
0002
0000
0000
,
0000
0000
0000
0000
0000
0000
0013
0010
,
0001
1000
0000
1100
0000
0101
0000
0010
,
2002
0000
0000
0000
,
0000
0000
0000
0000
0000
0000
3000
0003
;

//---------------dance-single - ----------------
#NOTES:
     dance-single:
     :
     Medium:
     7:
     0.469742,0.613491,0.129904,0.397831,0.032476,405.000000,389.000000,16.000000,49.000000,0.000000,0.000000,0.469742,0.613491,0.129904,0.397831,0.032476,405.000000,389.000000,16.000000,49.000000,0.000000,0.000000:
0000
0000
0000
0000
,
0000
0000
0000
0000
,
0000
0000
0000
0000
,
0000
0000
0000
0000
,
0220
0000
0000
0330
,
0000
0000
0100
0000
0100
0010
0000
0000
,
0000
1000
0100
0010
,
0100
1000
0001
0100
,
0001
0010
0100
0010
,
0001
0000
1000
0010
0100
0000
0010
1000
,
0001
0010
0100
1000
,
0001
0100
0001
0010
,
0100
0000
0010
0001
0100
0000
0010
1000
,
0100
0000
0010
0001
1000
0001
0000
1000
,
0100
0000
1000
0000
0000
0010
0000
0100
,
0000
0100
0001
0000
0000
0010
0000
0100
,
0000
0100
1000
0000
0000
0100
0000
0010
,
0000
0010
0001
0000
1000
0000
0010
0000
,
0100
0000
0001
0000
0000
0100
0000
0010
,
0000
1000
0010
0000
0000
0100
0000
0001
,
0000
0010
0001
0100
0010
0000
0010
1000
,
0100
0000
0100
0010
0001
0100
0000
0010
,
0100
0001
2000
0000
3200
0000
0320
0000
,
0031
0002
0023
0230
,
1300
0020
0230
0302
,
1003
0000
0001
0010
0100
0000
0010
0100
,
1000
0002
0023
0230
,
0310
0200
2300
3020
,
0130
0000
0001
0100
0001
0000
1000
0010
,
1000
0000
0100
1000
0100
0000
0010
0000
,
0001
1000
0001
0010
,
0100
0010
0001
1000
,
0010
0100
0001
1000
,
0100
0000
1000
0010
1000
0000
0001
0100
,
0001
0010
0001
1000
,
0010
1000
0001
0100
,
0001
0000
1000
0001
0010
0000
0001
1000
,
0010
0000
1000
0001
0010
0100
0000
0000
,
0000
0010
0001
1000
,
1001
1000
0010
0100
,
0101
0001
0010
0100
,
1100
0000
1000
0100
0010
0001
1000
0100
,
0010
0001
1000
0000
0001
0000
0010
0001
,
0010
0000
0001
0000
0100
0000
0010
1000
,
0010
0000
1000
0000
0001
0000
0100
0001
,
0100
0001
0000
1000
0000
1000
0000
1000
,
0200
0000
1300
0000
0000
0010
0000
0100
,
0000
0001
0100
0000
0000
0010
0000
1000
,
0000
0010
1000
0000
0010
0000
0100
0000
,
0001
1000
0100
0000
1000
0010
0000
0010
,
0100
0000
0001
0000
0000
1000
0000
0010
,
0000
0100
0001
0000
0000
0010
0000
0100
,
0000
0010
0001
1000
0100
0000
0010
0001
,
0100
0000
0010
1000
0100
0010
0100
1000
,
0001
0010
0100
0000
0100
1000
0000
1000
,
0001
0000
1000
0000
0001
0100
0000
0100
,
0010
0000
0100
0000
0001
0010
0000
0010
,
0100
0000
0010
0000
0001
2000
0000
0000
,
0000
0000
3100
0000
0010
0001
0000
0010
,
0100
0000
1000
0000
0001
1000
0000
0001
,
0010
0200
0310
0002
,
1003
0000
0001
0100
0010
1000
0000
0001
,
1000
0001
0020
0000
2030
0000
3020
0000
,
0130
0020
0032
0203
,
0310
0020
2030
3200
,
1300
0000
0100
0010
0001
0000
0010
0001
,
0100
0020
2030
3200
,
1300
0200
0320
0032
,
1003
0220
0000
0000
,
0000
0000
0000
0000
,
0330
0000
0000
0000
0000
0000
0000
0000
0000
0000
0000
0000
0000
0000
0000
0000
0000
0000
0000
0000
0000
0001
0000
0000
0000
0000
0000
0000
0000
0000
1000
0000
0000
0000
0000
0000
0000
0000
0000
0000
0000
0000
0000
0000
0100
0000
0000
0000
,
0000
0000
0000
0000
0000
0000
0000
0000
0000
0000
0000
0000
0000
0000
0000
0000
0010
0000
0000
0000
0000
0000
0000
0000
0000
0000
0000
0000
0000
0000
0000
0000
0000
0000
0000
0000
0000
0000
0000
0000
0000
0000
0000
0000
0000
0000
0000
0000
0000
0000
0000
0000
0000
0000
0000
0000
0000
0000
0000
0000
0000
0000
0000
0000
0000
0000
0000
0000
0000
0000
0000
0000
0000
0000
0000
0000
0000
0000
0100
0000
0000
0000
0000
0000
0000
0000
0000
0000
0000
0000
0000
0000
0000
0000
0000
0000
0000
0000
0000
0000
0000
0000
0000
0000
0000
0000
0000
0000
0000
0000
0000
0000
1000
0000
0000
0000
0000
0000
0000
0000
0000
0000
0000
0000
0000
0000
0000
0000
0000
0000
0000
0000
0000
0000
0000
0000
0000
0000
0000
0000
0000
0000
0000
0000
0000
0000
0000
0000
0000
0000
0000
0000
0000
0000
0000
0000
0000
0000
0000
0000
0000
0000
0000
0000
0000
0000
0000
0000
0000
0000
0000
0000
0000
0000
0000
0000
0000
0000
0000
0000
0001
0000
0000
0000
0000
0000
0000
0000
0000
0000
0000
0000
,
0000
0000
0000
0000
0000
0000
0000
0000
0100
0000
0000
0010
0000
0000
0100
0000
0000
0000
0000
0000
0000
0000
0000
0000
0000
0000
0000
0000
0000
0000
0000
0000
,
0000
0000
0000
0001
,
0000
0000
0100
0000
,
0000
0010
0000
0000
,
1000
0000
0000
4004
,
0000
0000
0000
0000
,
0000
3003
0000
0000
0000
0000
1000
0000
,
0000
0100
0000
0100
0000
0000
1000
0000
,
0000
0010
0000
0010
0000
0000
0100
0000
,
0000
0001
0000
0001
0000
0000
1000
0000
,
0000
0001
0000
0100
0000
0000
0010
0000
,
0000
1000
0000
0010
0000
0000
0100
0000
,
0000
0001
0000
0100
0000
0000
0101
0000
,
0000
0000
1010
0000
0000
0000
0001
1000
,
0001
1000
0020
0000
0000
0000
0230
0000
,
0001
0001
0301
0002
,
1000
1000
1000
2003
,
0100
0100
3100
0200
,
0010
0000
0310
0001
1000
0001
0100
0000
,
0001
0010
1100
1000
,
0010
0100
0101
0001
,
1000
0100
0110
0010
,
0001
0100
1010
2001
,
3010
1002
0013
2001
,
3010
1002
0013
0200
,
0000
0000
0000
0000
0000
0000
0310
0001
,
1000
0100
0000
1000
0000
0010
0000
0100
,
0020
0000
0000
0000
,
0000
0000
0000
0030
;

//---------------dance-single - ----------------
#NOTES:
     dance-single:
     :
     Easy:
     5:
     0.302722,0.408994,0.073071,0.332879,0.000000,261.000000,252.000000,9.000000,41.000000,0.000000,0.000000,0.302722,0.408994,0.073071,0.332879,0.000000,261.000000,252.000000,9.000000,41.000000,0.000000,0.000000:
0000
0000
0000
0000
,
0000
0000
0000
0000
,
0000
0000
0000
0000
,
0000
0000
0000
0000
,
2002
0000
0000
0000
,
3003
0000
0000
0000
,
0000
1000
0010
1000
,
0010
0100
0001
0100
,
0001
0010
0100
0010
,
0100
0020
0031
0002
,
1003
0010
1000
0100
,
1000
0001
0010
0001
,
0100
0110
0000
1001
,
0000
0010
0010
0010
,
0000
1000
1000
0001
,
0010
0001
0001
0100
,
0010
0100
0100
0010
,
1000
0002
0013
0020
,
0130
1000
0100
1000
,
1000
0010
0100
0001
,
0001
0101
0000
1010
,
0000
1000
1000
1000
,
0000
0002
0103
0200
,
0310
0020
1030
2000
,
3001
0002
0013
0020
,
0130
0010
0001
1000
,
0100
0020
0130
0200
,
1300
2000
3001
0002
,
0103
0020
0000
2030
,
0000
3002
0000
0013
,
0100
1000
0001
0010
,
0001
1000
0001
0100
,
0001
1000
0100
0010
,
0100
2000
3010
0200
,
0301
0010
0001
1000
,
1000
0001
0100
0010
,
0010
0110
0000
0101
,
0000
0010
0010
0010
,
0000
1000
0000
0001
,
0000
0100
0000
0010
,
0000
1000
0000
0010
,
0000
0100
0100
0100
,
0100
0010
0000
1000
,
0000
0001
0000
0010
,
0000
0001
0000
1000
,
0000
0000
0000
0001
0000
0001
0000
0001
,
0000
1000
0000
0001
,
0000
0100
0000
0010
,
0000
1000
0000
0010
,
0000
0100
0001
0100
,
0000
0001
0000
0010
,
0000
0001
0000
1000
,
0000
0010
1000
0010
,
0100
0100
0001
0010
,
0100
1000
0000
0100
,
0000
1000
0000
0010
,
0000
0100
0000
0001
,
0000
1000
0001
1000
,
0000
0001
0000
0010
,
0000
0001
0000
0100
,
0000
0010
0000
1000
,
0000
0010
0100
0010
,
0000
2000
3001
0002
,
0013
0020
0031
0002
,
1003
2000
3010
0020
,
0130
0010
0100
0001
,
1000
0002
0013
2000
,
3100
0020
0130
0002
,
1003
2002
0000
0000
,
0000
0000
0000
0000
,
3003
0000
0000
0000
,
0000
0000
0000
0000
,
0000
0000
0000
0000
,
0000
0000
0000
0001
,
0000
0000
0100
0000
,
0000
0010
0000
0000
,
1000
0000
0000
2002
,
0000
0000
0000
0000
,
0000
0000
3003
1000
,
0000
0000
0000
0010
,
0000
0000
0000
0100
,
0000
0000
0000
0001
,
0000
1000
0000
0001
,
0000
0000
0000
0010
,
0000
0000
0000
0100
,
0000
0100
0000
0100
,
0100
0100
0000
2000
,
0000
0000
3000
0020
,
0000
0000
0030
0200
,
0000
0000
0300
0002
,
0000
0000
0003
1000
,
0001
1000
0001
0100
,
0010
0100
0010
0100
,
0001
0100
0010
1000
,
0010
0100
0001
1000
,
0100
0010
0001
1000
,
0100
0010
0001
0200
,
0000
0000
0000
0310
,
0000
1000
0000
0001
0000
0010
0000
0100
,
0020
0000
0000
0000
,
0000
0000
0000
0030
;

//---------------dance-single - ----------------
#NOTES:
     dance-single:
     :
     Beginner:
     3:
     0.156581,0.361701,0.064952,0.000000,0.000000,135.000000,127.000000,8.000000,0.000000,0.000000,0.000000,0.156581,0.361701,0.064952,0.000000,0.000000,135.000000,127.000000,8.000000,0.000000,0.000000,0.000000:
// measure 0
0000
0000
0000
0000
,  // measure 1
0000
0000
0000
0000
,  // measure 2
0000
0000
0000
0000
,  // measure 3
0000
0000
0000
0000
,  // measure 4
0110
0000
0000
0000
,  // measure 5
0000
0000
0000
0000
,  // measure 6
0000
1000
0000
0000
,  // measure 7
0000
0001
0000
0000
,  // measure 8
0000
0100
0000
0000
,  // measure 9
0000
0010
0000
0010
,  // measure 10
0000
0010
0000
0000
,  // measure 11
0000
0100
0000
0000
,  // measure 12
0000
0001
0000
1000
,  // measure 13
0000
0001
0001
0001
,  // measure 14
0000
1000
0000
0000
,  // measure 15
0000
0010
0000
0000
,  // measure 16
0000
1000
0000
0000
,  // measure 17
0000
0100
0000
0100
,  // measure 18
0000
0010
0000
0000
,  // measure 19
0000
0001
0000
0000
,  // measure 20
0000
1000
0000
0001
,  // measure 21
0000
1000
0001
1000
,  // measure 22
0000
0010
0000
0000
,  // measure 23
0000
0100
0000
0000
,  // measure 24
0000
0001
0000
0000
,  // measure 25
0000
1000
0000
0001
,  // measure 26
0000
1000
0000
0000
,  // measure 27
0000
0010
0000
0000
,  // measure 28
0000
0100
0000
0100
,  // measure 29
0000
0010
0000
0010
,  // measure 30
0000
1000
0000
0000
,  // measure 31
0000
0001
0000
0000
,  // measure 32
0000
0010
0000
0000
,  // measure 33
0000
0001
0000
1000
,  // measure 34
0000
0010
0000
0000
,  // measure 35
0000
0100
0000
0000
,  // measure 36
0000
0010
0000
1000
,  // measure 37
0000
0010
1000
0001
,  // measure 38
0000
1000
0000
0000
,  // measure 39
0000
1000
0000
0000
,  // measure 40
0000
1000
0000
0000
,  // measure 41
0000
0001
0001
0001
,  // measure 42
0001
0100
0000
0000
,  // measure 43
0000
0100
0000
0000
,  // measure 44
0000
0100
0000
0000
,  // measure 45
0000
0010
0000
0000
,  // measure 46
0000
1000
0000
0000
,  // measure 47
0000
0001
0000
0000
,  // measure 48
0000
0010
0000
0000
,  // measure 49
0000
0001
0000
1000
,  // measure 50
0000
0001
0000
0000
,  // measure 51
0000
0100
0000
0000
,  // measure 52
0000
0010
0000
0010
,  // measure 53
0000
1000
1000
1000
,  // measure 54
0000
0001
0000
0000
,  // measure 55
0000
1000
0000
0000
,  // measure 56
0000
0100
0000
0000
,  // measure 57
0000
0010
0010
0010
,  // measure 58
0000
0001
0000
0000
,  // measure 59
0000
1000
0000
0000
,  // measure 60
0000
0010
0000
0010
,  // measure 61
0000
0100
0100
0100
,  // measure 62
0000
0001
0000
0000
,  // measure 63
0000
0001
0000
0000
,  // measure 64
0000
0100
0000
0000
,  // measure 65
0000
0010
0000
1000
,  // measure 66
0000
0100
0000
0000
,  // measure 67
0000
1000
0000
0000
,  // measure 68
0000
1001
0000
0000
,  // measure 69
0000
0000
0000
0000
,  // measure 70
0000
0000
0000
0000
,  // measure 71
0000
0000
0000
0000
,  // measure 72
0000
0000
0000
0000
,  // measure 73
0000
0000
0000
0010
,  // measure 74
0000
0000
0100
0000
,  // measure 75
0000
0001
0000
0000
,  // measure 76
1000
0000
0000
1001
,  // measure 77
0000
0000
0000
0000
,  // measure 78
0000
0000
0000
1000
,  // measure 79
0000
0000
0000
1000
,  // measure 80
0000
0000
0000
1000
,  // measure 81
0000
0000
1000
0000
,  // measure 82
0000
0000
0000
0001
,  // measure 83
0000
0000
0000
0001
,  // measure 84
0000
0000
0000
0100
,  // measure 85
0000
0010
0000
0100
,  // measure 86
0100
0100
0000
0010
,  // measure 87
0000
0000
0000
1000
,  // measure 88
0000
0000
0000
0100
,  // measure 89
0000
0000
0000
1000
,  // measure 90
0000
0000
0000
0001
,  // measure 91
0000
0001
0000
1000
,  // measure 92
0000
1000
0000
0010
,  // measure 93
0000
0010
0000
0100
,  // measure 94
0000
0100
0000
1001
,  // measure 95
0000
0110
0000
1001
,  // measure 96
0000
0110
0000
0000
,  // measure 97
0000
0000
0000
0010
,  // measure 98
0000
0000
0100
0000
,  // measure 99
1001
0000
0000
0000
;
