#TITLE:Never Look Back In Sorrow;
#SUBTITLE:;
#ARTIST:AIKO OI;
#TITLETRANSLIT:;
#SUBTITLETRANSLIT:;
#ARTISTTRANSLIT:;
#GENRE:;
#CREDIT:;
#BANNER:[Rock Out] - Never Look Back In Sorrow.png;
#BACKGROUND:[Rock Out] - Never Look Back In Sorrow-bg.png;
#LYRICSPATH:;
#CDTITLE:cdtitle.png;
#MUSIC:[Rock Out] - Never Look Back in Sorrow.mp3;
#OFFSET:-0.812000;
#SAMPLESTART:21.483999;
#SAMPLELENGTH:15.000000;
#SELECTABLE:YES;
#BPMS:0.000000=89.999001
,23.000000=270.000000
,176.000000=90.000000
,178.000000=270.000000
,267.500000=90.000000
,272.000000=270.000000
,290.000000=170.000000
,350.000000=275.000000
,362.000000=280.000000
;
#STOPS:174.000000=0.220000,
176.000000=0.460000,
177.000000=0.320000,
177.500000=0.320000,
267.500000=0.220000
;
#BGCHANGES:;
#KEYSOUNDS:;
#ATTACKS:;

//---------------dance-single - ----------------
#NOTES:
     dance-single:
     :
     Hard:
     9:
     0.687686,0.853433,0.355950,0.661051,0.093225,448.000000,42.000000,78.000000,0.000000,0.000000,0.000000,0.687686,0.853433,0.355950,0.661051,0.093225,448.000000,42.000000,78.000000,0.000000,0.000000,0.000000:
0000
0000
0000
0000
,
0000
0000
0000
0000
,
0000
0000
0000
2000
,
3002
0000
0000
0000
0000
0000
0000
0000
0000
0000
0000
0000
0000
0000
0000
0000
0000
0000
1003
0000
0100
0000
0000
1000
,
0020
0000
0000
0000
0000
0000
0000
0000
0000
0000
0130
0000
0002
0000
0000
0000
0000
0000
0013
0000
0100
0000
0000
0010
,
0002
2003
3200
0320
,
0000
0000
0000
0000
,
0030
0000
0001
0000
1000
0001
0000
0100
,
0001
1000
0010
0001
,
1000
0001
0000
0100
0001
0000
1000
0000
,
0010
0000
0001
0000
1000
0100
0000
0010
,
0001
0100
0010
2000
,
0000
3002
0000
0000
0203
0000
0320
0000
,
0000
0000
0000
1000
0000
0100
0000
0000
,
0000
0100
0000
1000
0030
1000
0200
0000
,
0000
0320
0000
0000
0032
0000
0000
0000
,
0000
0000
0000
1000
0000
0010
0000
0000
,
0000
0100
0000
1000
0003
1000
0002
0000
,
0000
0203
0000
0000
0320
0000
2030
0000
,
0000
0000
0000
0001
0000
0100
0000
0000
,
0000
0010
0000
0001
3000
0001
0010
0000
,
0020
0031
0000
0002
0103
0000
0200
0310
,
0000
0020
1030
0000
2000
3100
0000
0200
,
0310
0000
0020
0031
0000
0002
0103
0000
,
0000
1001
0000
0000
1100
0000
0000
1001
,
0000
0011
0001
0010
,
0100
1000
0001
0200
,
0000
0302
0000
0103
0010
0000
1000
0000
,
0100
0000
0020
0000
0000
0230
0000
1300
,
0001
0000
0100
0000
0010
0000
1000
0001
,
0010
0001
1000
0000
0010
0100
0001
0100
,
0010
0000
0100
0001
1000
0001
0010
0000
,
0001
1000
0100
1000
0010
0000
2010
0000
,
0000
3100
0000
0000
1200
0000
0000
0310
,
0000
0000
0012
0000
0000
1003
0000
0000
,
1010
0000
0000
1001
0000
0000
0101
0000
,
0000
1100
0000
0000
0110
0000
0000
0011
,
0000
1010
0010
0100
,
0001
1000
0010
0200
,
0000
0302
0000
0103
0010
0000
1000
0000
,
0001
0000
0020
0000
0000
0230
0000
1300
,
0010
0000
0100
0000
0001
0000
1000
0100
,
0010
0001
0010
0000
0010
0001
0100
0000
,
0100
0001
0101
1000
,
1100
0000
0110
1001
0001
0100
0001
0100
,
0010
0100
0001
1000
0100
1000
0010
0000
,
0000
0000
1000
0100
0010
0001
0010
0001
,
0100
0001
1000
0010
0100
0001
0100
0010
,
2000
0000
3000
0000
1000
0010
0100
0001
,
0100
0001
1000
0010
0100
0010
1000
0000
,
0000
0000
0001
0100
0010
0100
0001
1000
,
0100
1000
0010
1000
0001
1000
0001
0100
,
0020
0000
0030
0000
0100
0001
1000
0010
,
0100
0001
1000
0100
0010
0001
0010
0000
,
0010
0000
0000
0000
1000
0010
1000
0000
,
0001
0100
0001
0000
1000
0100
1000
0001
,
0010
0100
0000
0000
0220
0000
0330
0000
,
0010
0001
0100
0001
0100
0000
0010
1000
,
0001
1000
0100
1000
0001
0100
0001
1000
,
0010
1000
0001
0100
0002
1000
0000
1000
,
0000
1000
0003
1000
0100
0000
0010
0000
,
0100
0000
0010
0001
0000
1000
0000
0001
,
0100
0000
0100
0010
0000
0010
0000
0000
,
1100
0000
0101
0000
1100
0000
1000
0001
,
0000
0001
0000
0100
0000
0100
0000
0010
,
1000
1000
0010
0110
,
0100
0000
0101
0000
1001
0000
1000
0010
,
0200
0000
0000
0000
0000
0000
0020
0000
0000
0330
0000
0000
1000
0010
1000
0001
0010
0100
1000
0001
0000
0000
0000
0000
,
2000
0000
0000
3002
0000
0000
0203
0000
,
0000
0320
0000
0000
2030
0000
0000
3200
,
0000
0000
0320
0000
0000
0032
0000
0000
,
0203
0000
0000
0320
0000
0000
2030
0000
,
0000
3002
0000
0000
0013
0100
0000
0100
,
1000
0000
0001
0100
0000
0100
0010
0000
,
1000
0001
0000
0001
0100
0000
0010
1000
,
0000
1000
0001
0000
0100
0010
0000
0100
,
0001
0000
0100
0010
0000
1000
0001
0000
,
0010
0100
0000
0100
1000
0000
0001
0100
,
0000
0000
0020
0000
0000
0000
0030
0000
1000
0000
0000
1010
0000
0000
2001
0000
,
0000
0000
0100
0100
0000
0001
3002
0000
,
0000
0000
0000
0100
0003
0000
0200
0000
0000
0000
0001
0000
0000
0000
0000
0310
,
0000
0000
2000
0000
0000
0000
0000
0000
3001
0000
0000
0101
0000
0000
1002
0000
,
0000
0000
0100
0100
0000
0003
0010
0000
,
0000
0000
0000
0100
0000
0000
0120
0000
0000
0000
0000
0000
2030
0000
0000
0000
,
0000
0000
3001
0000
0000
0000
0000
0000
0001
0000
0000
0101
0000
0000
0101
0000
,
0000
0200
0000
0000
,
0310
0000
0000
1010
0000
0000
1010
0000
0000
0000
0000
0000
0002
0000
0000
0000
,
0000
0000
0000
0003
1000
0100
1000
0001
,
0100
0001
1000
0001
1000
0100
0010
0001
,
1000
0001
0100
0001
0010
0100
1000
0001
,
0100
0010
1000
0001
0020
0000
0000
0230
,
0000
2300
3002
0000
,
0000
1000
0000
0100
0000
0000
0000
0100
,
0000
1000
0003
1000
0200
0000
0000
2300
,
0000
3020
0000
0000
,
0000
1000
0000
0100
0000
0000
0000
0001
,
0000
0100
0030
1000
0010
0000
0010
1000
,
0000
1000
0100
0000
0100
0010
0000
0010
,
0001
0000
0001
0100
0000
0000
1100
0000
,
0000
1010
0000
0000
0101
0000
0000
1001
,
0000
0000
0011
0000
0000
0110
0000
0000
,
1100
0001
0100
1000
,
0100
0001
0220
0000
,
0000
0000
0000
0000
0000
0000
0000
0000
0330
0000
0000
0001
0000
0000
0000
0010
,
0000
0000
0000
0100
0000
0000
0000
2000
0000
0000
0000
0020
0000
0000
0000
0000
,
0000
0000
0000
0000
,
3030
0000
0000
0000
;

//---------------dance-single - ----------------
#NOTES:
     dance-single:
     :
     Challenge:
     10:
     0.848711,1.000000,0.440700,0.372900,0.228825,605.000000,52.000000,44.000000,0.000000,0.000000,0.000000,0.848711,1.000000,0.440700,0.372900,0.228825,605.000000,52.000000,44.000000,0.000000,0.000000,0.000000:
// measure 0
0000
0000
0000
0000
,  // measure 1
0000
0000
0000
0000
,  // measure 2
0000
0000
0000
2000
,  // measure 3
3001
0000
0100
0000
0001
0100
0001
0000
0100
0000
0001
0000
1000
0000
0100
0000
1000
0100
1000
0000
1000
0000
0000
0100
,  // measure 4
0010
0000
0001
0000
0010
0100
1000
0000
0001
0000
0000
1000
0010
0000
0100
0000
0010
1000
0001
0000
0100
0000
0000
0001
,  // measure 5
2000
3100
0002
0013
,  // measure 6
0010
0001
0000
0001
0100
0001
1000
0001
,  // measure 7
0100
0001
1000
0000
1000
0010
0000
0010
,  // measure 8
0100
0001
0100
1000
0100
0010
1000
0000
,  // measure 9
1000
0001
0000
0001
0010
0001
0010
0100
,  // measure 10
1000
0100
0010
0000
0010
0001
0000
0001
,  // measure 11
1000
0100
1100
0000
0101
0000
0001
0000
,  // measure 12
0000
0101
0000
0000
1001
0000
1020
0000
,  // measure 13
0000
0000
1030
0100
1000
0010
0000
0000
,  // measure 14
0100
0001
0100
0010
0100
1000
0100
0000
,  // measure 15
0000
0101
0000
0000
0012
0000
0000
0000
,  // measure 16
0000
0000
0013
0001
1000
0010
0000
0000
,  // measure 17
1000
0001
0100
0001
1000
0100
0010
0000
,  // measure 18
0000
0011
0000
0000
0101
0000
2010
0000
,  // measure 19
0000
0000
3001
0100
0001
0010
0000
0000
,  // measure 20
0010
0001
0010
0100
0010
1000
0010
0000
,  // measure 21
0010
0001
0000
0001
0100
0000
0100
0010
,  // measure 22
1000
0010
0100
0000
0001
1000
0100
1000
,  // measure 23
0010
0000
1000
0001
0010
0100
1000
0000
,  // measure 24
0001
0100
0001
0100
0010
0000
1000
0001
,  // measure 25
1000
0100
0020
0000
0001
0000
0100
0000
,  // measure 26
1000
0100
0001
0230
,  // measure 27
0000
2300
0000
3001
0100
0001
0010
0001
,  // measure 28
0100
0001
0020
0000
0000
0032
0000
1003
,  // measure 29
0010
1000
0100
1000
0001
1000
0010
0100
,  // measure 30
0001
0100
0010
0000
1000
0100
0010
0100
,  // measure 31
1000
0000
0001
0100
0010
1000
0001
0000
,  // measure 32
0010
0100
1000
0001
0010
0000
1000
0100
,  // measure 33
1000
0100
0000
0000
0001
0010
0001
0010
,  // measure 34
0000
0000
0001
0100
0001
1000
0100
1000
,  // measure 35
0001
0010
0001
1000
0010
1000
0001
0100
,  // measure 36
0001
1000
0100
0010
0001
0100
0010
1000
,  // measure 37
0100
0010
0200
0000
1000
0000
0010
0000
,  // measure 38
0001
0010
1000
0320
,  // measure 39
0000
0032
0000
0103
0010
1000
0100
0010
,  // measure 40
0001
0000
2000
0000
0000
3200
0000
0310
,  // measure 41
0001
0100
0010
1000
0100
0000
0100
1000
,  // measure 42
0001
0100
0010
0000
0010
1000
0001
0000
,  // measure 43
1000
2100
3001
0102
,  // measure 44
2003
3000
0101
1010
0001
0100
0001
1000
,  // measure 45
0001
0010
0100
1000
0001
1000
0020
0000
,  // measure 46
0000
0000
1030
0001
0100
0001
0010
0100
,  // measure 47
1000
0010
1000
0100
0010
0001
0010
0100
,  // measure 48
1000
0000
0100
0000
1000
0000
0100
0000
0000
0000
0000
0000
1000
0000
0000
0100
0000
0000
0010
0000
0000
0100
0000
0000
,  // measure 49
1000
0001
1000
0100
0010
0001
2000
0000
,  // measure 50
0000
0000
3010
0100
0001
0100
0010
1000
,  // measure 51
0001
1000
0100
1000
0010
0100
0001
0100
,  // measure 52
0010
0000
1000
0000
0010
0000
1000
0000
0000
0000
0000
0000
0001
0000
0000
0100
0000
0000
0001
0000
0000
1000
0000
0000
,  // measure 53
0100
0010
0001
0100
0001
0010
0100
0000
,  // measure 54
1000
0000
0000
1000
0000
0000
0001
0100
0001
0100
0000
0000
,  // measure 55
0010
1000
0010
1000
0000
0000
0100
1000
0100
1000
0000
0000
,  // measure 56
0001
0010
0000
0010
0100
0000
1001
0000
,  // measure 57
1000
0100
1000
0010
0100
0000
0100
0001
,  // measure 58
0010
0000
0001
0000
0010
0000
0100
0000
0000
1000
0000
0000
0001
0000
0000
0100
0000
0000
0001
0000
0000
1000
0000
0000
,  // measure 59
0100
1000
0010
0100
0010
0010
0000
0110
,  // measure 60
0000
1010
0000
1000
0002
0000
1000
0000
,  // measure 61
0100
0000
1000
1000
0000
0100
0003
1000
,  // measure 62
0001
0000
0100
0010
0000
1010
0000
0000
,  // measure 63
1100
0000
1010
0000
0011
0000
0100
1001
,  // measure 64
0000
1001
0000
0101
0000
1001
0000
1000
,  // measure 65
0110
1001
0011
0101
,  // measure 66
0110
0000
0000
0000
0000
0000
1001
0000
0000
0000
0000
0000
0110
0000
0000
0000
0000
0000
0002
0000
0000
2000
3003
0000
,  // measure 67
0200
0000
0000
0000
0000
0000
0020
0000
0000
0000
0330
0000
1000
0100
1000
0100
1000
0100
0010
0002
0000
0000
0000
0000
,  // measure 68
1003
0000
1000
0100
0000
0100
0010
0000
,  // measure 69
0010
0001
1000
0001
0100
0000
0100
0010
,  // measure 70
0000
0010
1000
0000
1000
0001
0010
0001
,  // measure 71
0100
0000
0100
0001
0000
0001
0010
0000
,  // measure 72
0010
0100
1000
0100
0010
0001
0000
1000
,  // measure 73
0001
0000
0010
0001
0000
1000
0001
0000
,  // measure 74
0010
1000
0000
0100
1000
0000
0010
1000
,  // measure 75
0000
1000
0001
0000
0100
0001
0000
0010
,  // measure 76
0100
0000
0100
1000
0000
0001
0100
0000
,  // measure 77
1000
0010
0000
0001
0100
0000
0010
0001
,  // measure 78
0000
0000
2002
0000
0000
0000
3003
0000
1100
0000
1000
0100
0000
0000
1100
0000
,  // measure 79
1000
0000
1000
0100
0000
0100
0110
0000
,  // measure 80
0010
0000
0001
0100
0000
0000
0101
0000
0000
0000
0010
0000
0000
0000
0000
1000
,  // measure 81
0000
0000
2020
0000
0000
0000
3030
0000
0011
0000
0010
0001
0000
0000
0101
0000
,  // measure 82
0100
0000
0010
1000
0000
0001
1001
0000
,  // measure 83
0000
0000
1000
0100
0000
0000
0101
0000
0000
0001
0000
0000
0200
0000
0000
0000
,  // measure 84
0000
0320
0000
0000
1030
0100
1000
1100
,  // measure 85
0000
0000
1000
0100
0020
0000
0000
0000
0000
0000
0000
0000
0030
0000
0000
0000
,  // measure 86
0001
0000
0100
0000
0001
0000
0011
0000
0000
0000
0001
1000
0020
0000
0000
0000
,  // measure 87
0000
0000
0000
0000
1030
1000
0001
0100
,  // measure 88
0010
0100
0001
0001
0010
0100
1000
0001
,  // measure 89
1000
1000
0001
0100
0010
1000
0001
0001
,  // measure 90
1000
0100
0010
0100
0020
0000
0000
0032
,  // measure 91
0000
1003
1020
0000
,  // measure 92
1030
0100
1000
0010
0000
0000
0100
0001
,  // measure 93
1000
0010
1000
0001
0020
0000
0000
0130
,  // measure 94
0000
2100
0000
0000
,  // measure 95
3100
0010
0001
0100
0000
0000
0100
0010
,  // measure 96
1000
0001
0010
0100
0010
0000
0010
0001
,  // measure 97
1000
0010
1000
0000
0010
0100
0001
0100
,  // measure 98
0010
0000
0000
0000
0000
0000
1000
0000
0000
0001
0000
0000
1000
0000
0000
0100
0000
0000
0010
0000
0001
0000
0010
0000
,  // measure 99
0001
0100
0010
1000
0010
0000
0100
0001
,  // measure 100
1000
0000
0000
0010
0000
0000
1000
0000
0100
0000
1000
0000
0100
0000
0000
0010
0000
0000
0001
0000
0000
1000
0000
0000
,  // measure 101
0001
0101
1001
0010
,  // measure 102
1100
1001
0022
0000
,  // measure 103
0000
0000
0000
0000
0033
0000
0000
0000
0000
0000
0000
0010
0000
0000
0000
1000
,  // measure 104
0000
0000
0000
0001
0000
0000
0000
0010
0000
0000
0000
2200
0000
0000
0000
0000
,  // measure 105
0000
0000
0000
0000
,  // measure 106
3300
0000
0000
0000
;

//---------------dance-single - ----------------
#NOTES:
     dance-single:
     :
     Medium:
     7:
     0.451597,0.615497,0.067800,0.330525,0.067800,326.000000,8.000000,39.000000,0.000000,0.000000,0.000000,0.451597,0.615497,0.067800,0.330525,0.067800,326.000000,8.000000,39.000000,0.000000,0.000000,0.000000:
0000
0000
0000
0000
,
0000
0000
0000
0000
,
0000
0000
0000
0002
,
0023
0000
0000
0000
0000
0000
0000
0000
0000
0000
0000
0000
0000
0000
0000
0000
0000
0000
0031
0000
1000
0000
0000
0001
,
0200
0000
0000
0000
0000
0000
0000
0000
0000
0000
0000
0000
0310
0000
0000
0000
0000
0000
1000
0000
0010
0000
0000
1000
,
0002
0203
0320
2030
,
0000
0000
0000
0000
,
0000
3000
0000
0000
,
0000
0000
0000
0001
,
0000
0100
0000
0000
0001
0000
0100
0000
,
1000
0000
1000
0000
0000
0100
0000
0000
,
1000
0010
0001
0010
,
0000
0100
0000
0000
1000
0000
0020
0000
,
0000
0000
0030
0100
0000
0100
0000
0000
,
0000
1000
0000
0001
0000
0100
0001
0000
,
0000
0010
0000
0000
2000
0000
0000
0000
,
0000
0000
3000
0010
0000
0010
0000
0000
,
0000
0001
0000
0100
0000
0100
0010
0000
,
0000
0100
0000
0000
0001
0000
0020
0000
,
0000
0000
0030
0001
0000
0001
0000
0000
,
0000
0100
0000
0010
0000
1000
0020
0000
,
0000
0230
0000
0000
0302
0000
0000
0203
,
0000
0000
0320
0000
0000
2030
0000
0000
,
3002
0000
0000
0203
0000
0000
0302
0000
,
0000
2003
0000
0000
3200
0000
0000
0320
,
0000
0031
0010
0100
,
1000
0001
0010
0001
,
0000
0100
0000
0100
0010
0000
1000
0000
,
0010
0000
1000
0000
0000
0100
0000
0100
,
0010
0001
0100
0001
,
0001
0100
0010
0010
,
0100
1000
1000
0100
,
0010
0100
0001
1000
,
0000
0100
0000
0000
1000
0000
0000
1100
,
0000
0000
0001
0000
0000
0100
0000
0000
,
0001
0000
0000
0011
0000
0000
0020
0000
,
0000
0032
0000
0000
0203
0000
0000
0320
,
0000
1030
0010
0100
,
0001
1000
0010
1000
,
0000
0001
0000
0100
0010
0000
0100
0000
,
0001
0000
0010
0000
0000
0100
0000
1000
,
0100
0010
0001
1000
,
1000
0100
0010
0001
,
0100
0001
0100
1000
,
0100
0000
0001
0001
1000
0000
1000
0000
,
0100
0000
1000
0001
,
0000
0100
0001
0010
,
0001
0000
0100
0000
0001
0000
0010
0001
,
0100
0000
0001
0001
,
0010
0000
0100
1000
,
0000
1000
0010
1000
,
0001
0000
1000
0000
0010
0000
1000
0001
,
0100
0000
0100
0010
,
1000
0000
0001
0001
,
0000
0100
0010
0010
,
1000
1000
0100
0100
,
0010
0000
0001
1000
,
0010
0000
0100
0100
,
0000
1000
0010
0100
,
0001
0000
0010
0000
0100
1000
0000
0001
,
0000
0001
0000
0001
2000
0000
0000
0000
,
3000
0000
1000
0001
0000
0100
0000
0100
,
0001
0000
0001
1000
0000
0010
0000
0000
,
0010
0000
1000
0000
0100
0000
0100
0010
,
0000
0001
0000
0100
0000
0001
0000
1000
,
0010
1000
0001
1000
,
0010
0000
0100
0000
0010
0000
0100
0001
,
1000
0000
0000
0000
0000
0000
0100
0000
0000
0000
0000
0000
0010
0000
0010
0000
0010
0000
0001
0100
0000
0000
0000
0000
,
0001
0000
0000
0100
0000
0000
1000
0000
,
0000
0010
0000
0000
0001
0000
0000
0010
,
0000
0000
0100
0000
0000
1000
0000
0000
,
0001
0000
0000
1000
0000
0000
0100
0000
,
0000
0010
0000
0000
0002
0000
0000
0000
,
0000
0000
0000
0000
,
0003
0000
0000
1000
0000
0000
1000
0000
0000
0000
0000
0000
0000
0000
0000
0000
,
0000
0010
0000
0000
0000
0000
0000
0100
,
0000
0000
0000
0001
,
0000
0000
0000
0100
0000
0000
0020
0000
0000
0000
0000
0000
0000
0000
0000
0000
,
0000
0000
1030
0000
0000
0000
0000
0000
0001
0000
0000
0100
0000
0000
0001
0000
,
0010
0000
0001
0100
0000
0100
0010
0000
,
0000
0000
0000
1000
0000
0000
1100
0000
0000
0000
0010
0000
0000
0000
0000
0001
,
0000
0000
1000
0000
0000
0000
0000
0000
0010
0000
0000
1000
0000
0000
0100
0000
,
0000
0100
1000
0000
1000
0001
0010
0000
,
0000
0000
0000
0100
0000
0000
0100
0000
0000
0000
0000
0000
1001
0000
0000
0000
,
0000
0000
0010
0000
0000
0000
0000
0000
1000
0000
0000
0001
0000
0000
1000
0000
,
0000
0200
0000
0300
,
1000
0000
0000
0001
0000
0000
1000
0000
0000
0000
0000
0000
0020
0000
0000
0000
,
0000
0030
1000
1000
,
0100
0010
0010
0001
,
0100
0100
0010
1000
,
0010
0000
0100
0000
0001
0000
0000
0100
,
0000
0010
2000
0000
,
3000
0001
0000
0100
0000
0000
0000
0010
,
0000
0100
0000
0100
0001
0000
0000
0100
,
0000
0020
0000
0000
,
0030
0100
0000
1000
0000
0000
0000
1000
,
0000
0100
0000
0010
0001
0000
0000
0101
,
0000
0000
1000
0000
0000
1100
0000
0000
,
0010
0000
0000
1010
0000
0000
0001
0000
,
0000
0011
0000
0000
0002
0000
0000
0203
,
0000
0000
0320
0000
0000
2030
0000
0000
,
3100
0010
0001
1000
,
0100
0020
0002
0000
,
0000
0000
0000
0033
;

//---------------dance-single - ----------------
#NOTES:
     dance-single:
     :
     Easy:
     4:
     0.285729,0.571533,0.025425,0.211875,0.025425,208.000000,3.000000,25.000000,0.000000,0.000000,0.000000,0.285729,0.571533,0.025425,0.211875,0.025425,208.000000,3.000000,25.000000,0.000000,0.000000,0.000000:
0000
0000
0000
0000
,
0000
0000
0000
0000
,
0000
0000
0000
0200
,
2300
0000
3000
0002
,
0203
0320
2030
3002
,
0103
0100
0010
0020
,
0000
0000
0000
0000
,
0000
0030
0000
0000
,
0000
0000
0000
1000
,
0000
1000
0000
0000
0001
0000
0000
0000
,
0001
0000
1000
0000
0000
1000
0000
0000
,
0001
0000
0001
0100
,
0000
0001
0000
0000
0100
0000
0020
0000
,
0000
0000
0000
0000
,
0000
0000
0000
1030
,
0000
0001
0000
0000
0200
0000
0000
0000
,
0000
0000
0000
0000
,
0000
0000
0000
0301
,
0000
1000
0000
0000
0100
0000
0020
0000
,
0000
0000
0000
0000
,
0000
0000
0000
0031
,
0000
0100
0000
0000
0010
0000
0000
1000
,
0000
0000
0001
0000
0000
0100
0000
0000
,
0010
0000
0000
1000
0000
0000
0001
0000
,
0000
1000
0000
0000
0100
0000
0000
0010
,
0000
0001
0000
0001
,
1000
0000
1000
0001
,
0000
0001
0100
0000
,
0100
0010
0000
0010
,
1000
0000
1000
0002
,
0000
0000
0023
0000
,
0000
0230
0000
0000
,
2300
0000
0000
3001
,
0000
1000
0000
0000
0010
0000
0000
0100
,
0000
0000
0001
0000
0000
1000
0000
0000
,
0100
0000
0000
0010
0000
0000
0001
0000
,
0000
0100
0000
0000
0001
0000
0000
1000
,
0000
0010
0000
0010
,
1000
0000
1000
0100
,
0000
0100
0010
0000
,
0010
0100
0000
0100
,
0010
0000
0010
0001
,
0000
0000
1000
0000
,
0000
0001
0001
1000
,
1000
0000
0001
1000
0001
0000
0000
0000
,
0001
0000
0100
0000
,
1000
0000
0010
0000
,
1000
0000
0100
0000
,
1000
0000
0100
0000
,
0100
0000
0010
0000
,
0001
0000
1000
0000
,
0001
0000
0100
0000
,
0010
0000
1000
0000
,
1000
0000
0100
0000
,
0001
0000
0010
0000
,
0100
0000
1000
1000
,
0001
0000
0100
0000
,
0100
0000
0010
0000
,
1000
0000
0010
0000
,
0100
0000
0001
0001
,
1000
0000
0220
0000
,
0000
0000
0000
0330
,
0100
0000
0000
0100
0000
0000
0000
0000
,
0001
0000
0000
0000
0001
0000
0000
0010
,
0000
0000
0000
1000
0000
0000
0000
0000
,
1000
0000
0001
0000
,
0100
0000
0010
1000
,
2002
0000
3003
0000
,
1000
0000
0000
1000
0000
0000
0100
0000
,
0000
0100
0000
0000
0001
0000
0000
0001
,
0000
0000
0010
0000
0000
0010
0000
0000
,
1000
0000
0000
0100
0000
0000
0001
0000
,
0000
0100
0000
0000
2000
0000
0000
0000
,
0000
0000
3000
0000
,
0000
0000
0000
0000
,
0000
0000
0000
0000
,
0000
0000
0000
0000
,
0000
0000
0000
0000
,
0000
0000
1001
0000
0000
0000
0000
0000
0001
0000
0000
0001
0000
0000
0001
0000
,
0000
0000
0000
0100
,
0000
0000
0000
1000
0000
0000
1000
0000
0000
0000
0000
0000
0000
0000
0000
0000
,
0000
0000
0010
0000
0000
0000
0000
0000
0100
0000
0000
0100
0000
0000
0100
0000
,
0000
0000
0000
0001
,
0000
0000
0000
0010
0000
0000
0010
0000
0000
0000
0000
0000
0100
0000
0000
0000
,
0000
0000
1000
0000
0000
0000
0000
0000
0001
0000
0000
0100
0000
0000
0001
0000
,
0000
0200
0000
0300
,
0010
0000
0000
1000
0000
0000
0010
0000
0000
0000
0000
0000
2000
0000
0000
0000
,
0000
0000
3001
0000
,
0100
0001
0000
1000
,
0001
0000
0010
0001
,
0000
0000
0001
0000
1000
0000
0000
0100
,
0000
1000
0020
0000
,
0000
0000
0000
0000
,
0000
0000
0000
0000
1030
0000
0000
0001
,
0000
0200
0000
0000
,
0000
0000
0000
0000
,
0000
0000
0000
0000
0310
0000
0000
0100
,
0000
0000
0010
0000
0000
0100
0000
0000
,
0001
0000
0000
0100
0000
0000
0010
0000
,
0000
1000
0000
0000
0100
0000
0000
1000
,
0000
0000
0001
0000
0000
1000
0000
0000
,
0100
1000
0100
0010
,
0001
0100
0020
0000
,
0000
0000
0000
0030
;

//---------------dance-single - ----------------
#NOTES:
     dance-single:
     :
     Beginner:
     2:
     0.123493,0.263785,0.016950,0.016950,0.008475,98.000000,2.000000,2.000000,0.000000,0.000000,0.000000,0.123493,0.263785,0.016950,0.016950,0.008475,98.000000,2.000000,2.000000,0.000000,0.000000,0.000000:
0000
0000
0000
0000
,
0000
0000
0000
0000
,
0000
0000
0000
0000
,
1000
0000
1000
0000
,
0001
0000
0001
0000
,
1000
1000
0001
0001
,
0000
0000
0000
0000
,
0000
0000
0000
0000
,
0000
0000
0000
1000
,
0000
0000
0000
0000
,
0000
0001
0000
0000
,
0000
0000
0000
0100
,
0000
0000
0000
0010
,
0000
0000
0000
0000
,
0000
0000
0000
0010
,
0000
0000
0001
0000
,
0000
0000
0000
0000
,
0000
0000
0000
0001
,
0000
0000
0000
1000
,
0000
0000
0000
0000
,
0000
0000
0000
1000
,
0000
0000
1000
0000
,
0000
1000
0000
0000
,
1000
0000
0000
0001
,
0000
0000
0001
0000
,
0000
0001
0000
0000
,
0000
0000
0000
0100
,
0000
0000
0000
0000
,
0000
0100
0000
0000
,
0000
0000
0000
0010
,
0000
0000
0000
0000
,
0000
0010
0000
0000
,
0000
0000
0000
1000
,
0000
0000
1000
0000
,
0000
0001
0000
0000
,
0001
0000
0000
0100
,
0000
0000
0100
0000
,
0000
0010
0000
0000
,
0000
0000
0000
0100
,
0000
0000
0100
0000
,
0000
0010
0000
0000
,
0010
0000
0000
0001
,
0000
0000
0000
0000
,
0000
1000
0000
0000
,
0000
0000
0001
0000
,
0000
0000
0100
0000
,
0000
0000
0001
0000
,
0001
0000
0100
0000
,
0000
0000
1000
0000
,
0000
0000
0100
0000
,
0000
0000
1000
0000
,
1000
0000
0100
0000
,
0000
0000
0001
0000
,
0000
0000
0010
0000
,
0000
0000
0001
0000
,
0001
0000
0010
0000
,
0000
0000
1000
0000
,
0000
0000
0010
0000
,
0000
0000
1000
0000
,
0010
0000
0010
0000
,
0000
0000
1001
0000
,
0000
0000
0100
0000
,
0000
0000
0100
0000
,
0000
0000
0100
0000
,
0000
0000
0100
0000
,
0000
0000
0100
0000
,
0000
0000
0000
0000
,
1001
0000
0000
0000
,
1000
0000
0000
1000
,
0000
0000
1000
0000
,
0000
1000
0000
0000
,
0001
0000
0000
0001
,
0000
0000
0001
0000
,
0000
0000
0000
0000
,
0000
0000
0000
0000
,
0000
0000
0000
0000
,
0000
0000
0000
0000
,
0000
0000
0000
0000
,
0000
0000
0000
0000
0100
0000
0000
0100
,
0000
0000
0000
0000
,
0000
0000
0000
0010
0000
0000
0000
0000
0000
0000
0000
0000
0000
0000
0000
0000
,
0000
0000
0000
0000
0001
0000
0000
0001
,
0000
0000
0000
0000
,
0000
0000
0000
1000
0000
0000
0000
0000
0000
0000
0000
0000
0000
0000
0000
0000
,
0000
0000
0000
0000
0100
0000
0000
0100
,
0000
0100
0000
0000
,
0100
0000
0000
0100
0000
0000
0010
0000
,
0000
0000
0000
0000
,
0000
0000
0000
0000
,
0000
0000
0000
0000
,
0000
0000
1000
0000
,
0000
0000
0001
0000
,
0000
0000
0000
0000
,
0000
0000
0001
0000
,
0000
1000
0000
0000
,
0000
0000
0000
0000
,
0000
0000
0010
0000
,
0000
0100
0000
0000
,
0010
0000
0000
0100
,
0000
0000
0001
0000
,
0000
1000
0000
0000
,
0002
0000
0000
0000
,
0000
0000
2003
0000
,
0000
0000
0000
3000
;
