#TITLE:Nefertiti;
#SUBTITLE:Ver. MMXI;
#ARTIST:Toshinori Hiramatsu;
#TITLETRANSLIT:;
#SUBTITLETRANSLIT:;
#ARTISTTRANSLIT:;
#GENRE:;
#CREDIT:;
#BANNER:bn.png;
#BACKGROUND:bg.png;
#LYRICSPATH:;
#CDTITLE:;
#MUSIC:Nefertiti Arrange.ogg;
#OFFSET:-1.789000;
#SAMPLESTART:18.715000;
#SAMPLELENGTH:12.000000;
#SELECTABLE:YES;
#BPMS:0.000000=140.000000
;
#STOPS:
;
#BGCHANGES:;
#KEYSOUNDS:;
#ATTACKS:;

//---------------dance-single - ----------------
#NOTES:
     dance-single:
     :
     Challenge:
     12:
     0.644355,1.137611,0.014206,1.072573,0.990887,635.000000,633.000000,2.000000,151.000000,5.000000,0.000000,0.644355,1.137611,0.014206,1.072573,0.990887,635.000000,633.000000,2.000000,151.000000,5.000000,0.000000:
// measure 0
0000
0000
0000
0000
,  // measure 1
0000
0000
0000
0000
,  // measure 2
0000
0000
0000
0000
,  // measure 3
0000
0000
0000
0000
,  // measure 4
0000
0000
0000
0000
,  // measure 5
0000
0000
0000
0000
0000
4000
0000
0000
,  // measure 6
3001
0100
0010
0000
1000
0001
0000
1000
0010
0000
0000
0010
1000
0000
0100
0000
,  // measure 7
0010
0100
1000
0000
1000
0001
0000
0010
0100
0000
0010
0100
0000
0000
0100
0000
,  // measure 8
0010
0000
0001
0000
1000
0001
0000
1000
0100
0000
1000
0001
0000
0001
1000
0000
,  // measure 9
0001
0010
010M
0000
0001
0010
010M
0000
0001
0010
0100
0000
4000
0000
3010
0100
,  // measure 10
0002
0000
0000
0000
0000
0000
1003
0100
0020
0000
0000
0230
0000
0000
2300
0000
,  // measure 11
3002
0000
0000
0000
0000
0000
1003
0010
0200
0000
0000
0320
0000
0000
2030
0000
,  // measure 12
3002
0000
0000
0000
0000
0000
1003
0100
0010
0000
0000
0001
0000
0000
0100
0000
,  // measure 13
4000
0000
0000
0000
3000
0000
0100
0010
2000
0000
0000
3002
0000
0000
0203
0000
,  // measure 14
0320
0000
0000
0000
0000
0000
1030
0000
2000
0000
0000
3020
0000
0000
0230
0000
,  // measure 15
0302
0000
0000
0023
0000
0000
0230
0000
2300
0000
0000
0000
3002
0000
0000
0000
,  // measure 16
4003
0000
0000
0000
0000
0000
0000
0000
0000
0000
0000
0000
0000
0000
0000
0000
3000
0000
0001
0000
0100
0000
0001
0000
0200
0000
0000
0000
0000
0000
0000
0000
0000
0320
0000
0000
0000
0000
0000
0000
0000
0000
1030
0000
0000
0000
0000
0000
,  // measure 17
0001
0010
0100
0001
0100
1000
0100
1000
0001
0010
0001
0010
0100
1000
0010
0100
,  // measure 18
0002
0000
0003
1000
0010
1000
0020
0000
0000
0230
0000
0000
0300
0000
0000
0200
0000
0000
0302
0000
0000
0023
0000
0000
,  // measure 19
0032
0000
0003
1000
0001
1000
0002
0000
0000
0203
0000
0000
0300
0000
0000
0200
0000
0000
0302
0000
0000
2003
0000
0000
,  // measure 20
3200
0000
0000
0000
0300
0000
0010
0000
0001
0000
0010
0000
0002
0000
0000
0000
0003
0000
0200
0000
0000
0000
0000
0000
0302
0000
0000
0000
0000
0000
1003
0000
0000
0100
0000
0000
0010
0000
0000
0001
0000
0000
0100
0000
0000
0010
0000
0000
,  // measure 21
1000
0001
0100
0001
0010
0100
1000
0100
0001
0100
1000
0100
0010
0100
1000
0001
,  // measure 22
0020
0000
0000
0000
0030
0000
0010
0000
0002
0000
0003
2000
0000
0000
3020
0000
,  // measure 23
2030
0000
0000
0000
0000
0000
0000
0000
0000
0000
0000
0000
0000
0000
0000
0000
3000
0000
0001
0000
0100
0000
0001
0000
0200
0000
0000
0000
0000
0000
0000
0000
0000
0320
0000
0000
0000
0000
0000
0000
0000
0000
0230
0000
0000
0000
0000
0000
,  // measure 24
0301
0000
0000
0000
0000
0000
0000
0000
0000
0000
0000
0000
1000
0000
0000
0000
0000
0000
0000
0000
0000
0000
0000
0000
0200
0000
0000
0000
0000
0000
0000
0000
0000
0000
0000
0000
0000
0000
0000
0000
0000
0000
0000
0000
0000
0000
0000
0000
0000
0000
0000
0000
0000
0000
0000
0000
0000
0000
0000
0000
0000
0000
0000
0000
0000
0000
0000
0000
0000
0000
0000
0000
0000
0000
0000
0000
0000
0000
0000
0000
0000
0000
0000
0000
0000
0000
0000
0000
0000
0000
0000
0000
0000
0000
0000
0000
0000
0000
0000
0000
0000
0000
0000
0000
0300
0000
0000
0000
0000
0000
0000
0000
0000
0000
0000
0000
0000
0000
0000
0000
1000
0000
0000
0000
0000
0000
0000
0000
0000
0000
0000
0000
0100
0000
0000
0000
0000
0000
0000
0000
0000
0000
0000
0000
1000
0000
0000
0000
0000
0000
0001
0000
0000
0000
0000
0000
1000
0000
0000
0000
0000
0000
0000
0000
0000
0000
0000
0000
0001
0000
0000
0000
0000
0000
0000
0000
0000
0000
0000
0000
0100
0000
0000
0000
0000
0000
0000
0000
0000
0000
0000
0000
,  // measure 25
0010
0001
0010
0100
0001
1000
0010
0100
0002
0000
0000
0000
0000
0000
1003
0100
,  // measure 26
0010
0000
2000
3020
0032
0003
1000
0100
0020
0000
0000
0031
0000
0000
0100
0000
,  // measure 27
0010
0000
0000
0000
0000
0000
0000
0000
0000
0100
0000
0000
0000
0000
0000
0000
0000
0000
0001
0000
1000
0000
0001
0000
2000
0000
0000
0000
0000
0000
0000
0000
0000
0000
0000
0000
0000
0000
0000
0000
3000
0000
0001
0000
0000
0010
0000
0000
,  // measure 28
0100
0000
0002
0203
2300
3000
0001
0010
0200
0000
0000
0320
0000
0030
2000
0000
,  // measure 29
3020
0000
0000
0230
0000
0000
0320
0000
0032
0000
0000
0000
0003
0000
1000
0001
,  // measure 30
0200
0000
0000
0000
0300
0000
0200
0000
0302
0000
0000
0023
0000
0000
0230
0000
,  // measure 31
2300
0000
0000
3020
0000
0030
0100
0001
0100
0002
0000
0000
2003
0000
0000
0000
0000
0000
3200
0000
0000
0000
0000
0000
,  // measure 32
0304
0000
0000
0000
0000
0000
0103
0000
0020
0000
0000
0032
0000
0000
1003
0000
,  // measure 33
2002
0000
0000
0000
0000
0000
0000
0000
3003
0000
0000
0002
0000
0000
0013
0000
,  // measure 34
0110
0000
0000
0000
0000
0000
2000
0000
3002
0000
0000
0023
0000
0000
0031
1000
,  // measure 35
0002
0000
0000
0000
0000
0000
2003
0000
3002
0000
0000
0023
0000
0030
0001
1000
,  // measure 36
0002
0000
0000
0000
0000
0000
2003
0000
3200
0000
0000
0320
0000
0000
0032
0000
,  // measure 37
2003
0000
0000
0000
3000
0000
0000
0000
0000
2000
0000
0000
0000
0000
0000
0000
0000
0000
3020
0000
0000
0000
0000
0000
0230
0000
0000
0000
0000
0000
0302
0000
0000
0000
0003
0000
1000
0000
0001
0000
1000
0000
0002
0000
0000
0000
0000
0000
,  // measure 38
0203
0000
0000
0320
0000
0000
0130
0000
4000
0000
0000
0000
3000
0000
0100
0001
,  // measure 39
2000
0000
0000
0000
3000
M000
0100
0001
1000
0000
0000
0020
0000
0000
0230
0000
,  // measure 40
0304
0000
0000
0000
0003
0000
1000
0100
0020
0000
0000
0032
0000
0000
0103
0000
,  // measure 41
0010
1000
0040
0000
0000
0000
0000
0000
0000
0000
0000
0000
0000
0000
0000
0000
,  // measure 42
0000
0000
0000
0000
0030
0000
0200
0000
0302
0000
0000
0023
0000
0030
0001
1000
,  // measure 43
0002
0000
0000
0000
0000
0000
0203
0000
0302
0000
0000
0023
0000
0030
0001
1000
,  // measure 44
0002
0000
0000
0000
0000
0000
2003
0000
3200
0000
0000
0320
0000
0000
0230
0000
,  // measure 45
2300
0000
0000
0000
3000
0000
0000
0000
0000
2000
0000
0000
0000
0000
0000
0000
0000
0000
3020
0000
0000
0000
0000
0000
0230
0000
0000
0000
0000
0000
0302
0000
0000
0000
0003
0000
1000
0000
0010
0000
1000
0000
0010
0000
0000
0000
0000
0000
,  // measure 46
2000
0000
0000
0000
0000
0000
0000
0000
0000
3200
0000
0000
0000
0000
0000
0000
0000
0000
0310
0000
0000
0000
0000
0000
4000
0000
0000
0000
0000
0000
0000
0000
0000
0000
0000
0000
0000
0000
3000
0000
0000
0000
0010
0000
0000
0001
0000
0000
,  // measure 47
2000
0000
0000
0000
3000
M000
0010
0001
2000
0000
0000
3200
0000
0000
0320
0000
,  // measure 48
0032
0000
0000
0000
0000
0003
1000
0010
0200
0000
0000
0302
0000
0000
0023
0000
,  // measure 49
0230
0000
0000
0000
,  // measure 50
0000
0000
0000
0300
0000
0000
0000
0000
1000
0001
0000
0000
1000
0000
0001
0100
0010
1000
0001
0100
0010
1000
0010
1000
,  // measure 51
0002
0000
0000
0000
0000
0000
0000
0000
0000
0000
0000
0000
0000
0000
0000
0000
0000
0000
0000
0000
0000
0003
0000
0000
1000
0000
0000
0100
0000
0000
0010
0000
0000
0001
0000
0000
1000
0000
0000
0010
0000
0000
0100
0000
0010
0000
1000
0000
,  // measure 52
0001
1000
0001
0010
0001
0010
0100
0010
0100
1000
0100
1000
0001
1000
0001
0100
0001
0100
0001
1000
0100
0010
0001
0010
,  // measure 53
0200
0000
0000
0000
1300
0000
0001
0000
0000
M100
0000
0000
0000
0000
0000
1000
0000
0000
0001
0000
0000
0100
0000
0000
0001
0000
0000
1000
0000
0000
0010
0000
0000
0100
0000
0000
1000
0000
0000
0100
0000
0000
0010
0000
0000
1000
0000
0000
,  // measure 54
0010
0000
0000
0100
0000
0000
0001
0000
1000
0000
0001
0000
1000
0000
0000
0100
0000
0000
0010
0000
0000
0100
0000
0000
2000
0000
0000
0000
0000
0000
0000
0000
0000
3020
0000
0000
0000
0000
0000
0000
0000
0000
0130
0000
0000
0000
0000
0000
,  // measure 55
0001
0100
0100
1000
0010
0100
0100
1000
0001
0010
0010
1000
0100
0010
0010
1000
,  // measure 56
0001
0100
0100
0010
0001
0010
0010
1000
0001
0100
0100
1000
0100
0010
0010
1000
,  // measure 57
0001
0100
0100
1000
0010
0100
0100
1000
0001
0100
0010
0100
0010
1000
0100
1000
,  // measure 58
0100
0000
0010
0000
0100
0000
0020
0000
0000
0000
0000
0000
0000
0000
0000
0030
0000
0000
0100
0000
1000
0000
0100
0000
2000
0000
0000
0000
0000
0000
0000
0000
0000
0000
0000
0000
0000
0000
0000
0000
0000
0000
0000
0000
0000
0000
3000
0000
,  // measure 59
0001
1000
0001
0020
0000
0000
0000
0000
0030
0100
1000
0100
0020
0000
0000
0000
0000
0030
0001
0010
0001
2000
0000
0000
,  // measure 60
0000
0000
0000
0000
3000
0000
0010
0000
0100
0000
0010
0000
2000
0000
0000
0000
0000
0000
0000
0000
3000
0000
0000
0000
1000
0000
0000
0100
0000
0000
1000
0000
0001
0000
1000
0000
0001
0000
0000
0010
0000
0000
0100
0000
0000
0010
0000
0000
,  // measure 61
0001
1000
0010
0100
0010
1000
0001
0010
0100
1000
0001
1000
0010
1000
0001
0010
,  // measure 62
0200
0000
0000
0320
0000
0000
0032
0000
0000
0000
2003
0000
0000
0000
0000
0000
,  // measure 63
0000
0000
0000
3000
0000
0000
0010
0000
0000
0000
0000
0000
0000
0000
0000
0000
1000
0000
0000
0000
0000
0000
0000
0000
0010
0000
0000
0000
0000
0000
0000
0000
0000
0000
0100
0000
0000
0000
0000
0000
0000
0000
0001
0000
0000
0000
0000
0000
,  // measure 64
1000
0000
0000
0000
0000
0000
0000
0000
0000
0000
0001
0000
0000
0000
0000
0000
0000
0000
0100
0000
0000
0000
0000
0000
0010
0000
0000
0000
0000
0000
0000
0000
0000
1000
0000
0000
0000
0000
0000
0000
0000
0000
0100
0000
0000
0000
0000
0000
,  // measure 65
4000
0000
0000
0000
0000
0000
3000
0000
0000
0001
1000
0001
1000
0000
0000
0100
0000
0000
0010
0000
0000
0001
0000
1000
,  // measure 66
0010
0000
0000
0000
0100
0000
0000
0000
0001
0100
0000
0000
4000
0000
0000
0000
0000
0000
0000
0000
0000
3000
0000
0000
,  // measure 67
0200
0000
0000
0000
0000
0000
0000
0000
0000
0000
0000
0000
0310
0000
0000
0100
0000
0000
0010
0000
0000
0100
0000
0000
0010
0000
0000
0100
0000
0000
0010
0000
,  // measure 68
2000
0000
0000
0000
0000
0000
0000
0000
0000
0000
0000
0000
3000
0000
0000
0000
0000
0000
1000
0000
0001
0000
1000
0000
0001
0000
0000
0010
0000
0000
0100
0000
0000
0010
0000
0000
0001
0000
0000
1000
0000
0000
0010
0000
0000
0100
0000
0000
,  // measure 69
0001
0000
1000
0000
0001
0000
1000
0000
0000
0000
0000
0000
0010
0000
0100
0000
0010
0000
0100
0000
0000
0000
0000
0000
0010
0000
1000
0000
0010
0000
1000
0000
0000
0000
0001
0000
0100
0000
0001
0000
0100
0000
0010
0000
0000
1000
0000
0000
,  // measure 70
0100
0010
0001
1000
0010
0100
0010
1000
0002
0000
0000
1000
0000
0000
1003
0000
,  // measure 71
0001
0000
0100
0000
0010
1000
0000
1000
0010
0000
0010
0100
0000
0000
0001
0000
,  // measure 72
1000
0000
0000
0000
0000
0000
0200
0000
0000
0000
0000
0000
0000
0000
0000
0000
0000
0000
0000
0000
0000
0300
0000
0000
0010
0000
0001
0000
0010
0000
0001
0000
0010
0000
0001
0000
1000
0000
0100
0000
1000
0000
0100
0000
1000
0000
0100
0000
,  // measure 73
0010
0000
0000
0001
0000
0010
0000
0001
0000
0010
0000
0000
0100
0000
0000
1000
0000
0100
0000
1000
0000
0100
0000
0000
0010
0000
0000
0100
0000
0010
0000
0100
0000
0010
0000
0000
0100
0000
0000
1000
0000
0001
0000
1000
0000
0001
0000
0000
,  // measure 74
0010
0001
0010
0100
1000
0010
0100
0010
1000
0001
0010
0100
1000
0001
0100
0010
,  // measure 75
2000
0000
0000
0000
,  // measure 76
0000
0000
0000
0000
,  // measure 77
0000
0000
0000
0000
,  // measure 78
0000
3000
0000
0000
0000
0000
0000
0000
;
