#VERSION:0.83;
#TITLE:Misery Business;
#SUBTITLE:;
#ARTIST:Paramore;
#TITLETRANSLIT:;
#SUBTITLETRANSLIT:;
#ARTISTTRANSLIT:;
#GENRE:;
#ORIGIN:;
#CREDIT:hooky;
#BANNER:[Rock Out] - Misery Business.png;
#BACKGROUND:[Rock Out] - Misery Business-bg.png;
#PREVIEWVID:;
#JACKET:[Rock Out] - Misery Business-jacket.png;
#CDIMAGE:;
#DISCIMAGE:;
#LYRICSPATH:;
#CDTITLE:;
#MUSIC:[Rock Out] - Misery Business.ogg;
#OFFSET:0.000000;
#SAMPLESTART:37.455002;
#SAMPLELENGTH:15.000000;
#SELECTABLE:YES;
#DISPLAYBPM:173.000000;
#BPMS:0.000=173.000;
#STOPS:106.000=0.347,
169.000=0.347,
232.000=0.347,
279.000=0.347,
326.000=0.347;
#DELAYS:;
#WARPS:;
#TIMESIGNATURES:0.000=4=4;
#TICKCOUNTS:0.000=4;
#COMBOS:0.000=1;
#SPEEDS:0.000=1.000=0.000=0;
#SCROLLS:0.000=1.000;
#FAKES:;
#LABELS:0.000=Song Start;
#BGCHANGES:0.000=[Rock Out] - Misery Business.avi=1.000=0=0=0=StretchNoLoop====,
99999=-nosongbg-=1.000=0=0=0 // don't automatically add -songbackground-
;
#KEYSOUNDS:;
#ATTACKS:
;

//---------------dance-single - ----------------
#NOTEDATA:;
#CHARTNAME:;
#STEPSTYPE:dance-single;
#DESCRIPTION:;
#CHARTSTYLE:;
#DIFFICULTY:Challenge;
#METER:10;
#RADARVALUES:0.766023,1.001343,0.634483,0.038688,0.166358,693.000000,611.000000,82.000000,5.000000,0.000000,0.000000,0.000000,0.000000,0.000000,0.766023,1.001343,0.634483,0.038688,0.166358,693.000000,611.000000,82.000000,5.000000,0.000000,0.000000,0.000000,0.000000,0.000000;
#CREDIT:;
#DISPLAYBPM:173.000000;
#NOTES:
// measure 0
0000
0000
0000
0000
,  // measure 1
0000
0000
0000
0000
,  // measure 2
0000
0000
0000
0000
,  // measure 3
0000
0000
0000
0000
,  // measure 4
0000
0000
0000
0000
,  // measure 5
1010
0000
1010
0000
0000
0000
0100
0001
0100
0000
0100
0000
0010
0000
0010
0000
,  // measure 6
0101
0101
0000
0001
0011
0011
0000
0001
,  // measure 7
0101
0000
0101
0000
0000
0000
0010
1000
0100
0000
0100
0000
1000
0000
0010
0000
,  // measure 8
1000
0100
0010
0001
0010
0100
1000
0000
,  // measure 9
1000
0100
1000
1000
0010
0100
0001
0010
,  // measure 10
0001
0100
0010
0100
0010
1000
0100
0010
,  // measure 11
0001
0100
0001
0010
0001
0001
1000
1000
,  // measure 12
0010
0010
0100
0010
0100
0100
0010
0010
,  // measure 13
1000
0000
0000
0000
1000
0000
0100
1000
0100
0000
1000
0000
0010
0000
0100
0000
,  // measure 14
0001
0000
0010
0000
0001
0000
0100
0000
0001
0000
0000
0100
0000
0000
0100
0000
,  // measure 15
0010
0100
0010
1000
0100
0001
0100
1000
,  // measure 16
0010
0100
0001
0010
0001
0001
0101
0000
,  // measure 17
0110
0000
0010
0000
1000
0000
0010
0100
0010
0000
0100
0000
0001
0000
0010
0000
,  // measure 18
0001
0000
1000
0000
0010
0000
0100
0010
1000
0000
0100
0000
1000
0000
0010
0000
,  // measure 19
0100
0000
0001
0000
0010
0000
0001
0010
0001
0000
0100
0000
0010
0000
1000
0000
,  // measure 20
0010
1000
0010
0001
0010
1000
0100
0100
,  // measure 21
1100
0000
0000
0000
0110
0000
0100
0010
0100
0000
0001
0000
0010
0000
0010
0000
,  // measure 22
0001
0000
0100
0000
0010
0000
0100
0001
0100
0000
0001
0000
0010
0000
0100
0000
,  // measure 23
1000
0000
0010
0000
0010
0000
0100
0010
0100
0000
0010
0000
1000
0000
0001
0000
,  // measure 24
0010
0100
0100
0000
0100
0000
1100
0000
,  // measure 25
0010
0010
0010
0010
0010
0010
0010
0010
,  // measure 26
0100
0010
0100
0010
0110
0000
1001
1000
,  // measure 27
1100
0100
0011
0010
0110
0010
0100
1000
,  // measure 28
0001
0100
0001
0010
0001
0100
0010
0010
,  // measure 29
1010
1000
0010
1000
0100
0100
1000
0100
,  // measure 30
0001
0100
1000
0010
0001
0010
1000
1000
,  // measure 31
1000
0001
0010
0001
0100
0010
0010
1000
,  // measure 32
1000
0100
0100
1000
1000
0010
0100
0001
,  // measure 33
0010
0001
0100
0010
1000
0001
0100
0001
,  // measure 34
0010
0001
0100
0100
0010
0100
0110
0000
,  // measure 35
1010
0110
0011
0101
,  // measure 36
0011
0000
0100
0010
0100
0010
0110
0000
,  // measure 37
1010
1100
0011
0101
,  // measure 38
0011
0000
0001
0100
0001
0010
0011
0000
,  // measure 39
0101
1010
1010
0110
,  // measure 40
0011
0000
1000
0001
1000
0001
0100
0000
,  // measure 41
0110
0000
0000
0000
0010
0000
0000
0000
1010
0000
0000
0000
0010
0100
0010
0100
,  // measure 42
0010
0100
0010
0100
0010
0000
0000
0000
0100
0000
0000
0000
0100
0000
0000
0000
,  // measure 43
0100
0100
0001
0001
,  // measure 44
0001
0001
1000
1000
,  // measure 45
1000
1000
0010
0010
,  // measure 46
0010
0010
2000
0100
,  // measure 47
0100
3100
2000
0001
,  // measure 48
0001
3001
0200
0010
,  // measure 49
0010
0310
0020
1000
,  // measure 50
1000
0000
1030
0000
0010
1000
0010
1000
,  // measure 51
0010
0100
0010
0100
0001
0010
0001
0010
,  // measure 52
0001
0100
0001
0100
0010
1000
0100
1000
,  // measure 53
0010
0100
0001
0010
0001
0100
0010
1000
,  // measure 54
0100
1000
1000
0010
0100
0001
0010
0001
,  // measure 55
0100
0010
0100
0001
0010
0001
0100
0010
,  // measure 56
1000
0000
0100
0000
1000
0000
0010
0000
0100
0010
0100
0010
0100
0010
0100
0010
,  // measure 57
0100
0010
0100
0010
0100
0010
0100
0010
1000
0100
0010
0001
0100
0010
0001
1000
,  // measure 58
0001
0000
1000
0001
0001
0001
0001
0001
,  // measure 59
0001
0001
1000
0001
0001
0001
0001
0001
,  // measure 60
0001
0001
1000
0001
0001
0001
0001
0001
,  // measure 61
0001
0001
0010
0010
0010
0010
0100
0100
,  // measure 62
0100
0100
1000
1000
1000
1000
1000
1000
,  // measure 63
1000
1000
0001
0001
0001
0001
0001
0001
,  // measure 64
0001
0001
0100
0100
0100
0100
0001
0001
,  // measure 65
0010
0010
0200
1000
1000
1000
1300
0000
,  // measure 66
0000
0000
0010
1000
1000
1000
0010
1000
,  // measure 67
1000
1000
0010
1000
1000
1000
0010
1000
,  // measure 68
1000
1000
0010
1000
1000
1000
0010
1000
,  // measure 69
1000
0000
1000
0000
0010
1000
0100
0010
0001
0100
0010
0100
0010
0000
0000
0000
,  // measure 70
0110
0010
1000
0100
1000
0010
0100
0001
,  // measure 71
0010
0001
0100
1000
0100
0001
0001
0100
,  // measure 72
0010
0100
0001
0001
0101
0001
0011
0001
,  // measure 73
0100
0100
0010
0010
1000
0100
1000
1000
,  // measure 74
1100
1100
1100
1100
,  // measure 75
0011
0000
0011
0000
0001
0100
0010
0010
,  // measure 76
0110
0110
0110
0110
,  // measure 77
0010
0000
1000
0000
0100
0000
0010
0000
0001
0100
0001
0100
0001
0000
0000
0000
,  // measure 78
0110
0110
0011
0011
,  // measure 79
1010
0000
1010
0000
0001
0100
0010
0100
,  // measure 80
0011
0011
1100
1100
,  // measure 81
0010
0100
0001
0010
0100
1000
0010
1000
0100
0000
0000
0000
1100
0000
1100
0000
,  // measure 82
0000
0000
0010
0100
0010
0000
0010
0000
1000
0000
1000
0000
0110
0000
0110
0000
,  // measure 83
0000
0100
0101
0101
0000
0001
0011
0011
,  // measure 84
0000
0000
0001
0100
0001
0000
0001
0000
0010
0000
0010
0000
0001
0000
0001
0000
,  // measure 85
0100
0000
0010
0000
0100
0010
0100
0010
0100
0000
0000
0000
0011
0000
0011
0000
,  // measure 86
0000
0000
0001
0100
0001
0000
0100
0000
0010
0000
0010
0000
1010
0000
1010
0000
,  // measure 87
0000
0100
1100
1100
0000
0100
0110
0110
,  // measure 88
0000
0000
0001
0100
0010
0000
0010
0000
0100
0000
0100
0000
0101
0000
0000
0011
,  // measure 89
0000
1100
0110
0000
0000
0000
0000
0000
;

//---------------dance-single - ----------------
#NOTEDATA:;
#CHARTNAME:;
#STEPSTYPE:dance-single;
#DESCRIPTION:;
#CHARTSTYLE:;
#DIFFICULTY:Hard;
#METER:8;
#RADARVALUES:0.579215,0.621523,0.588058,0.085114,0.003869,524.000000,448.000000,76.000000,11.000000,0.000000,0.000000,0.000000,0.000000,0.000000,0.579215,0.621523,0.588058,0.085114,0.003869,524.000000,448.000000,76.000000,11.000000,0.000000,0.000000,0.000000,0.000000,0.000000;
#CREDIT:;
#DISPLAYBPM:173.000000;
#NOTES:
0000
0000
0000
0000
,
0000
0000
0000
0000
,
0000
0000
0000
0000
,
0000
0000
0000
0000
,
0000
0000
0000
0000
,
0010
0010
0000
0010
1000
0010
1000
0010
,
0100
0100
0000
0100
0100
0100
0000
0100
,
0001
0001
0000
0001
0010
0001
0010
0001
,
0100
0010
1000
0100
1000
1000
0010
0000
,
0100
0000
0110
0000
0010
1000
0100
0000
,
0100
0100
1000
0000
1000
1000
0010
0000
,
0010
0000
0110
0000
0100
0001
0010
0000
,
0010
0001
0100
0000
0100
0001
0100
0001
,
0010
0000
0011
0000
0100
0010
0100
0000
,
0010
1000
0100
0000
0100
1000
0100
0000
,
1100
0000
1010
0000
0100
0010
0100
0000
,
0100
0001
0010
0000
0011
0000
0011
0000
,
0100
0000
1010
0000
0010
0100
0010
0000
,
0100
0000
0101
0000
0001
0010
0100
0000
,
0100
0000
0110
0000
0010
0001
1000
0000
,
1000
0100
0001
0000
0001
0100
1000
0000
,
1000
0000
1100
0000
0010
0001
0100
0000
,
0100
0010
0100
0000
0110
0000
0100
0000
,
0100
0001
0010
0000
0010
0001
0100
0000
,
0100
0010
0000
0000
0100
0010
0000
0000
,
1000
1000
1000
1000
,
0001
0100
0010
0100
0110
0000
1001
0000
,
0011
0000
1100
0000
0110
0100
0010
1000
,
1000
0010
1000
0100
1000
0010
0100
0000
,
0101
0000
0100
0001
0010
0010
0001
0010
,
1000
0010
0001
0100
1000
0100
0001
0000
,
0011
0000
1100
0000
0010
0001
0010
1000
,
0010
0001
1000
0010
0100
0200
0000
0000
,
0010
0000
0010
0000
0310
0000
0010
1000
,
0100
1000
0010
0010
0100
0010
0110
0000
,
0101
0110
1100
1010
,
1100
0000
0010
0100
0010
0100
0010
0000
,
0101
0011
1100
1010
,
1100
0000
1000
0100
0010
0100
1000
0000
,
1010
0101
0101
0110
,
1100
0000
0001
1000
0001
1000
0010
0000
,
0110
0000
0100
0000
0101
0100
0100
0010
,
1000
0001
0010
0000
0002
0000
0000
0000
,
0000
0003
0200
0000
,
0000
0300
0020
0000
,
0000
0030
2000
0000
,
0000
3000
0020
0001
,
0000
0031
0020
0100
,
0000
0130
0002
1000
,
0000
1003
2000
0010
,
0000
3010
0010
0100
,
0001
0010
0001
0000
0001
0100
0010
0000
,
0010
1000
0100
0000
1000
0000
1100
0000
,
1000
0010
0100
0000
0100
0001
0010
0000
,
0010
0001
0100
0000
0100
0000
0110
0000
,
0010
1010
1000
1100
,
1000
1001
0100
0101
,
0010
0000
0011
0000
0100
0010
0100
0000
,
0110
0000
0010
1000
0010
1000
0010
1000
,
0010
1000
0100
0010
0100
0010
0100
0010
,
0100
0010
0001
0100
0001
0100
0001
0100
,
0001
0100
0001
0010
0001
0010
0001
0100
,
0001
0100
0001
0010
0001
0010
0001
0010
,
0001
0010
0001
1000
0001
1000
0001
1000
,
0001
1000
0010
1000
0010
1000
0010
0000
,
0010
0200
0000
0310
,
0000
1100
1000
0110
,
0100
0011
0001
1010
,
0100
1100
0100
1001
,
0001
0000
0100
0010
0100
0010
0100
0000
,
0100
0110
0010
1010
,
1000
0010
0100
0001
0010
0010
0001
0100
,
0020
0100
0100
0130
,
0100
0001
0010
0010
0001
0100
0010
0000
,
0110
0110
1010
1010
,
1100
0000
1100
0000
0011
0000
0001
0100
,
0110
0110
0101
0101
,
0011
0000
0011
0000
0001
0010
0100
1000
,
1100
1100
0011
0011
,
0001
0000
0100
0000
0010
0100
0010
0000
,
0110
0110
1001
1001
,
0001
0100
1000
0100
0001
0000
0100
0100
,
0000
0010
1000
0100
1000
0010
0100
0100
,
0000
0001
0100
0100
0000
0100
0001
0001
,
0000
0001
0010
0001
0010
0010
0100
1000
,
0000
0100
0100
1000
0000
0000
0100
0100
,
0000
1000
0010
0010
0100
0001
0100
0100
,
0000
0010
0100
0100
0000
0100
0010
0010
,
0000
0000
0010
0000
1000
0000
0100
0000
1000
0000
0001
0000
0100
0000
0000
0100
,
0000
0010
0110
0000
0000
0000
0000
0000
;

//---------------dance-single - ----------------
#NOTEDATA:;
#CHARTNAME:;
#STEPSTYPE:dance-single;
#DESCRIPTION:;
#CHARTSTYLE:;
#DIFFICULTY:Medium;
#METER:6;
#RADARVALUES:0.358140,0.483407,0.154752,0.123802,0.003869,324.000000,304.000000,20.000000,16.000000,0.000000,0.000000,0.000000,0.000000,0.000000,0.358140,0.483407,0.154752,0.123802,0.003869,324.000000,304.000000,20.000000,16.000000,0.000000,0.000000,0.000000,0.000000,0.000000;
#CREDIT:;
#DISPLAYBPM:173.000000;
#NOTES:
0000
0000
0000
0000
,
0000
0000
0000
0000
,
0000
0000
0000
0000
,
0000
0000
0000
0000
,
0000
0000
0000
0000
,
1000
0000
0100
0100
,
1000
0000
1000
0000
,
0001
0000
0001
0001
,
0100
0010
1000
0100
,
1000
1000
0001
0100
,
0010
0000
0010
0000
0100
0001
0100
0000
,
0100
0010
1000
0100
,
1000
0000
1000
0000
0001
1000
0001
0000
,
0100
0100
0010
1000
,
0100
0000
1000
0000
0010
1000
0010
0000
,
0010
0000
0100
0000
0001
0010
0001
0000
,
0100
0001
0100
0000
0010
0100
0010
0000
,
0010
1000
0100
0000
1000
0000
1000
0000
,
0010
0100
0001
0000
0010
0000
0010
0000
,
0001
0100
0001
0000
0100
0000
0100
0000
,
0010
1000
0100
0100
,
1100
0000
0010
0000
0001
0100
0010
0000
,
0010
0110
0010
0010
,
1000
0100
1000
1000
,
0001
0100
0020
0000
,
0100
0100
0100
0130
,
1000
0001
0101
0010
,
1010
1000
1100
0010
,
0011
0001
0101
0100
,
0110
0000
0010
0000
1010
0000
0010
0100
,
0001
0010
0010
0001
,
0101
0100
0110
0010
,
1010
1000
1100
0100
,
1100
1000
1010
0010
,
0110
0000
0100
0010
0100
0000
0001
0000
,
0001
0001
0001
0001
,
0001
0001
0001
1000
,
1000
1000
1000
1000
,
1000
1000
1000
0100
,
0100
0100
0100
0100
,
0100
0100
0100
0010
,
0010
0010
0010
0010
,
0001
0100
0200
0000
,
0000
0000
0000
0000
,
0000
0000
0002
0000
,
0000
0000
0000
0000
,
0000
0303
0200
0000
,
0310
0000
0020
0000
,
1030
0000
2000
0000
,
3100
0000
0020
0000
,
0031
0000
0001
0100
,
0010
0000
0010
1000
,
0100
0000
0100
1000
,
0010
0000
0010
0100
,
0001
0000
0001
0000
,
1000
0000
0010
0000
,
1000
0000
0100
0100
,
0010
0001
0100
0001
,
0001
0100
0010
0010
,
0010
0100
0010
0010
,
0010
0100
0010
0010
,
0010
0010
0010
1000
,
1000
0010
0010
0010
,
0010
0100
0100
0100
,
0100
0001
0001
0001
,
0010
0200
0000
1300
,
0000
0000
1000
0001
1000
0000
1000
0001
,
1000
0000
1000
0001
1000
0000
1000
0001
,
1000
0000
1000
0001
1000
0000
1000
0001
,
1000
2002
0000
3003
,
0100
0100
0010
0010
,
0010
1000
0100
1000
,
0010
0100
0001
0010
,
0001
1000
0001
0000
0100
0001
0100
0000
,
0200
0010
0310
0000
,
0020
1000
1030
0000
,
2000
0100
3100
0000
,
0020
0001
0031
0000
,
0002
0100
0103
0000
,
0200
0010
0310
0000
,
0010
0000
0010
0000
,
0100
0010
1010
0101
,
0000
0010
0010
0001
,
0000
0001
0000
1000
,
0000
0010
0100
0001
,
0001
0000
1000
0001
1000
0000
0010
0000
,
0000
0010
0010
0100
,
0000
0100
0000
0001
,
0000
0000
0000
0000
0010
0000
0000
0000
0000
0000
0000
0000
0100
0000
0000
0100
,
0000
0100
0110
0000
0000
0000
0000
0000
;

//---------------dance-single - ----------------
#NOTEDATA:;
#CHARTNAME:;
#STEPSTYPE:dance-single;
#DESCRIPTION:;
#CHARTSTYLE:;
#DIFFICULTY:Easy;
#METER:4;
#RADARVALUES:0.239866,0.310761,0.023213,0.015475,0.000000,217.000000,214.000000,3.000000,2.000000,0.000000,0.000000,0.000000,0.000000,0.000000,0.239866,0.310761,0.023213,0.015475,0.000000,217.000000,214.000000,3.000000,2.000000,0.000000,0.000000,0.000000,0.000000,0.000000;
#CREDIT:;
#DISPLAYBPM:173.000000;
#NOTES:
0000
0000
0000
0000
,
0000
0000
0000
0000
,
0000
0000
0000
0000
,
0000
0000
0000
0000
,
0000
0000
0000
0000
,
1000
0000
1000
0000
,
0001
0000
0001
0000
,
1000
0000
0001
0000
,
1000
0000
0010
0000
,
0100
0000
0100
0000
,
0001
0000
0001
0000
,
0100
0000
0010
0000
,
1000
0000
0100
0000
,
1000
0000
0010
0000
,
0100
0000
0001
0000
,
0010
0000
0001
0000
,
0100
0000
0010
1000
,
0010
0000
0010
0000
,
0100
0000
0001
0000
,
0010
0000
0001
0000
,
0100
0000
0001
0001
,
0001
0000
0010
0000
,
0100
0000
1000
0000
,
0010
1000
0010
0000
,
0100
0100
0100
0000
,
0001
0000
0001
0000
,
1000
0100
0110
0010
,
0010
0010
0000
0001
,
0001
0001
0000
0100
,
0010
1000
0000
0100
,
1000
0100
1000
0100
,
0100
0100
0000
0010
,
0001
0100
0000
0001
,
0001
0001
0000
1000
,
1000
0000
0001
0001
0001
0000
1000
0000
,
1000
1000
0000
0001
,
0001
0001
0000
1000
,
1000
1000
0000
0010
,
0010
0010
0000
0100
,
0100
0100
0000
0001
,
0001
0001
0000
0010
,
0010
0010
0000
0010
,
0001
0100
0200
0000
,
0000
0000
0000
0000
,
0000
0000
0000
0000
,
0000
0000
0000
0000
,
0000
0000
0001
0000
,
0000
0000
1000
0000
,
0000
0000
0010
0000
,
0000
0000
0001
0000
,
0000
0300
0010
1000
,
0100
0000
1000
0010
,
0100
0000
0100
0001
,
0010
0000
0010
0001
,
0100
0000
0010
0000
,
0010
0000
0100
0000
,
0100
0000
0001
0000
,
1000
0000
0010
0100
,
1001
0001
0001
0001
,
0000
1000
1000
1000
,
0000
0001
0001
0001
,
0000
0100
0100
0010
,
0010
1000
1000
1000
,
0000
0001
0001
0001
,
0000
0200
0000
0301
,
0000
0001
0010
0100
,
0000
1000
0000
1000
,
0000
0001
0000
0001
,
0000
0100
0000
0010
,
0000
1000
0100
0010
,
0010
0001
0100
0000
,
0100
0001
0010
0000
,
0010
0100
1000
0000
,
0001
0100
0010
0010
,
0100
0000
0100
0000
,
0001
0000
0100
0000
,
0010
0000
0010
0000
,
1000
0000
0100
0010
,
0001
0000
0001
0000
,
0100
0000
0010
1000
,
0100
0000
1000
0000
,
0010
0100
0010
0100
0001
0000
0100
0000
,
0000
0100
0100
0010
,
0000
0010
0000
1000
,
0000
0100
0100
1000
,
0000
1000
0000
0001
,
0000
0100
0100
0001
,
0000
0001
0000
0010
,
0000
0001
0100
0010
,
0010
0110
0000
0000
;

//---------------dance-single - ----------------
#NOTEDATA:;
#CHARTNAME:;
#STEPSTYPE:dance-single;
#DESCRIPTION:;
#CHARTSTYLE:;
#DIFFICULTY:Beginner;
#METER:3;
#RADARVALUES:0.207810,0.276232,0.085114,0.030950,0.000000,188.000000,177.000000,11.000000,4.000000,0.000000,0.000000,0.000000,0.000000,0.000000,0.207810,0.276232,0.085114,0.030950,0.000000,188.000000,177.000000,11.000000,4.000000,0.000000,0.000000,0.000000,0.000000,0.000000;
#CREDIT:;
#DISPLAYBPM:173.000000;
#NOTES:
0000
0000
0000
0000
,
0000
0000
0000
0000
,
0000
0000
0000
0000
,
0000
0000
0000
0000
,
0000
0000
0000
0000
,
1000
0000
0000
0000
,
0001
0000
0000
0000
,
1000
0000
0000
0000
,
0100
0100
0100
0000
,
1000
0000
1000
0000
,
0001
0000
0000
0000
,
0001
0000
0001
0000
,
0100
0000
0000
0000
,
0010
0000
0010
0000
,
0100
0000
0000
0000
,
0001
0000
0010
0000
,
0100
0000
1000
0000
,
0001
0001
0001
0000
,
1000
1000
1000
0000
,
0001
0001
0001
0000
,
1000
0000
0010
0000
,
0110
0000
0100
0100
,
0100
0000
0010
0010
,
0010
0000
0010
0000
,
1000
0000
0100
0000
,
1000
1000
1000
1000
,
0001
0001
0001
0100
,
0000
0100
0000
0010
,
0000
0010
0000
0100
,
0000
0100
0000
0001
,
0000
1000
1000
1000
,
0000
0010
0000
0100
,
0000
0001
0000
0010
,
0000
0001
0000
0001
,
0001
0001
0000
0100
,
0000
0001
0000
0010
,
0000
0001
0000
0001
,
0000
1000
0000
0010
,
0000
1000
0000
1000
,
0000
0100
0000
0010
,
0000
0001
0000
0001
,
0000
0100
0000
0010
,
1000
0100
2002
0000
,
0000
0000
0000
0000
,
0000
0000
0000
0000
,
0000
0000
0000
0000
,
0000
0000
0000
0000
,
0000
0000
0000
0000
,
0000
0000
0000
0000
,
0000
0000
0000
0000
,
0000
3003
1000
0010
,
0100
0000
0100
0001
,
0010
0000
0001
0001
,
0001
0000
0100
0100
,
0100
0000
0010
0010
,
0010
0000
0010
1000
,
1000
0000
0001
0100
,
0001
0000
0010
0010
,
0010
0001
0001
0001
,
0000
1000
1000
1000
,
0000
0001
0001
0001
,
0000
0100
0100
0100
,
0000
0010
0010
0010
,
0000
0010
0010
0010
,
0000
1000
0000
0001
,
0000
0100
0000
0010
,
0000
0100
0000
0100
,
0000
0100
0000
0100
,
0000
0100
0000
0100
,
0000
0220
0000
0330
,
0010
0000
1000
0000
,
0001
0000
0001
0000
,
1000
0000
0010
0000
,
0100
0000
0001
0000
,
1000
0000
1001
0000
,
0001
0000
0101
0000
,
0100
0000
1100
0000
,
0010
0000
0101
0000
,
0010
0000
0011
0000
,
0100
0000
1100
0000
,
0010
0000
0110
0000
,
0100
0100
0100
0010
,
0000
0010
0000
1000
,
0000
1000
0000
0001
,
0000
0001
0000
0100
,
0000
0001
0000
0010
,
0000
0010
0000
0001
,
0000
0100
0000
0010
,
0000
1000
0000
0100
,
0000
0110
0000
0000
;
