#TITLE:Looking Up;
#SUBTITLE:;
#ARTIST:Paramore;
#TITLETRANSLIT:;
#SUBTITLETRANSLIT:;
#ARTISTTRANSLIT:;
#CREDIT:;
#BANNER:;
#BACKGROUND:;
#LYRICSPATH:;
#CDTITLE:cdtitle.png;
#MUSIC:Looking up.mp3;
#OFFSET:-0.220;
#SAMPLESTART:41.792;
#SAMPLELENGTH:14.600;
#SELECTABLE:YES;
#BPMS:0.000=196.000,231.000=98.000,239.000=196.000,240.000=98.000;
#STOPS:134.500=0.300
,239.000=2.140
;
#BGCHANGES:;

//---------------dance-single - ----------------
#NOTES:
     dance-single:
     :
     Hard:
     9:
     0.612,0.980,0.509,0.250,0.149: // measure 1
0000
0000
0000
0000
,  // measure 2
0000
0000
0000
0000
,  // measure 3
0000
0000
0000
0000
,  // measure 4
0000
0000
0000
0000
,  // measure 5
0000
0000
0000
0000
,  // measure 6
0000
0000
0000
0000
,  // measure 7
0000
0000
0000
0000
,  // measure 8
0000
0000
0000
0000
,  // measure 9
0001
0000
0100
0000
0010
0000
2000
0000
0000
3000
1000
0000
0200
0000
0000
0000
,  // measure 10
0000
0300
0100
0000
2000
0000
0000
0000
0000
3000
1000
0000
0002
0000
0000
0003
,  // measure 11
0001
0000
0010
0000
0100
0000
0020
0000
0000
0030
0010
0000
2000
0000
0000
0000
,  // measure 12
0000
3000
1000
0000
0020
0000
0000
0000
0000
0030
0100
0010
0100
0000
0000
0000
,  // measure 13
0010
0000
0001
0000
0100
0000
0020
0000
0000
0030
0010
0000
0200
0000
0000
0000
,  // measure 14
0000
0300
0100
0000
0002
0000
0000
0000
0000
0003
1000
0100
1000
0000
0000
0000
,  // measure 15
2100
0000
3010
0120
0000
1030
1002
0000
,  // measure 16
0013
0012
0000
0003
0010
0100
0010
0000
,  // measure 17
0001
0100
0001
0100
0000
0000
0110
0000
,  // measure 18
1000
0100
1000
0100
0000
0000
0011
0000
,  // measure 19
1000
0010
0100
0001
0000
0000
1010
0000
,  // measure 20
0001
0010
0100
1000
0000
0000
0101
0000
,  // measure 21
1000
0100
1000
0100
0000
0000
0110
0000
,  // measure 22
0001
0100
0001
0100
0000
0000
1010
0000
,  // measure 23
0001
0010
0100
1000
0000
0000
0011
0000
,  // measure 24
1000
0010
0100
0001
0000
1000
0001
0100
,  // measure 25
0010
1000
0100
1000
0000
0000
1001
0000
,  // measure 26
0001
0010
0001
0100
0000
0000
0110
0000
,  // measure 27
1000
0100
1000
0010
0000
0000
0101
0000
,  // measure 28
0001
0010
0100
0010
0000
0000
1001
0000
,  // measure 29
1000
0010
1000
0100
0000
0000
0110
0000
,  // measure 30
0001
0100
0001
0010
0000
0000
1100
0000
,  // measure 31
1000
0010
0100
0010
0000
0000
1010
0000
,  // measure 32
1000
0100
0010
0100
0000
0000
0011
0000
,  // measure 33
0202
0000
0303
0202
0003
0301
1000
0100
,  // measure 34
2200
0000
3300
2200
0000
3300
0001
0100
,  // measure 35
0001
0000
0010
0001
0010
0000
1000
0100
,  // measure 36
1000
0000
0010
1000
0010
0000
0100
0001
,  // measure 37
1000
0000
0010
1000
0001
0000
0100
0010
,  // measure 38
1000
0000
0100
0010
0001
0100
0001
1000
,  // measure 39
0001
0000
0010
0100
0010
0000
0001
0100
,  // measure 40
0001
0000
1000
0010
1000
0000
0001
0010
,  // measure 41
0100
0000
1000
0010
0100
0000
0010
1000
,  // measure 42
0100
0001
0100
1000
0010
0000
1000
1000
,  // measure 43
1000
1000
0000
0001
0100
0001
0010
0010
,  // measure 44
0010
0010
0000
0100
1000
0010
1000
1000
,  // measure 45
1000
1000
0000
0001
0010
0100
0010
0010
,  // measure 46
0010
0010
0000
0001
1000
0010
0100
0100
,  // measure 47
0100
0100
0000
0001
0100
1000
0100
0100
,  // measure 48
0100
0100
0000
0010
1000
0100
1000
1000
,  // measure 49
1000
1000
0000
0001
0010
1000
0010
0001
,  // measure 50
0100
0010
0100
0001
1001
0000
0001
1000
,  // measure 51
1000
0001
0000
1000
0100
1000
0010
0100
,  // measure 52
0100
0010
0000
0100
0001
0010
0001
1000
,  // measure 53
1000
0001
0000
1000
0010
0100
0010
1000
,  // measure 54
1000
0010
0000
1000
0001
0010
0100
0001
,  // measure 55
0001
0100
0000
1000
0100
0001
0100
1000
,  // measure 56
1000
0100
0000
0010
0001
0100
0001
0010
,  // measure 57
0010
0001
0000
1000
0010
0001
0010
1000
,  // measure 58
0100
0010
0100
1000
1001
0000
2002
0000
,  // measure 59
0000
0000
0000
0000
,  // measure 60
0000
0000
0000
3003
,  // measure 61
0101
0000
0101
0000
0100
0010
0000
0010
1010
0000
1010
0000
1000
0100
0000
0100
,  // measure 62
0110
0000
0110
0000
0010
0001
0000
0001
1001
0000
1001
0000
1000
0010
0000
0010
,  // measure 63
0110
0000
0110
0000
0100
0001
0000
0001
0101
0000
1001
0000
1100
0000
0000
0000
,  // measure 64
1001
0000
1001
0000
0001
0100
0000
0001
0011
0000
0011
0000
0010
0100
0000
1000
,  // measure 65
1001
0000
1001
0000
1000
0010
0000
0100
0110
0000
0010
1000
0001
0100
0000
0001
,  // measure 66
0011
0000
0011
0000
0001
1000
0000
0010
1010
0000
1010
0000
1000
0001
0000
0100
,  // measure 67
0101
0000
0101
0000
0001
0010
0000
0010
0001
1000
0010
0100
0001
0010
0100
1000
,  // measure 68
2002
0000
0000
0000
,  // measure 69
3003
0000
0000
0000
;
