#TITLE:Kyouran Hey Kids!!;
#SUBTITLE:;
#ARTIST:The Oral Cigarettes;
#CREDIT:Daichi;
#MUSIC:[Rock Out] - Kyouran Hey Kids!!.mp3;
#SELECTABLE:YES;
#BACKGROUND:[Rock Out] - Kyouran Hey Kids!!-bg.png;
#BANNER:[Rock Out] - Kyouran Hey Kids!!.png;
#CDTITLE:;
#DISPLAYBPM:142.000:142.000;
#OFFSET:-0.743039;
#SAMPLESTART:47.011;
#SAMPLELENGTH:26.408;
#BPMS:0=142;
#STOPS:12=1.2676,169=0.422517;

//---------------dance-single - ----------------
#NOTES:
     dance-single:
     :
     Medium:
     7:
     0.000,0.000,0.000,0.000,0.000:
0000
0000
0000
0000
,
0000
0000
0000
0000
,
0000
0000
0000
0000
,
0002
0000
0103
0001
0010
0100
1000
0001
,
1000
0000
0010
1000
0100
0010
0001
1000
,
0001
0000
1000
0100
0010
0100
1000
0001
,
0010
0000
0100
0010
0001
1000
0010
0100
,
0001
0000
1000
0010
1000
0010
0100
0001
,
0100
0000
0001
0010
0001
0010
0100
1000
,
0100
0000
1000
0100
1000
0010
0100
0001
,
0010
0000
0001
1000
0001
0100
0010
1000
,
0100
0000
1000
0000
0010
0000
0000
0110
0000
0000
0100
0000
0000
0000
1000
0000
,
0100
0000
0001
0000
0100
0000
0000
1100
0000
0000
1000
0000
0000
0000
0001
0000
,
0010
0000
0001
0000
0100
0000
0000
0110
0000
0000
0001
0000
0000
0000
0001
0000
,
0010
0000
1000
0000
0010
0000
0000
0110
0000
0000
0100
0000
0000
0000
1000
0000
,
0010
0000
0001
0000
0100
0000
0000
1000
0000
0000
0010
0000
0000
0000
0010
0000
,
1000
0000
0100
0000
0001
0000
0000
0010
0000
0000
1000
0000
0000
0000
0001
0000
,
0010
0000
0100
0000
1000
0000
0000
1100
0000
0000
0100
0000
0000
0110
0000
0000
,
0001
0000
0000
0011
0000
0000
0001
0000
0010
0000
1000
0000
0010
0000
0001
0000
,
0100
1000
0200
0000
0010
0000
0010
0000
,
0310
2000
0100
0100
,
3100
0020
0001
0001
,
0031
0000
1000
0100
1000
0001
0010
0001
,
1000
0000
0010
0000
0100
0001
0000
0000
0100
0000
0010
1000
0000
0000
0010
0000
,
1000
0000
0100
0000
0010
0100
0000
0000
0010
0000
0001
1000
0000
0000
0001
0000
,
1000
0000
0010
0000
0000
1100
0000
0000
0110
0000
0000
0011
0000
0000
1001
0000
,
0000
0110
0000
0000
1000
0000
0200
0000
2000
0000
0000
0000
3300
0000
0000
0000
,
0000
0000
1000
0100
0001
0100
1000
0100
,
0001
0100
1000
0010
0001
0010
1000
0010
,
0001
0010
1000
0001
1000
0010
1000
0001
,
0100
0001
1000
0200
0000
0010
0310
0000
,
0001
1000
0001
0010
1000
0010
0001
0010
,
1000
0010
0001
0100
1000
0100
0001
0100
,
1000
0100
0001
1000
0001
0100
0001
1000
,
0010
2000
0002
3003
0000
1000
0100
0000
,
0001
0010
0000
1000
0000
0001
0100
0010
,
1100
0000
1000
0100
0010
0100
1100
0000
,
0101
0000
0000
0001
0010
0100
0110
0000
,
0010
0100
1000
1001
0000
0001
0100
0000
,
1000
0010
0000
0001
0000
1000
0010
1000
,
0001
0100
0010
0001
0010
1000
0100
0001
,
0100
0000
1000
0000
0001
0000
0000
0011
0000
0000
0010
0000
0000
0110
0000
0000
,
1000
0100
1000
0100
1000
0000
0010
0000
0100
0000
0000
0000
0001
0000
1000
0000
,
0100
0100
0010
0001
0010
0010
0100
1000
,
0010
0100
0001
0001
0010
0100
1000
1000
,
0100
0010
1000
1000
0010
0001
0100
0100
,
0010
0000
1000
0000
0001
0000
0010
0000
0100
0000
1000
0000
0001
0010
0001
0000
,
0010
0100
1000
0001
0100
0010
1000
0001
,
0010
0100
1000
0001
0100
1000
0100
0001
,
0010
1000
0010
0001
1000
0100
0010
0001
,
0000
1000
0000
0010
0000
0100
0001
0000
0010
0000
0001
0000
0110
0000
1000
0000
,
2002
0000
3003
0000
,
0000
0000
0000
0000
;

//---------------dance-single - ----------------
#NOTES:
     dance-single:
     :
     Hard:
     9:
     0.000,0.000,0.000,0.000,0.000:
0000
0000
0000
0000
,
0000
0000
0000
0000
,
0000
0000
0000
0000
,
1002
0000
0000
0000
1003
0100
0000
1000
0001
0000
0010
0001
0000
0100
0010
1000
,
0100
0010
0001
0000
0001
0010
0000
0001
1000
0000
0100
1000
0000
0010
0100
0001
,
0010
0100
1000
0000
0001
0010
0000
0001
1000
0000
0001
0100
0000
0001
1000
0001
,
1000
0001
1000
0000
0010
0100
0010
1000
0000
0100
0000
0010
0000
0001
0010
0001
,
0010
0001
0010
0000
0001
0010
0000
0001
1000
0000
0100
1000
0000
0010
0100
0001
,
0100
0010
1000
0000
1000
0100
0000
1000
0001
0000
0010
0001
0000
0100
0010
1000
,
0010
0100
0001
0000
1000
0100
0000
1000
0001
0000
1000
0010
0000
1000
0001
0010
,
0100
1000
0001
0000
0100
0010
0100
0001
0000
0010
0000
0100
0000
1000
0100
1000
,
0100
0000
0010
0000
0011
0000
0000
0110
0000
0000
1100
0000
0000
0000
1000
0000
,
0100
0000
0001
0000
0101
0000
0000
0110
0000
0000
1100
0000
0000
0000
0001
0000
,
0010
0000
0100
0000
1100
0000
0000
0110
0000
0000
0011
0000
0000
0000
0001
0000
,
0010
0000
1000
0000
1010
0000
0000
0110
0000
0000
0011
0000
0000
0000
1000
0000
,
0010
0000
0001
0000
0100
0000
0000
1000
0000
0000
0110
0000
0000
0000
0010
0000
,
1000
0000
0100
0000
0001
0000
0000
0010
0000
0000
1001
0000
0000
0000
1000
0001
,
0010
0000
0100
0000
1000
0000
0000
1100
0000
0000
0100
0000
0000
0110
0000
0000
,
0001
0000
0000
0011
0000
0000
0001
0000
0010
0001
0100
0010
1000
0100
0010
0001
,
0200
0000
0000
0000
0301
0010
0001
0000
1000
0100
1000
0000
0010
0100
0010
0000
,
0100
0010
0100
0000
0001
1000
0001
0000
1000
0001
1000
0000
0001
0100
0001
0000
,
1000
0010
1000
0000
0001
0010
0100
0000
0100
0010
0001
0000
1000
0100
0010
0000
,
0010
0100
1000
0000
0001
0010
0100
1000
0000
0010
0000
0100
0000
0001
0100
0010
,
1000
0000
0010
0000
0100
0001
0000
0001
0100
0000
0010
1000
0000
1000
0010
0000
,
1000
0000
0100
0000
0010
0100
0000
0100
0010
0000
0001
1000
0000
1000
0001
0000
,
1000
0000
0010
0000
0000
1100
0000
0000
0110
0000
0000
0011
0000
0000
1001
0000
,
0001
1000
1100
0101
1100
0002
0023
0000
,
0230
0000
2000
0000
3300
0000
1100
0000
0100
1000
0100
0000
0010
0000
0011
0000
,
0001
0010
0001
0000
0100
0000
0101
0000
0100
0010
0100
0000
0010
0000
1010
0000
,
1000
0001
1000
0000
0001
0000
0010
0000
0010
0001
1000
0000
0001
0000
0100
0000
,
0100
0010
1000
0000
0110
0000
0110
0000
0000
0000
0001
0010
0001
0000
0000
0000
,
1000
0100
1000
0100
0010
0000
0110
0000
0001
0010
0001
0000
1000
0000
0100
0000
,
1000
0100
0010
0000
0020
0000
0130
0000
1000
0001
0100
0000
0200
0000
0301
0000
,
1000
0010
0200
0000
0010
0000
0310
0000
0010
1000
0002
0000
1000
0000
1003
0000
,
1000
0010
0200
0000
0020
0000
0000
0000
0330
0000
0001
0000
0011
0000
0000
0000
,
0100
1100
0000
1001
0000
1000
0100
0010
,
0001
0100
0101
0001
0100
0010
1100
0000
,
0110
0000
0100
0000
1000
0000
0000
0100
0000
0000
0001
0000
0010
0000
0000
1000
,
0000
0000
0100
0000
0001
0000
0000
0010
0000
0000
1000
0000
1010
0000
0000
0110
,
0000
0101
1001
0110
1001
1000
0100
0010
,
0100
1000
0001
0010
0100
0010
0001
1000
,
0001
0010
0100
1000
0001
0000
0000
0011
0000
0000
0010
0000
0000
0110
0000
0000
,
1000
0100
1000
0100
1000
0000
2000
0000
3200
0000
0000
0000
0320
0000
0031
0000
,
0011
0000
0001
0000
0010
0100
0010
0000
0100
0000
1100
0000
1000
0010
1000
0000
,
0010
0000
1010
0000
1000
0100
1000
0000
0001
0000
1001
0000
1000
0001
0100
0000
,
0010
0000
0100
0000
0010
1000
0001
0000
1000
0000
0010
0000
0001
0010
1000
0000
,
0110
0000
0110
0000
0000
0000
1000
0010
1000
0000
0000
0000
0001
0100
0001
0010
,
0100
0110
0000
0100
0101
0001
0110
0100
,
0020
0000
0130
0000
0002
0000
1003
0000
0020
0000
1030
0000
0100
0010
0001
0010
,
0100
1000
0010
0001
1000
0100
0001
0110
,
0000
1000
0000
0010
0000
0100
0001
0000
0010
0000
0011
0000
0110
0000
1100
0000
,
2002
0000
3003
0000
,
0000
0000
0000
0000
;
