#TITLE:いいね!;
#SUBTITLE:;
#ARTIST:BABYMETAL;
#TITLETRANSLIT:Iine!;
#SUBTITLETRANSLIT:;
#ARTISTTRANSLIT:;
#GENRE:;
#CREDIT:mf32892;
#BANNER:;
#BACKGROUND:;
#LYRICSPATH:;
#CDTITLE:;
#MUSIC:line!.ogg;
#OFFSET:-0.338553;
#SAMPLESTART:69.600006;
#SAMPLELENGTH:25.000000;
#SELECTABLE:YES;
#BPMS:0.000000=70.000000
,32.000000=160.000000
;
#STOPS:
;
#BGCHANGES:;
#KEYSOUNDS:;
#ATTACKS:;

//---------------dance-single - ----------------
#NOTES:
     dance-single:
     :
     Hard:
     9:
     0.548183,0.759766,0.407567,0.446017,0.157644,499.000000,446.000000,53.000000,58.000000,0.000000,0.000000,0.548183,0.759766,0.407567,0.446017,0.157644,499.000000,446.000000,53.000000,58.000000,0.000000,0.000000:
// measure 0
0000
0000
0000
0000
,  // measure 1
0000
0000
0000
0000
,  // measure 2
0000
0000
0000
0000
,  // measure 3
0000
0000
0000
0000
,  // measure 4
1000
0100
0010
0100
2000
0000
0010
0000
3001
0100
0010
0100
0002
0000
0013
0000
,  // measure 5
0100
0010
0001
0010
0200
0000
0010
0000
1300
0010
0100
0010
2000
0000
0100
0000
,  // measure 6
3001
0010
0100
1000
0002
0000
0203
0000
0310
1000
0100
0010
0002
0000
1003
0000
,  // measure 7
1000
0010
0100
0001
2000
0000
3200
0000
0310
0001
0100
0010
2000
0000
3001
0000
,  // measure 8
2002
0000
0000
0000
,  // measure 9
0000
0000
0000
0000
,  // measure 10
0000
0000
0000
0000
,  // measure 11
0000
0000
0000
3003
,  // measure 12
1000
0010
1000
0100
1000
0001
0010
0100
,  // measure 13
0010
0001
0100
0001
1000
0010
0100
0001
,  // measure 14
0010
0100
0010
1000
0010
0001
0010
0100
,  // measure 15
1000
0010
0100
0010
0001
0010
1000
0000
,  // measure 16
0001
0010
0100
0010
0002
1000
0000
0103
,  // measure 17
0001
0010
0100
1000
0002
0010
0000
1003
,  // measure 18
0001
0100
1000
0100
0002
0010
0000
1003
,  // measure 19
0010
0001
0010
1000
0001
0010
0100
1000
,  // measure 20
0001
0100
1000
0100
0002
1000
0000
0013
,  // measure 21
0100
1000
0010
0100
0020
0001
0000
0130
,  // measure 22
0001
1000
0100
0001
0200
0010
0000
1300
,  // measure 23
0010
1000
0010
0000
0100
0010
0100
0000
0001
0100
0001
0000
1000
0001
1000
0000
,  // measure 24
0001
0000
0010
0000
0001
0000
0100
0000
0020
0000
0000
1030
0100
0000
1000
0000
,  // measure 25
0001
0000
0010
0000
0001
0000
0100
0000
0020
0000
0000
1030
0100
0000
1000
0000
,  // measure 26
0001
0000
0010
0000
0001
0000
0100
0000
0020
0000
0000
1030
0100
0000
1000
0000
,  // measure 27
0001
1100
0101
0110
,  // measure 28
0001
0000
0010
0000
0001
0000
0100
0000
0020
0000
0000
1030
0100
0000
1000
0000
,  // measure 29
0001
0000
0010
0000
0001
0000
0100
0000
0020
0000
0000
1030
0100
0000
1000
0000
,  // measure 30
0001
0000
0010
0000
0001
0000
0100
0000
0020
0000
0000
1030
0100
0000
1000
0000
,  // measure 31
0001
1000
0001
0000
0100
0010
0100
0000
0010
1000
0010
0000
1000
0001
1000
0000
,  // measure 32
0010
1000
0001
0000
0001
0100
0001
0010
,  // measure 33
0100
0010
0001
0000
0100
0010
1000
0200
,  // measure 34
0010
0000
1000
0000
0310
0001
1000
0010
,  // measure 35
0001
0010
0100
0001
0000
0001
1000
0100
,  // measure 36
0020
0001
0130
0110
,  // measure 37
0012
0000
1003
0001
0100
0000
0010
2000
,  // measure 38
0010
0000
3100
0010
0001
0010
1000
0010
,  // measure 39
0001
0100
1000
0100
0001
0010
0100
0000
,  // measure 40
1002
0000
0000
1003
,  // measure 41
2100
0000
3001
0000
0102
0000
1003
0100
,  // measure 42
0000
0010
0100
1000
0001
0100
0010
0000
,  // measure 43
0102
0000
1003
0000
2100
0000
3001
0100
,  // measure 44
0000
0100
0010
0000
1010
0000
0110
0000
,  // measure 45
0102
0000
1003
0000
0010
1000
0100
0010
,  // measure 46
0000
1100
0000
0102
0000
1003
1000
0001
,  // measure 47
0011
0000
0100
1100
0000
0011
0000
0101
,  // measure 48
0000
0110
0110
0000
1001
0000
1001
0000
,  // measure 49
0012
0000
0103
0010
1000
0100
1000
0002
,  // measure 50
0010
0000
0013
1000
0010
0001
0100
0010
,  // measure 51
1000
0000
1000
0100
0000
0100
0010
0001
,  // measure 52
1000
0101
0001
1100
,  // measure 53
1002
0000
0100
0000
0010
0000
0103
0010
,  // measure 54
2000
0000
0100
0000
0001
0000
3010
0100
,  // measure 55
0002
0010
1000
0103
,  // measure 56
0101
1010
1100
0011
,  // measure 57
1002
0000
0103
0001
0010
0001
0100
0010
,  // measure 58
2010
3001
0012
1003
,  // measure 59
2001
0000
3100
1000
0010
1000
0100
0010
,  // measure 60
0012
1003
2010
3001
,  // measure 61
0102
0000
1003
0001
0100
0001
0010
0100
,  // measure 62
1200
0310
0201
0310
,  // measure 63
1000
0100
1000
0001
0100
0001
0010
0100
,  // measure 64
2000
3020
0230
0301
,  // measure 65
0101
0000
0000
0001
1000
0000
0001
0000
0011
0000
0000
0001
0010
0000
0001
0000
,  // measure 66
1200
0310
0201
0310
,  // measure 67
1010
0000
0000
1000
0001
0000
1000
0000
1100
0000
0000
1000
0001
0000
1000
0000
,  // measure 68
0101
0000
0100
0000
0010
1000
0000
0010
1000
0000
0100
0000
0010
0001
0000
0010
,  // measure 69
0001
0000
0000
0001
1000
0000
0001
0000
0101
0000
0000
0100
0001
0000
1000
0000
,  // measure 70
0021
0130
1020
0130
,  // measure 71
0001
0010
0001
1000
0010
1000
0001
0100
,  // measure 72
0010
1000
0100
0010
0001
0100
0010
1000
,  // measure 73
1010
0000
0000
2002
0000
0000
0000
0000
0000
0000
0000
0000
0000
0000
0000
0000
,  // measure 74
0000
0000
0000
0000
,  // measure 75
0000
0000
0000
0000
,  // measure 76
3003
0000
0000
0000
;

//---------------dance-single - ----------------
#NOTES:
     dance-single:
     :
     Medium:
     6:
     0.439425,0.701323,0.507536,0.561366,0.065365,400.000000,334.000000,66.000000,73.000000,0.000000,0.000000,0.439425,0.701323,0.507536,0.561366,0.065365,400.000000,334.000000,66.000000,73.000000,0.000000,0.000000:
// measure 0
0000
0000
0000
0000
,  // measure 1
0000
0000
0000
0000
,  // measure 2
0000
0000
0000
0000
,  // measure 3
0000
0000
0000
0000
,  // measure 4
1000
0100
1000
0100
2000
0000
3010
0000
0010
0100
0010
0100
0020
0000
0000
0000
,  // measure 5
0130
0001
0100
0001
0200
0000
0001
0000
0301
1000
0001
1000
0002
0000
0000
0000
,  // measure 6
0013
0100
0010
0100
0020
0000
0100
0000
0130
1000
0100
1000
0200
0000
0000
0000
,  // measure 7
1300
0001
1000
0001
2000
0000
0010
0000
3010
0100
0010
0100
0020
0000
0030
0000
,  // measure 8
2002
0000
0000
0000
,  // measure 9
0000
0000
0000
0000
,  // measure 10
0000
0000
0000
0000
,  // measure 11
0000
0000
0000
3003
,  // measure 12
2000
0100
0001
3010
,  // measure 13
0002
0100
1000
0013
,  // measure 14
0200
0010
1000
0301
,  // measure 15
0020
0001
0100
1030
,  // measure 16
1000
0001
1000
0001
0020
0000
0130
0000
,  // measure 17
1000
0001
1000
0001
0020
0000
0130
0000
,  // measure 18
1000
0001
1000
0001
0020
0000
0130
0000
,  // measure 19
1100
0110
0011
1001
,  // measure 20
0001
1000
0001
1000
0200
0000
0310
0000
,  // measure 21
0001
1000
0001
1000
0020
0000
0130
0000
,  // measure 22
0001
1000
0001
1000
0200
0000
0310
0000
,  // measure 23
0011
0110
1100
1001
,  // measure 24
0001
0100
0010
1000
0200
0000
0310
0000
,  // measure 25
0001
0100
0010
1000
0200
0000
0310
0000
,  // measure 26
0001
0100
0010
1000
0200
0000
0310
0000
,  // measure 27
0011
0101
1001
0101
,  // measure 28
1000
0100
0010
0001
0200
0000
0310
0000
,  // measure 29
1000
0100
0010
0001
0200
0000
0310
0000
,  // measure 30
1000
0001
0010
0100
2000
0000
3010
0000
,  // measure 31
1010
1001
1100
1010
,  // measure 32
1000
0000
0001
0000
0100
0001
0100
0000
,  // measure 33
0010
0000
1000
0000
0100
1000
0100
0000
,  // measure 34
0020
0100
0001
0130
,  // measure 35
0001
0100
0010
1000
0000
1000
0001
0000
,  // measure 36
0200
0010
1000
0310
,  // measure 37
0002
0000
0103
0010
2000
0000
3001
0000
,  // measure 38
0020
0000
0130
0010
0001
0100
0010
0000
,  // measure 39
2000
3200
0320
0032
,  // measure 40
2003
0000
0000
3001
,  // measure 41
0012
0000
1003
0000
2010
0000
3001
0100
,  // measure 42
0000
0100
0010
0100
0001
1000
0001
0000
,  // measure 43
0102
0000
1003
0000
2100
0000
3001
0010
,  // measure 44
0000
0010
0100
0000
0110
0000
1100
0000
,  // measure 45
2001
0000
0100
0000
3010
0100
0010
1000
,  // measure 46
0000
1000
0000
2000
0000
0000
3100
0000
,  // measure 47
0101
0000
0000
1000
0000
0100
0000
1000
,  // measure 48
0000
0001
0010
0000
0100
0000
1001
0000
,  // measure 49
0102
0000
0103
0010
2000
0000
3100
0000
,  // measure 50
0010
0000
0001
1000
0001
0100
0010
0000
,  // measure 51
1000
0000
0001
0010
0000
0100
0000
0100
,  // measure 52
0010
0011
1000
1010
,  // measure 53
0210
0000
0001
0000
0010
0000
1300
0100
,  // measure 54
0020
0000
1000
0000
0100
0000
0031
0010
,  // measure 55
0200
0001
0010
1300
,  // measure 56
0110
1010
1100
1001
,  // measure 57
0021
0100
1000
0031
,  // measure 58
0012
1003
2010
3001
,  // measure 59
0201
0010
0320
1030
,  // measure 60
2010
3001
0012
1003
,  // measure 61
2100
0001
3002
0103
,  // measure 62
0201
0310
1200
0310
,  // measure 63
0001
0100
0001
0000
1000
0100
1000
0100
,  // measure 64
0020
0032
0203
0310
,  // measure 65
0101
1001
0011
1001
,  // measure 66
2010
3001
0012
1003
,  // measure 67
1010
1001
1100
1001
,  // measure 68
0102
1003
2100
3001
,  // measure 69
0011
1001
0101
1001
,  // measure 70
2010
3001
0012
1003
,  // measure 71
2100
3001
0102
1003
,  // measure 72
2010
3001
0012
1003
,  // measure 73
2001
0000
0000
0002
0000
0000
0000
0000
0000
0000
0000
0000
0000
0000
0000
0000
,  // measure 74
0000
0000
0000
0000
,  // measure 75
0000
0000
0000
0000
,  // measure 76
3003
0000
0000
0000
;

//---------------dance-single - ----------------
#NOTES:
     dance-single:
     :
     Challenge:
     10:
     0.662434,1.256536,0.223008,0.261458,0.676715,603.000000,574.000000,29.000000,34.000000,0.000000,0.000000,0.662434,1.256536,0.223008,0.261458,0.676715,603.000000,574.000000,29.000000,34.000000,0.000000,0.000000:
// measure 0
0000
0000
0000
0000
,  // measure 1
0000
0000
0000
0000
,  // measure 2
0000
0000
0000
0000
,  // measure 3
0000
0000
0000
0000
,  // measure 4
1000
0100
1000
0100
1000
0000
0000
0000
0100
0000
0010
0000
0010
0001
0000
0000
0000
0000
1000
0000
0001
0100
0000
0000
0010
1000
0010
0000
0100
0010
0100
0000
,  // measure 5
0001
0000
0000
0000
0000
0000
0100
0000
0000
0000
0000
0000
0001
0000
0000
0000
0000
0000
0100
0000
0000
0000
0000
0000
0001
0000
0000
0000
0000
0000
0000
0000
0000
0000
0000
0000
0000
0000
0000
0000
0000
0000
0000
0000
0000
0000
0000
0000
1000
0000
0000
0000
0000
0000
0000
0000
0000
0000
0000
0000
0100
0000
0000
0000
0000
0000
0000
0000
0000
0000
0000
0000
0100
0000
0000
0000
0000
0000
0010
0000
0000
0000
0000
0000
0000
0000
0000
0000
0000
0000
0000
0000
0000
0000
0000
0000
0000
0000
0000
0000
0000
0000
0000
0000
0000
0000
0000
0000
0001
0000
0000
0000
0000
0000
0000
0000
0000
0000
0000
0000
0001
0000
0000
0000
0000
0000
0100
0000
0000
0000
0000
0000
0000
0000
0000
0000
0000
0000
0000
0000
0000
0000
0000
0000
0010
0000
0000
0000
1000
0000
0000
0000
0010
0000
0000
0000
0100
0000
0000
0000
0010
0000
0000
0000
1000
0000
0000
0000
0002
0000
0000
0000
0000
0000
0000
0000
0000
0000
0000
0000
0000
0000
0000
0000
0000
0000
0000
0000
0000
0000
0000
0000
,  // measure 6
0013
0100
0010
0100
0010
0000
0000
0000
0001
0000
0100
0000
0100
0001
0000
0000
0000
0000
1000
0000
1000
0010
0000
0000
0100
0010
0100
0000
0001
0100
0001
0000
,  // measure 7
1000
0001
1000
0001
0100
0000
0000
0000
0001
0000
0010
0000
0010
0100
0000
0000
1000
0010
1000
0010
1000
0100
1000
0100
0010
0001
0100
0010
2000
0000
3000
0000
,  // measure 8
2002
0000
0000
0000
,  // measure 9
0000
0000
0000
0000
,  // measure 10
0000
0000
0000
0000
,  // measure 11
0000
0000
0000
3003
,  // measure 12
1000
0000
0100
0010
0000
0001
1000
0000
0001
0100
0000
0010
1000
0000
0001
1000
,  // measure 13
0000
0000
0001
0010
0000
0100
0010
0000
0001
1000
0000
0001
0100
0000
0010
1000
,  // measure 14
0000
0000
0100
0010
0000
0100
1000
0000
0001
0100
0000
0010
1000
0000
0001
0010
,  // measure 15
0000
0000
0100
0010
0000
0001
1000
0000
0001
0100
0000
0010
1000
0000
0000
0000
,  // measure 16
0001
0100
0000
1010
0000
0110
0000
1000
,  // measure 17
0001
0010
0000
1100
0000
0101
0000
0001
,  // measure 18
0010
0100
0000
1100
0000
0110
0000
1000
,  // measure 19
0001
0100
1000
0100
0001
0010
1000
0010
,  // measure 20
0001
1000
0000
0101
0000
1010
0000
0001
,  // measure 21
1000
0100
0000
0110
0000
1001
0000
0001
,  // measure 22
0100
1000
0000
0110
0000
0101
0000
0001
,  // measure 23
1000
0010
1000
0000
0001
0100
0001
0000
1000
0100
1000
0000
0001
0010
0001
0000
,  // measure 24
1000
0000
0001
0000
0100
0000
0001
0000
0020
0000
0000
0130
0000
0010
0001
1000
,  // measure 25
0010
0000
0100
0000
0001
0000
0010
0000
0200
0000
0000
0310
0000
0001
0100
0001
,  // measure 26
1000
0000
0010
0000
0001
0000
0010
0000
0200
0000
0000
0310
0000
1000
0100
0010
,  // measure 27
0001
0010
0001
0000
1000
0100
1000
0000
0001
0100
0001
0000
1000
0010
1000
0000
,  // measure 28
0001
0000
0010
0000
1000
0000
0010
0000
0200
0000
0000
1300
0000
0010
0100
0010
,  // measure 29
1000
0000
0100
0000
0010
0000
0001
0000
0200
0000
0000
0310
0000
1000
0010
0100
,  // measure 30
0001
0000
1000
0000
0100
0000
0010
0000
0200
0000
0000
1300
0000
0001
0100
0010
,  // measure 31
1000
0010
1000
0000
0001
0100
0001
0000
1000
0100
1000
0000
0001
0010
0001
0000
,  // measure 32
2000
0100
0100
0000
3001
0010
0001
0100
,  // measure 33
0020
1000
1000
0000
0130
0001
1000
0200
,  // measure 34
0010
0000
1000
0000
0310
0100
1000
0001
,  // measure 35
0100
0000
0010
0100
0010
0000
1000
0000
0000
0000
1000
0000
0001
0000
0010
0000
,  // measure 36
0200
0001
0310
1100
,  // measure 37
0201
0000
0000
0000
0310
0000
1000
0100
2000
0000
0000
0000
3001
0000
0010
0000
,  // measure 38
0100
1000
0010
1000
0100
0010
0001
0100
,  // measure 39
0010
0000
1000
0010
0100
0001
0100
0001
1000
0001
1000
0001
0010
0000
0000
0000
,  // measure 40
0200
0000
0000
0000
0000
0000
0000
0000
0000
0000
0000
0000
0310
0100
0010
0100
,  // measure 41
0210
0000
1300
0000
0120
0000
0031
0100
,  // measure 42
0001
0000
1000
0000
0010
0000
0001
0000
0010
0100
0010
0000
1000
0000
0000
0000
,  // measure 43
0210
0000
0301
0000
0120
0000
1030
0001
,  // measure 44
0010
0000
0001
0000
0100
0000
0010
0000
1000
0100
1000
0000
0100
0010
0100
0000
,  // measure 45
2000
0000
0000
0000
0010
0000
0000
0000
3001
0100
0001
0000
0010
0000
1100
0000
,  // measure 46
0000
0000
0110
0000
0000
0000
1002
0000
0000
0000
0100
0000
0103
0000
0010
1000
,  // measure 47
0100
0000
0000
0000
0010
0100
1000
0000
0000
0000
0101
0000
0000
0000
0110
0000
,  // measure 48
0000
0000
0001
0100
0001
0000
0000
0000
1001
0000
0010
0000
1001
0000
0000
0000
,  // measure 49
0012
0000
0000
0000
0013
0000
0001
0100
0010
0000
1000
0000
0100
0000
0020
0000
,  // measure 50
0001
0000
0000
0000
0130
0000
0001
0000
0100
0000
1000
0100
1000
0000
0010
0000
,  // measure 51
0200
0000
1000
1000
0000
0310
1000
0001
,  // measure 52
0010
0000
0100
0010
0001
0000
0000
0000
1000
0000
0001
1000
0010
0000
0000
0000
,  // measure 53
0200
0010
0000
1000
0000
0310
1000
0100
,  // measure 54
0020
0001
0000
0100
0000
0031
0100
0001
,  // measure 55
2000
0010
0000
0100
0000
3001
0010
0001
,  // measure 56
1000
0100
1000
0100
1000
0001
1000
0001
1000
0010
1000
0010
0100
0001
0010
0100
,  // measure 57
1000
0000
0001
0000
1000
0100
1000
0000
0001
0000
1000
0000
0001
0100
0001
0000
,  // measure 58
0100
0010
0100
0000
0010
0000
0000
0000
1000
0001
1000
0000
0100
0000
0000
0000
,  // measure 59
1000
0000
0001
0000
0100
0001
0100
0000
0001
0000
1000
0000
0100
1000
0100
0000
,  // measure 60
0010
0001
0010
0000
0100
0000
0000
0000
0010
1000
0010
0000
0100
0000
0000
0000
,  // measure 61
1000
0000
0010
0000
0100
0001
0100
0000
0001
0000
0010
0000
0100
1000
0100
0000
,  // measure 62
1000
0001
1000
0000
0010
0000
0000
0000
0001
1000
0001
0000
0010
0000
0000
0000
,  // measure 63
1000
0000
0100
1000
0100
0000
0010
0100
0010
0000
0001
0010
0001
0000
1000
0000
,  // measure 64
0002
0023
0230
1300
,  // measure 65
1001
0000
0000
0100
0010
0000
0000
1000
0001
0000
0000
0010
0100
0000
0000
1000
,  // measure 66
0010
0000
1000
0100
1000
0000
0100
0010
0100
0000
0010
0001
0010
0000
0001
0000
,  // measure 67
1000
0000
0000
0010
0100
0000
0000
0001
1000
0000
0000
0100
0010
0000
0000
0001
,  // measure 68
1000
0000
0010
0000
0100
0001
0000
0100
0001
0000
0010
0000
0100
1000
0000
0100
,  // measure 69
1000
0000
0000
0010
1000
0000
0000
0100
1000
0000
0000
0001
1000
0000
0000
1000
,  // measure 70
0001
0000
0000
0010
0001
0000
0000
0100
0001
0000
0000
1000
0001
0000
0000
0010
,  // measure 71
0001
0000
0000
1000
0010
0000
0000
0001
1000
0000
0000
0100
0001
0000
0000
1000
,  // measure 72
0001
0010
0001
0010
0100
1000
0100
1000
0001
0010
0100
1000
0001
0100
0010
1000
,  // measure 73
0001
0000
0000
2002
0000
0000
0000
0000
0000
0000
0000
0000
0000
0000
0000
0000
,  // measure 74
0000
0000
0000
0000
,  // measure 75
0000
0000
0000
0000
,  // measure 76
3003
0000
0000
0000
;

//---------------dance-single - ----------------
#NOTES:
     dance-single:
     :
     Easy:
     1:
     0.042844,0.127172,0.000000,0.000000,0.073054,39.000000,39.000000,0.000000,0.000000,0.000000,0.000000,0.042844,0.127172,0.000000,0.000000,0.073054,39.000000,39.000000,0.000000,0.000000,0.000000,0.000000:
0000
0000
0000
0000
,
0000
0000
0000
0000
,
0000
0000
0000
0000
,
0000
0000
0000
0000
,
0000
0000
0000
0000
,
0000
0000
0000
0000
,
0000
0000
0000
0000
,
0000
0000
0000
0000
,
0000
0000
0000
0000
,
0000
0000
0000
0000
,
0000
0000
0000
0000
,
0000
0000
0000
0000
,
1000
0000
0100
0010
0000
0001
1000
0000
0001
0100
0000
0010
1000
0000
0001
1000
,
0000
0000
0001
0010
0000
0100
0010
0000
0001
1000
0000
0001
0100
0000
0010
1000
,
0000
0000
0100
0010
0000
0100
1000
0000
0001
0100
0000
0010
1000
0000
0001
0010
,
0000
0000
0100
0010
0000
0001
1000
0000
0001
0100
0000
0010
1000
0000
0000
0000
;
