#TITLE:I Wish I Was Your Cigarette;
#SUBTITLE:;
#ARTIST:K.I.D;
#TITLETRANSLIT:;
#SUBTITLETRANSLIT:;
#ARTISTTRANSLIT:;
#GENRE:;
#CREDIT:;
#BANNER:;
#BACKGROUND:[Rock Out] - I Wish I Was Your Cigarette-bg.jpg;
#LYRICSPATH:;
#CDTITLE:;
#MUSIC:[Rock Out] - I Wish I Was Your Cigarette.mp3;
#OFFSET:-0.845000;
#SAMPLESTART:27.825401;
#SAMPLELENGTH:27.042255;
#SELECTABLE:YES;
#BPMS:0.000000=142.000000
;
#STOPS:
;
#BGCHANGES:0.000=[Rock Out] - I Wish I Was Your Cigarette.avi=1.000=0=0=0=StretchNoLoop====,
99999=-nosongbg-=1.000=0=0=0 // don't automatically add -songbackground-
;
#KEYSOUNDS:;
#ATTACKS:;

//---------------dance-single - ----------------
#NOTES:
     dance-single:
     :
     Hard:
     8:
     0.448669,0.520021,0.340300,0.439554,0.000000,443.000000,395.000000,48.000000,62.000000,0.000000,0.000000,0.448669,0.520021,0.340300,0.439554,0.000000,443.000000,395.000000,48.000000,62.000000,0.000000,0.000000:
1000
0000
1001
0000
0001
0100
0010
1000
,
0001
0000
1001
0000
0001
0010
0100
1000
,
0001
0000
1001
0000
0001
0010
0100
0010
,
0001
0000
0011
0000
1000
0010
0100
0010
,
1000
0000
1010
0000
0010
0100
0001
1000
,
0100
0000
1100
0000
0100
0010
0001
0100
,
0102
1003
2100
3001
,
1000
0001
2002
3003
,
0001
0100
0001
0100
0010
0010
0000
0000
,
1000
0100
1000
0100
0010
0010
0000
0000
,
0001
0010
0001
1000
0010
0010
0000
0000
,
1000
0100
1000
0001
0100
0100
0000
0000
,
0010
0100
0010
0100
0001
0001
0000
0000
,
0010
0100
0010
0100
1000
1000
0000
0000
,
0001
0100
0001
1000
0100
0100
0000
0000
,
1000
0010
1000
0001
0010
0010
0000
0000
,
0120
0100
0100
0100
,
0230
1000
1000
1300
,
2100
3001
0102
1003
,
2010
0001
0100
3010
,
0210
0010
0010
0010
,
0320
1000
1000
1030
,
2010
3001
0012
1003
,
0001
0100
0010
1000
0002
0000
1003
0000
,
2001
0000
3100
0000
0010
0001
0100
0000
,
0201
0000
0310
0000
1000
0001
0010
0000
,
0021
0100
1000
0031
,
0201
0000
0010
0000
1300
0100
0010
0100
,
0110
0000
1010
0000
0010
1000
0001
0010
,
0011
0000
0110
0000
0100
1000
0001
0010
,
0200
2300
3002
0203
,
0320
2030
3002
0023
,
0031
0000
0010
0000
1000
0010
0001
0000
,
1000
0000
0010
0000
0001
0010
1000
0000
,
0001
0100
0001
0000
1000
0100
1000
0000
,
2001
0001
0001
3001
,
1000
0000
0100
0000
0001
0100
1000
0000
,
0001
0000
0100
0000
1000
0100
0001
0000
,
1000
0010
1000
0000
0001
0010
0001
0000
,
1002
1000
1000
1003
,
0001
0010
1000
0010
0001
1000
1001
0000
,
1000
0010
0001
0010
1000
0001
1001
0000
,
0001
0010
0100
0000
1000
0010
0100
0000
,
0101
1100
0101
1100
,
1000
0100
0010
0100
0001
0100
1100
0000
,
0001
0100
0010
0100
1000
0100
0101
0000
,
0001
0100
0110
0000
1000
0100
0110
0000
,
0002
0000
0023
0000
0130
1000
0001
0100
,
0020
0000
0000
0000
,
2030
0000
0000
0000
,
3002
0000
0000
0000
,
0000
0000
0023
0000
,
0230
1300
2000
3001
,
0002
0103
0200
0310
,
0020
0000
0130
0000
0001
1000
0100
0000
,
1000
0100
1000
0001
0020
0000
0031
0000
,
0011
0000
1001
0000
0001
0100
0010
1000
,
0001
0000
1001
0000
0001
0010
0100
1000
,
0002
0023
2030
3020
,
0031
0100
1000
0100
0020
0000
1030
0000
,
1010
0000
1001
0000
0001
0010
0100
1000
,
0001
0000
1001
0000
1000
0010
0100
0001
,
2000
3020
0032
0023
,
1030
0100
0001
0100
2000
0000
3100
0000
,
1100
0000
1001
0000
0001
0100
0010
1000
,
0001
0000
1001
0000
0001
0010
0100
1000
,
0002
0203
2300
3200
,
0301
0010
1000
0010
0002
0000
0103
0000
,
0101
0000
1001
0000
1000
0010
0100
0001
,
1000
0000
1001
0000
0001
0010
0100
1000
,
0001
0100
0010
0100
1000
0100
0001
0001
,
1000
0100
0010
0100
0001
0100
1000
1000
,
0001
0010
0100
0010
1000
0010
0001
0001
,
1000
0010
0100
0010
0001
0010
1000
1000
,
0002
0000
0000
0000
,
0203
0000
0000
0000
,
0320
0000
0000
0000
,
0000
0000
2030
0000
,
3002
0000
0000
0000
,
0023
0000
0000
0000
,
0230
0000
0000
0000
,
0000
0000
0300
0000
;

//---------------dance-single - ----------------
#NOTES:
     dance-single:
     :
     Medium:
     6:
     0.331185,0.404461,0.198508,0.255225,0.000000,327.000000,299.000000,28.000000,36.000000,0.000000,0.000000,0.331185,0.404461,0.198508,0.255225,0.000000,327.000000,299.000000,28.000000,36.000000,0.000000,0.000000:
0002
0010
0023
0100
,
0230
1000
1000
1000
,
2300
0010
3020
0100
,
0230
0001
0001
0001
,
0302
0100
2003
0100
,
3002
1000
1000
1000
,
2003
0010
3002
0010
,
2003
3001
2002
3003
,
0001
0000
0100
0000
0010
1000
0000
0000
,
1000
0000
0100
0000
0010
0001
0000
0000
,
0001
0000
1000
0000
0001
1000
0000
0000
,
0010
0000
0100
0000
0010
0100
0000
0000
,
0010
0000
1000
0000
0010
1000
0000
0000
,
1000
0000
0001
0000
0010
0001
0000
0000
,
0001
0000
0010
0000
0100
0010
0000
0000
,
0100
0000
1000
0000
0001
1000
0000
0000
,
0010
0100
0010
0100
,
0001
1000
0001
1000
,
0001
0010
1000
0010
,
0001
0010
1000
0010
,
0001
0010
0001
0010
,
0001
1000
0001
1000
,
0001
0000
0100
0000
1000
0100
0001
0000
,
1000
0100
0001
0100
0010
0000
0000
0000
,
0001
0010
0011
1001
,
0001
1000
1001
1010
,
1000
0010
0001
0010
,
1000
0010
0100
0001
2000
0000
0001
0000
,
3100
1000
1100
1001
,
0001
1000
1001
0101
,
0001
0100
0010
1000
,
0001
0100
0010
1000
,
0001
0001
0001
0001
,
0010
0010
0010
0010
,
0100
0100
1000
1000
,
0001
0000
1000
0000
0001
1000
0001
0000
,
1000
1000
1000
1000
,
0010
0010
0010
0010
,
0100
0100
0001
0001
,
1000
0001
1000
0001
,
0010
0000
0001
0000
0010
0001
0010
0000
,
0001
0000
1000
0000
0010
1000
0010
0000
,
0100
0010
0010
0000
0010
0100
0100
0000
,
0001
0000
1000
0000
0001
1000
0001
1000
,
0100
0000
1000
0000
0100
0100
0100
0000
,
0010
0000
0001
0000
0100
0100
0100
0000
,
0010
1000
1010
0000
0001
0010
0012
0000
,
2000
0000
0000
3003
,
0002
0000
0000
0000
,
0023
0000
0000
0000
,
0230
0000
0000
0000
,
0000
0000
2300
0000
,
3020
0000
0000
0000
,
0230
0000
0000
0000
,
0302
0000
2003
0000
,
3200
0320
0002
0033
,
0011
0011
0001
1000
,
1010
1010
0010
0100
,
0001
0001
1000
1000
,
0001
1000
0001
1000
0010
0000
0100
0000
,
0101
0101
0100
0001
,
1001
1001
1000
0100
,
1000
1000
0001
0001
,
1000
0001
1000
0001
1000
0000
0010
0000
,
1010
1010
1000
0001
,
0011
0011
0010
0100
,
1000
1000
0001
0001
,
1000
0001
1000
0001
1000
0000
0100
0000
,
1100
1100
1000
0001
,
0101
0101
1000
0010
,
2010
0001
0100
0010
,
0100
0010
0001
0100
,
0001
0100
0010
0001
,
0010
0001
0100
0010
,
3200
0000
0000
0000
,
0320
0000
0000
0000
,
0032
0000
0000
0000
,
0000
0000
2003
0000
,
3020
0000
0000
0000
,
0230
0000
0000
0000
,
0302
0000
0000
0000
,
0000
0000
0003
0000
;

//---------------dance-single - ----------------
#NOTES:
     dance-single:
     :
     Easy:
     4:
     0.224841,0.311942,0.070896,0.155971,0.000000,222.000000,212.000000,10.000000,22.000000,0.000000,0.000000,0.224841,0.311942,0.070896,0.155971,0.000000,222.000000,212.000000,10.000000,22.000000,0.000000,0.000000:
1000
0100
1000
0100
,
1000
0000
1000
0000
,
0001
0100
0001
0100
,
0001
0000
0001
0000
,
1000
0001
1000
0001
,
1000
0000
1001
0000
,
0001
1000
0001
1000
,
0001
0000
1001
0000
,
1000
1000
1000
0000
,
0010
0010
0010
0000
,
0100
0100
0100
0000
,
0001
0001
0001
0000
,
0010
0010
0010
0000
,
0100
0100
0100
0000
,
1000
1000
1000
0000
,
0001
0001
0001
0000
,
2000
0000
0000
0000
,
0010
0000
0010
0000
,
3020
0000
0000
0000
,
0100
0000
0100
0000
,
0230
0000
0000
0000
,
0001
0000
0001
0000
,
0302
0000
0023
0000
,
0230
2300
0002
3003
,
1000
0010
1000
0000
,
0001
0010
0001
0000
,
1000
1000
0001
0001
,
1000
0001
1000
1000
,
0001
0100
0001
0000
,
1000
0100
1000
0000
,
0001
0100
0010
0010
,
0100
0010
1000
1000
,
0001
0001
0001
0000
,
0010
0010
0010
0000
,
0100
0000
0100
0000
,
1000
0000
1000
0000
,
0001
0001
0001
0000
,
0100
0100
0100
0000
,
0010
0000
0010
0000
,
1000
0000
1000
0000
,
0010
1000
1010
0000
,
0001
0010
0011
0000
,
1000
0000
1001
0000
,
0001
0000
1001
0000
,
1000
0100
2200
3300
,
0001
0100
0202
0303
,
0010
0110
0100
0110
,
0020
0000
2030
0000
,
3002
0000
0000
0000
,
0000
0000
0000
0000
,
0000
0000
0000
0000
,
0000
0000
0000
0000
,
2003
0000
0000
0000
,
3200
0000
0000
0000
,
0320
0000
0032
0000
,
2003
3020
0230
0300
,
0001
0100
0001
0001
,
1000
0001
1000
1000
,
0100
0000
0100
0000
,
0010
0010
0010
0000
,
0001
0010
0001
0001
,
1000
0001
1000
1000
,
0010
0000
0010
0000
,
0100
0100
0100
0010
,
1000
0100
1000
1000
,
0001
1000
0001
0001
,
0100
0000
0100
0000
,
0001
0100
0001
0001
,
0010
0100
0010
0010
,
0001
0100
0010
0010
,
1000
0010
1000
1000
,
0001
0010
0001
0001
,
1000
0100
1000
1000
,
0001
0100
0001
0001
,
1000
0000
0000
0000
,
0100
0000
0000
0000
,
0010
0000
0000
0000
,
0000
0000
0001
0000
,
1000
0000
0000
0000
,
0001
0000
0000
0000
,
1000
0000
0000
0000
;

//---------------dance-single - ----------------
#NOTES:
     dance-single:
     :
     Beginner:
     1:
     0.072921,0.141792,0.000000,0.014179,0.000000,72.000000,72.000000,0.000000,2.000000,0.000000,0.000000,0.072921,0.141792,0.000000,0.014179,0.000000,72.000000,72.000000,0.000000,2.000000,0.000000,0.000000:
// measure 0
0001
0000
0000
0000
,  // measure 1
0000
0000
0000
0000
,  // measure 2
0010
0000
0000
0000
,  // measure 3
0010
0000
0000
0000
,  // measure 4
0100
0000
0000
0000
,  // measure 5
0000
0000
0000
0000
,  // measure 6
1000
0000
0000
0000
,  // measure 7
1000
0000
0000
0000
,  // measure 8
0010
0000
0010
0000
,  // measure 9
0010
0000
0000
0000
,  // measure 10
0100
0000
0100
0000
,  // measure 11
0100
0000
0000
0000
,  // measure 12
0001
0000
0000
0000
,  // measure 13
0001
0000
0000
0000
,  // measure 14
1000
0000
0000
0000
,  // measure 15
1000
0000
0000
0000
,  // measure 16
0100
0000
0000
0000
,  // measure 17
0000
0000
0000
0000
,  // measure 18
0100
0000
0100
0000
,  // measure 19
0100
0000
0000
0000
,  // measure 20
0010
0000
0000
0000
,  // measure 21
0000
0000
0000
0000
,  // measure 22
0010
0000
0010
0000
,  // measure 23
0010
0000
0001
0000
,  // measure 24
1000
0000
0000
0000
,  // measure 25
1000
0000
0000
0000
,  // measure 26
1000
0000
0000
0000
,  // measure 27
0000
0000
0000
0000
,  // measure 28
0001
0000
0000
0000
,  // measure 29
0001
0000
0000
0000
,  // measure 30
0001
0000
0000
0000
,  // measure 31
0000
0000
0000
0000
,  // measure 32
0100
0000
0000
0000
,  // measure 33
0100
0000
0000
0000
,  // measure 34
0100
0000
0000
0000
,  // measure 35
0000
0000
0000
0000
,  // measure 36
0010
0000
0000
0000
,  // measure 37
0010
0000
0000
0000
,  // measure 38
0010
0000
0000
0000
,  // measure 39
0000
0000
0000
0000
,  // measure 40
1000
0000
1000
0000
,  // measure 41
1000
0000
1000
0000
,  // measure 42
1000
0000
0000
0000
,  // measure 43
0000
0000
0000
0000
,  // measure 44
0001
0000
0001
0000
,  // measure 45
0001
0000
0001
0000
,  // measure 46
0001
0000
0000
0000
,  // measure 47
0000
0000
0000
0000
,  // measure 48
2000
0000
0000
0000
,  // measure 49
0000
0000
0000
0000
,  // measure 50
0001
0000
0000
0000
,  // measure 51
0001
0000
0000
3000
,  // measure 52
0002
0000
0000
0000
,  // measure 53
0000
0000
0000
0000
,  // measure 54
1000
0000
0000
0000
,  // measure 55
1000
0000
0000
0003
,  // measure 56
1000
0000
0000
0000
,  // measure 57
0100
0000
0000
0000
,  // measure 58
1000
0000
0000
0000
,  // measure 59
0000
0000
0000
0000
,  // measure 60
0001
0000
0000
0000
,  // measure 61
0010
0000
0000
0000
,  // measure 62
0001
0000
0000
0000
,  // measure 63
0000
0000
0000
0000
,  // measure 64
0100
0000
0000
0000
,  // measure 65
0001
0000
0000
0000
,  // measure 66
0100
0000
0000
0000
,  // measure 67
0000
0000
0000
0000
,  // measure 68
0010
0000
0000
0000
,  // measure 69
1000
0000
0000
0000
,  // measure 70
0010
0000
0000
0000
,  // measure 71
0010
0000
0000
0000
,  // measure 72
0010
0000
0000
0000
,  // measure 73
0010
0000
0000
0000
,  // measure 74
0100
0000
0000
0000
,  // measure 75
0000
0000
0000
0000
,  // measure 76
0000
0000
0000
0000
,  // measure 77
0000
0000
0000
0000
,  // measure 78
0001
0000
0000
0000
,  // measure 79
1000
0000
0000
0000
,  // measure 80
0001
0000
0000
0000
;
