#TITLE:ギミチョコ!!;
#SUBTITLE:;
#ARTIST:BABYMETAL;
#TITLETRANSLIT:Gimme Choco!!;
#SUBTITLETRANSLIT:;
#ARTISTTRANSLIT:;
#GENRE:Heavy Metal;
#CREDIT:;
#BANNER:[Rock Out] - Gimme Choco!!.png;
#BACKGROUND:[Rock Out] - Gimme Choco!!-bg.png;
#LYRICSPATH:;
#CDTITLE:;
#MUSIC:[Rock Out] - Gimme Choco!!.ogg;
#OFFSET:0.005451;
#SAMPLESTART:69.832726;
#SAMPLELENGTH:15.000000;
#SELECTABLE:YES;
#BPMS:0.000000=220.000000
;
#STOPS:
;
#BGCHANGES:0.000=[Rock Out] - Gimme Choco!!.avi=1.000=0=0=0=StretchNoLoop==CrossFade_Fastest==,
99999=-nosongbg-=1.000=0=0=0 // don't automatically add -songbackground-
;
#KEYSOUNDS:;
#ATTACKS:;

//---------------dance-single - ----------------
#NOTES:
     dance-single:
     :
     Easy:
     4:
     0.299905,0.356702,0.037156,0.120758,0.000000,226.000000,222.000000,4.000000,13.000000,0.000000,0.000000,0.299905,0.356702,0.037156,0.120758,0.000000,226.000000,222.000000,4.000000,13.000000,0.000000,0.000000:
// measure 0
0000
0000
0000
0000
,  // measure 1
0000
0000
0000
0000
,  // measure 2
0000
0000
0000
0000
,  // measure 3
0000
0000
0000
0000
,  // measure 4
0000
0000
0000
0000
,  // measure 5
0000
0000
0000
0000
,  // measure 6
0000
0000
0000
0000
,  // measure 7
0000
0000
0000
0000
,  // measure 8
1000
0000
0001
0000
,  // measure 9
1000
0010
0100
0000
,  // measure 10
0001
0010
0100
0000
,  // measure 11
1000
0000
1000
0000
,  // measure 12
0001
0000
1000
0000
,  // measure 13
0001
0010
0100
0000
,  // measure 14
1000
0010
0100
0000
,  // measure 15
0001
0000
0001
0000
,  // measure 16
0020
0000
0100
0000
,  // measure 17
0130
0000
1000
0001
,  // measure 18
0020
0000
0100
0000
,  // measure 19
0130
0000
1000
0001
,  // measure 20
0200
0000
0010
0000
,  // measure 21
0310
0000
1000
0001
,  // measure 22
0200
0000
0010
0000
,  // measure 23
0310
0000
1000
0001
,  // measure 24
2000
0000
0010
0000
,  // measure 25
3010
0000
0100
0001
,  // measure 26
2000
0000
0100
0000
,  // measure 27
3100
0010
0001
0000
,  // measure 28
0002
0000
0010
0000
,  // measure 29
0013
0000
0100
1000
,  // measure 30
0002
0000
0100
0000
,  // measure 31
0103
0010
1000
0000
,  // measure 32
0010
0100
0001
0000
,  // measure 33
0010
0100
1000
0000
,  // measure 34
0010
0100
0001
0000
,  // measure 35
1000
0100
0010
0000
,  // measure 36
0100
0010
0001
0000
,  // measure 37
0100
0010
1000
0000
,  // measure 38
0100
0010
0001
0000
,  // measure 39
1000
0100
0010
0000
,  // measure 40
0010
0001
0010
0000
,  // measure 41
0010
1000
0010
0001
,  // measure 42
0100
1000
0100
0000
,  // measure 43
0100
0001
0100
1000
,  // measure 44
0100
0000
0001
0000
,  // measure 45
1000
0000
0010
0000
,  // measure 46
0100
0000
0010
0000
,  // measure 47
1000
0001
1001
0000
,  // measure 48
1002
0000
0000
0000
,  // measure 49
1000
0000
0000
0000
,  // measure 50
0010
0000
0000
0000
,  // measure 51
0010
0000
0010
0000
,  // measure 52
2003
0000
0000
0000
,  // measure 53
0001
0000
0000
0000
,  // measure 54
0100
0000
0000
0000
,  // measure 55
0100
0000
0100
0000
,  // measure 56
3002
0000
0000
0000
,  // measure 57
0100
0000
0100
0000
,  // measure 58
0100
0000
0000
0000
,  // measure 59
1000
0000
1000
0000
,  // measure 60
2003
0000
0000
0000
,  // measure 61
0100
0000
0100
0000
,  // measure 62
0100
0000
0001
0002
,  // measure 63
0000
0000
0000
3003
,  // measure 64
1001
0000
0001
0000
,  // measure 65
0010
0100
1000
0000
,  // measure 66
0001
0010
0100
0000
,  // measure 67
1000
0000
0001
0000
,  // measure 68
0001
0000
1000
0000
,  // measure 69
0010
0100
0001
0000
,  // measure 70
1000
0010
0100
0000
,  // measure 71
0001
0010
0100
1000
,  // measure 72
0001
0100
1000
0000
,  // measure 73
0100
0001
0010
0000
,  // measure 74
0100
1000
0001
0000
,  // measure 75
0100
0000
0001
0000
,  // measure 76
1000
0100
0001
0000
,  // measure 77
0100
1000
0010
0000
,  // measure 78
0100
0001
1000
0000
,  // measure 79
0100
0010
0001
1000
,  // measure 80
0010
0000
0100
0001
,  // measure 81
1000
0000
0010
1000
,  // measure 82
0001
0000
0010
0001
,  // measure 83
1000
0000
0010
0000
,  // measure 84
0100
0000
0010
1000
,  // measure 85
0001
0000
0100
0001
,  // measure 86
1000
0000
0100
1000
,  // measure 87
0001
0000
0100
0000
,  // measure 88
0010
0000
1000
0010
,  // measure 89
1000
0000
0001
0010
,  // measure 90
0001
0000
1000
0100
,  // measure 91
1000
0000
0001
0100
,  // measure 92
0001
0000
0010
0100
,  // measure 93
1000
0000
0001
0100
,  // measure 94
0010
0000
1000
0100
,  // measure 95
0010
0000
0100
1000
,  // measure 96
1001
0000
0000
0000
;

//---------------dance-single - ----------------
#NOTES:
     dance-single:
     :
     Medium:
     7:
     0.489669,0.667945,0.204360,0.102180,0.000000,369.000000,347.000000,22.000000,11.000000,0.000000,0.000000,0.489669,0.667945,0.204360,0.102180,0.000000,369.000000,347.000000,22.000000,11.000000,0.000000,0.000000:
// measure 0
0000
0000
0000
0000
,  // measure 1
0000
0000
0000
0000
,  // measure 2
0000
0000
0000
0000
,  // measure 3
0000
0000
0000
0000
,  // measure 4
0000
0000
0000
0000
,  // measure 5
0000
0000
0000
0000
,  // measure 6
0000
0000
0000
0000
,  // measure 7
0000
0000
0000
0000
,  // measure 8
0001
0001
1000
1000
,  // measure 9
0001
0100
0010
1000
,  // measure 10
0001
0001
1000
1000
,  // measure 11
0001
0010
0100
1000
,  // measure 12
0100
0100
0010
0010
,  // measure 13
0100
1000
0001
0010
,  // measure 14
0100
0100
0010
0010
,  // measure 15
0100
0010
0001
1000
,  // measure 16
0010
0010
1000
1000
,  // measure 17
0001
0000
0001
0000
0100
0010
0100
0000
,  // measure 18
0100
0100
0001
0001
,  // measure 19
1000
1000
0010
0100
,  // measure 20
0010
0010
1000
1000
,  // measure 21
0100
0000
0100
0000
0010
0001
0010
0000
,  // measure 22
0010
0010
0001
0001
,  // measure 23
0100
0100
0010
0010
,  // measure 24
1000
1000
1000
0010
,  // measure 25
0010
0000
0100
0000
0001
1000
0001
0000
,  // measure 26
1000
1000
1000
0100
,  // measure 27
0100
0010
0001
1000
,  // measure 28
0001
0001
0001
0100
,  // measure 29
0100
0000
0010
0000
1000
0001
1000
0000
,  // measure 30
0001
0001
0001
0010
,  // measure 31
0010
0100
1000
0001
,  // measure 32
1000
0001
0010
0001
,  // measure 33
1000
0100
0010
0001
,  // measure 34
1000
0001
0100
0001
,  // measure 35
0010
0000
0100
0000
1000
0001
1000
0000
,  // measure 36
0001
1000
0010
1000
,  // measure 37
0001
0100
0010
1000
,  // measure 38
0001
1000
0100
1000
,  // measure 39
0010
0000
0100
0000
0001
1000
0001
0000
,  // measure 40
2000
3010
0200
0301
,  // measure 41
2000
3100
0010
0011
,  // measure 42
0002
0103
0020
1030
,  // measure 43
0002
0013
0100
1100
,  // measure 44
1000
0010
1000
0000
0010
0100
0010
0000
,  // measure 45
0100
0001
0100
0000
0001
1000
0001
0000
,  // measure 46
1001
1001
1001
1001
,  // measure 47
0010
0100
1001
0000
,  // measure 48
1002
0000
0010
0000
,  // measure 49
0100
0100
0100
0000
,  // measure 50
1000
0000
1000
0000
,  // measure 51
0010
0000
0100
1000
,  // measure 52
2003
0000
0100
0000
,  // measure 53
0010
0010
0010
0000
,  // measure 54
0001
0000
0001
0000
,  // measure 55
0100
0000
0010
0001
,  // measure 56
3002
0010
0010
0000
,  // measure 57
0100
0100
0100
0000
,  // measure 58
1000
1000
1000
0000
,  // measure 59
1000
0010
0103
0101
,  // measure 60
2001
0010
0010
0000
,  // measure 61
0100
0100
0100
0000
,  // measure 62
0001
0000
0001
0000
0001
0000
0000
0002
,  // measure 63
0000
0000
0000
3003
,  // measure 64
1000
0000
0010
0000
0100
0000
0001
1000
,  // measure 65
0000
0100
0000
0010
0000
0001
0000
1000
,  // measure 66
0000
0010
0000
0100
0000
0001
0000
1000
,  // measure 67
0000
0100
0000
0001
0000
0100
1000
0000
,  // measure 68
0001
0000
0010
0000
0100
0000
1000
0001
,  // measure 69
0000
0100
0000
0010
0000
1000
0000
0001
,  // measure 70
0000
0010
0000
0100
0000
1000
0000
0001
,  // measure 71
0000
0100
1000
0000
0100
0000
0001
0000
,  // measure 72
1000
0000
0010
0000
0100
0000
0001
0010
,  // measure 73
0000
1000
0000
0100
0000
0001
0000
0010
,  // measure 74
0000
0001
0000
0100
0000
1000
0000
0010
,  // measure 75
0000
0001
0000
1000
0001
0000
1000
0000
,  // measure 76
0001
0000
0010
0000
0100
0000
1000
0010
,  // measure 77
0000
0001
0000
0100
0000
1000
0000
0010
,  // measure 78
0000
1000
0000
0100
0000
0001
0000
0010
,  // measure 79
0000
1000
0000
0001
1000
0000
0001
0000
,  // measure 80
1000
0000
0000
0010
0000
0100
0000
1001
,  // measure 81
0000
0100
0000
0010
0000
0100
0000
1001
,  // measure 82
0000
0010
0000
0100
0000
0010
0000
1001
,  // measure 83
0000
0000
0001
0000
1000
0001
1000
0000
,  // measure 84
0001
0000
0000
0010
0000
0100
0000
1001
,  // measure 85
0000
0100
0000
0010
0000
0100
0000
1001
,  // measure 86
0000
0010
0000
0100
0000
0010
0000
1001
,  // measure 87
0000
0000
1000
0000
0001
1000
0001
0000
,  // measure 88
1000
0100
0000
0010
0000
0001
0000
0101
,  // measure 89
0000
0100
0000
0010
0000
1000
0000
1100
,  // measure 90
0000
0100
0000
0010
0000
0001
0000
1001
,  // measure 91
0000
0000
1000
0000
1000
0100
0010
0000
,  // measure 92
0001
0100
0000
0010
0000
1000
0000
1100
,  // measure 93
0000
0100
0000
0010
0000
0001
0000
0101
,  // measure 94
0000
0100
0000
0010
0000
1000
0000
1001
,  // measure 95
0000
0000
0001
0000
0001
1000
0001
1000
;

//---------------dance-single - ----------------
#NOTES:
     dance-single:
     :
     Hard:
     8:
     0.635640,0.757004,0.752418,0.120758,0.000000,479.000000,398.000000,81.000000,13.000000,0.000000,0.000000,0.635640,0.757004,0.752418,0.120758,0.000000,479.000000,398.000000,81.000000,13.000000,0.000000,0.000000:
// measure 0
0000
0000
0000
0000
,  // measure 1
0000
0000
0000
0000
,  // measure 2
0000
0000
0000
0000
,  // measure 3
0000
0000
0000
0000
,  // measure 4
0000
0000
0000
0000
,  // measure 5
0000
0000
0000
0000
,  // measure 6
0000
0000
0000
0000
,  // measure 7
0000
0000
0000
0000
,  // measure 8
0100
0000
0001
0000
1000
0000
0001
0100
,  // measure 9
0001
0000
1000
0000
0100
0000
0010
0001
,  // measure 10
0010
0000
0001
0000
0100
0000
0010
1000
,  // measure 11
0010
1000
0100
0010
,  // measure 12
0100
0000
1000
0000
0001
0000
1000
0100
,  // measure 13
1000
0000
0001
0000
0100
0000
0010
1000
,  // measure 14
0010
0000
1000
0000
0100
0000
0010
0001
,  // measure 15
0010
0001
0100
0010
,  // measure 16
2010
0010
0001
0100
,  // measure 17
3100
0000
1000
0000
0100
0010
0001
0000
,  // measure 18
0102
0100
1000
0010
,  // measure 19
0013
0001
0100
0010
,  // measure 20
2100
0100
0001
0010
,  // measure 21
3010
0000
1000
0000
0010
0100
0001
0000
,  // measure 22
0012
0010
1000
0100
,  // measure 23
0103
0001
0010
0100
,  // measure 24
2001
0100
0100
0010
,  // measure 25
3010
0000
1000
0000
0010
0100
0001
0100
,  // measure 26
0002
0100
0100
0010
,  // measure 27
0013
0000
0001
0000
0010
0100
1000
0000
,  // measure 28
2001
0001
0001
0100
,  // measure 29
3100
0000
1000
0000
0100
0010
0001
0010
,  // measure 30
0002
1000
1000
0100
,  // measure 31
0103
0001
0100
0010
,  // measure 32
1000
1100
0010
0011
,  // measure 33
0001
0101
1100
0101
,  // measure 34
0001
0011
0100
1100
,  // measure 35
1000
1100
0101
1100
,  // measure 36
1000
1010
0100
0101
,  // measure 37
0001
0011
1010
0011
,  // measure 38
0001
0011
0100
1100
,  // measure 39
1000
1010
0011
1010
,  // measure 40
1001
0000
0100
0010
0100
0000
1000
0100
,  // measure 41
0000
0010
0001
0000
0101
0000
1010
0000
,  // measure 42
1001
0000
0010
0100
0010
0000
0001
0010
,  // measure 43
0000
0100
1000
0000
1010
0000
0101
0000
,  // measure 44
0001
0010
0100
0000
0100
1000
0010
0000
,  // measure 45
0010
0100
0001
0000
0001
1000
0010
0000
,  // measure 46
0010
1000
0010
0100
0010
0001
0010
0100
,  // measure 47
0010
1001
0110
1001
,  // measure 48
2010
0010
0010
0010
,  // measure 49
0100
0100
0100
0100
,  // measure 50
0010
0010
0010
0010
,  // measure 51
0001
0001
0001
0100
,  // measure 52
3002
0010
0010
0010
,  // measure 53
0100
0100
0100
0100
,  // measure 54
0010
0010
0010
0010
,  // measure 55
1000
1000
1000
0100
,  // measure 56
2003
0100
0100
0100
,  // measure 57
0010
0010
0010
0010
,  // measure 58
0100
0100
0100
0100
,  // measure 59
0001
0000
0001
0000
3001
1000
0001
1000
,  // measure 60
0002
0100
0100
0100
,  // measure 61
0010
0010
0010
0010
,  // measure 62
0100
0000
0100
0000
0100
0000
1000
2000
,  // measure 63
0000
0000
0000
3003
,  // measure 64
1000
0000
1010
0000
0100
0001
0100
0001
,  // measure 65
0000
1000
0000
1010
0000
0110
0000
0100
,  // measure 66
0000
0001
0000
0011
0000
0110
0000
0100
,  // measure 67
0000
1000
0000
0010
0100
0001
0100
0000
,  // measure 68
0001
0000
0011
0000
0100
1000
0100
1000
,  // measure 69
0000
0001
0000
0011
0000
0110
0000
0100
,  // measure 70
0000
1000
0000
1010
0000
0110
0000
0100
,  // measure 71
0000
0001
0010
0000
0100
1000
0100
0000
,  // measure 72
1000
0000
0010
0000
0100
0001
1000
0010
,  // measure 73
0000
0100
0000
0101
0000
0011
0000
0010
,  // measure 74
0000
0100
0000
1100
0000
1010
0000
0010
,  // measure 75
0000
0100
0000
0001
0010
0100
1000
0000
,  // measure 76
0001
0000
0010
0000
0100
1000
0001
0010
,  // measure 77
0000
0100
0000
1100
0000
1010
0000
0010
,  // measure 78
0000
0100
0000
0101
0000
0011
0000
0010
,  // measure 79
0000
0100
0000
1000
0010
0100
0001
0000
,  // measure 80
1000
0010
0000
0100
0000
0001
0000
1001
,  // measure 81
0000
0011
0000
0100
0000
1000
0000
1001
,  // measure 82
0000
1010
0000
0100
0000
0001
0000
1001
,  // measure 83
0000
0001
0010
0000
0100
1000
0010
0100
,  // measure 84
0000
0011
0000
0100
0000
1000
0000
1001
,  // measure 85
0000
1010
0000
0100
0000
0001
0000
1001
,  // measure 86
0000
0011
0000
0100
0000
1000
0000
1001
,  // measure 87
0000
1000
0010
0000
0100
0001
0010
0100
,  // measure 88
1000
0100
0000
0010
0000
0011
0000
1001
,  // measure 89
0000
0101
0000
0100
0000
1010
0000
1001
,  // measure 90
0000
1100
0000
0100
0000
0011
0000
1001
,  // measure 91
0000
1000
0000
0001
1000
0001
1000
0000
,  // measure 92
0001
0100
0000
0010
0000
1010
0000
1001
,  // measure 93
0000
1100
0000
0010
0000
0011
0000
1001
,  // measure 94
0000
0101
0000
0010
0000
1010
0000
1001
,  // measure 95
0000
0001
0000
1000
0001
1000
0001
1000
;

//---------------dance-single - ----------------
#NOTES:
     dance-single:
     :
     Challenge:
     9:
     0.735166,0.801534,0.975356,0.120758,0.000000,554.000000,449.000000,105.000000,13.000000,0.000000,0.000000,0.735166,0.801534,0.975356,0.120758,0.000000,554.000000,449.000000,105.000000,13.000000,0.000000,0.000000:
// measure 0
0000
0000
0000
0000
,  // measure 1
0000
0000
0000
0000
,  // measure 2
0000
0000
0000
0000
,  // measure 3
0000
0000
0000
0000
,  // measure 4
0000
0000
0000
0000
,  // measure 5
0000
0000
0000
0000
,  // measure 6
0000
0000
0000
0000
,  // measure 7
0000
0000
0000
0000
,  // measure 8
0100
0000
0001
0000
1000
0000
0001
0010
,  // measure 9
0001
0000
1000
0000
0001
0010
0100
1000
,  // measure 10
0001
0000
1000
0000
0001
0000
1000
0010
,  // measure 11
1000
0000
0001
0000
1000
0010
0100
0001
,  // measure 12
1000
0100
1000
0000
0001
0000
1000
0100
,  // measure 13
1000
0000
0001
0000
1000
0100
0010
0001
,  // measure 14
1000
0000
0001
0000
1000
0000
0001
0100
,  // measure 15
0001
0000
1000
0000
0001
0100
0010
1000
,  // measure 16
0020
0000
1000
0000
0100
0000
0100
0100
,  // measure 17
0100
0000
1030
0000
1000
0010
1000
0001
,  // measure 18
2000
0000
0010
0000
0010
0000
0001
0001
,  // measure 19
0001
0000
3010
0000
0100
0001
1000
0000
,  // measure 20
1020
0000
1000
0000
1000
0000
0100
0100
,  // measure 21
0100
0000
1030
0000
1000
0010
1000
0001
,  // measure 22
2000
0000
0010
0000
0010
0000
0001
0001
,  // measure 23
0001
0000
3010
0000
0100
0001
1000
0000
,  // measure 24
2001
0000
0100
0000
0100
0000
0001
0001
,  // measure 25
0001
0000
3010
0000
0100
0001
0010
0001
,  // measure 26
0200
0000
0001
0000
0001
0000
0010
0010
,  // measure 27
0010
0000
0301
0000
0100
0010
1000
0010
,  // measure 28
0200
0000
0010
0000
0010
0000
0001
0001
,  // measure 29
0001
0000
0310
0000
1000
0100
0010
0001
,  // measure 30
2000
0000
0100
0000
0100
0000
0001
0001
,  // measure 31
0001
0000
3010
1000
0100
0010
0001
0000
,  // measure 32
0101
0000
0011
0000
0010
0001
1001
0000
,  // measure 33
1100
0000
1010
0000
0010
1000
1001
0000
,  // measure 34
0101
0000
0011
0000
0010
0100
1100
0000
,  // measure 35
1001
0000
1010
0000
0010
0100
0101
0000
,  // measure 36
0100
0001
0011
0000
0101
0000
1001
0000
,  // measure 37
0100
1000
1010
0000
1100
0000
1001
0000
,  // measure 38
1000
0001
0011
0000
1100
0000
1001
0000
,  // measure 39
0001
1000
1010
0000
0101
0000
1001
0000
,  // measure 40
0010
1000
0010
1000
0100
0000
0010
0001
,  // measure 41
1000
0001
0100
0000
0110
0000
1001
0000
,  // measure 42
0010
0001
0010
0001
0100
0000
0010
1000
,  // measure 43
0001
1000
0100
0000
0110
0000
1001
0000
,  // measure 44
1000
0010
0001
1000
0001
0010
1000
0000
,  // measure 45
0001
0100
1000
0001
1000
0100
0001
0000
,  // measure 46
1000
0001
0100
0010
1000
0001
0010
0100
,  // measure 47
0110
1001
0110
1001
,  // measure 48
0120
1000
1000
0100
,  // measure 49
0100
0001
0001
0100
,  // measure 50
0100
1000
1000
0100
,  // measure 51
0001
0000
0100
0000
1000
0000
0100
0100
,  // measure 52
0230
0001
0001
0010
,  // measure 53
0010
1000
1000
0010
,  // measure 54
0010
0001
0001
0010
,  // measure 55
1000
0000
0010
0000
0001
0000
0001
0001
,  // measure 56
0302
0100
0100
1000
,  // measure 57
1000
0010
0010
1000
,  // measure 58
0010
1000
0100
1000
,  // measure 59
0010
0000
1000
0000
0103
0001
0010
0100
,  // measure 60
2100
0100
0100
0001
,  // measure 61
0001
0010
0010
0001
,  // measure 62
0010
0000
0001
0000
0100
0000
0001
0002
,  // measure 63
0000
0000
0000
3003
,  // measure 64
1001
0000
0011
0000
0100
1000
0010
1000
,  // measure 65
0000
1010
0000
0001
0000
0011
0000
1000
,  // measure 66
0000
1100
0000
0001
0000
0101
0000
1001
,  // measure 67
0000
0110
0000
1001
0000
0001
0010
0100
,  // measure 68
1000
0000
1010
0000
0100
0001
0010
0001
,  // measure 69
0000
0011
0000
1000
0000
1010
0000
0001
,  // measure 70
0000
0101
0000
1000
0000
1100
0000
1001
,  // measure 71
0000
0001
1000
0010
0100
0001
0010
0100
,  // measure 72
1000
0000
1100
0000
0010
0001
0100
0010
,  // measure 73
0000
0101
0000
1001
0000
0011
0000
0100
,  // measure 74
0000
1010
0000
1001
0000
1100
0000
1001
,  // measure 75
0000
0110
0000
1000
0100
0001
0100
1000
,  // measure 76
0001
0000
0101
0000
0010
1000
0100
0010
,  // measure 77
0000
1100
0000
1001
0000
1010
0000
0100
,  // measure 78
0000
0011
0000
1001
0000
0101
0000
1001
,  // measure 79
0000
0110
0000
0001
0100
1000
0100
0001
,  // measure 80
1000
0100
0001
0100
0000
1001
0000
0110
,  // measure 81
0000
0010
1000
0001
0000
1001
0000
0110
,  // measure 82
0000
1000
0001
0010
0000
0110
0000
1001
,  // measure 83
0000
0001
0010
0100
1000
0100
0010
0001
,  // measure 84
1000
0010
0001
0010
0000
1001
0000
1010
,  // measure 85
0000
0001
1000
0100
0000
1100
0000
1001
,  // measure 86
0000
1000
0001
0100
0000
0101
0000
1001
,  // measure 87
0000
1000
0010
0100
0001
0100
0010
1000
,  // measure 88
0001
0010
0000
0011
0000
1001
0000
1100
,  // measure 89
0000
1001
0000
1010
0000
1001
0000
0101
,  // measure 90
0000
1001
0000
0011
0000
1100
0000
1001
,  // measure 91
0000
1000
0000
0001
0100
1000
0100
0001
,  // measure 92
0000
0101
0000
1100
0000
0011
0000
1010
,  // measure 93
0000
1100
0000
0101
0000
1010
0000
0011
,  // measure 94
0000
1100
0000
0101
0000
0011
0000
1010
,  // measure 95
0000
1001
0000
0001
1000
0010
0100
0001
;

//---------------dance-single - ----------------
#NOTES:
     dance-single:
     :
     Beginner:
     2:
     0.120758,0.267526,0.018578,0.074313,0.000000,91.000000,89.000000,2.000000,8.000000,0.000000,0.000000,0.120758,0.267526,0.018578,0.074313,0.000000,91.000000,89.000000,2.000000,8.000000,0.000000,0.000000:
// measure 0
0000
0000
0000
0000
,  // measure 1
0000
0000
0000
0000
,  // measure 2
0000
0000
0000
0000
,  // measure 3
0000
0000
0000
0000
,  // measure 4
0000
0000
0000
0000
,  // measure 5
0000
0000
0000
0000
,  // measure 6
0000
0000
0000
0000
,  // measure 7
0000
0000
0000
0000
,  // measure 8
0010
0000
0000
0000
,  // measure 9
0000
0000
0000
0000
,  // measure 10
0010
0000
0000
0000
,  // measure 11
0000
0000
0000
0000
,  // measure 12
0100
0000
0000
0000
,  // measure 13
0000
0000
0000
0000
,  // measure 14
0100
0000
0000
0000
,  // measure 15
0000
0000
0000
0000
,  // measure 16
0020
0000
0000
0000
,  // measure 17
0030
0000
0000
0000
,  // measure 18
0020
0000
0000
0000
,  // measure 19
0030
0000
0000
0000
,  // measure 20
0200
0000
0000
0000
,  // measure 21
0300
0000
0000
0000
,  // measure 22
0200
0000
0000
0000
,  // measure 23
0300
0000
0000
0000
,  // measure 24
0002
0000
0000
0000
,  // measure 25
0003
0000
0000
0000
,  // measure 26
0002
0000
0000
0000
,  // measure 27
0003
0000
0000
0000
,  // measure 28
2000
0000
0000
0000
,  // measure 29
3000
0000
0000
0000
,  // measure 30
2000
0000
0000
0000
,  // measure 31
3000
0000
0000
0000
,  // measure 32
0010
0000
0000
0000
,  // measure 33
0010
0000
0000
0000
,  // measure 34
0010
0000
0000
0000
,  // measure 35
0010
0000
0000
0000
,  // measure 36
0100
0000
0000
0000
,  // measure 37
0100
0000
0000
0000
,  // measure 38
0100
0000
0000
0000
,  // measure 39
0100
0000
0000
0000
,  // measure 40
0010
0000
0000
0000
,  // measure 41
0010
0000
0000
0000
,  // measure 42
0100
0000
0000
0000
,  // measure 43
0100
0000
0000
0000
,  // measure 44
0001
0000
0000
0000
,  // measure 45
0001
0000
0000
0000
,  // measure 46
1000
0000
0000
0000
,  // measure 47
1000
0000
0000
0000
,  // measure 48
0001
0000
0000
0000
,  // measure 49
0000
0000
0000
0000
,  // measure 50
0001
0000
0000
0000
,  // measure 51
0001
0000
0000
0000
,  // measure 52
1000
0000
0000
0000
,  // measure 53
0000
0000
0000
0000
,  // measure 54
1000
0000
0000
0000
,  // measure 55
1000
0000
0000
0000
,  // measure 56
0010
0000
0000
0000
,  // measure 57
0000
0000
0000
0000
,  // measure 58
0010
0000
0000
0000
,  // measure 59
0010
0000
0000
0000
,  // measure 60
0100
0000
0000
0000
,  // measure 61
0100
0000
0000
0000
,  // measure 62
0100
0000
0000
0000
,  // measure 63
0110
0000
0000
0000
,  // measure 64
0010
0000
0000
0000
,  // measure 65
0010
0000
0000
0000
,  // measure 66
0010
0000
0010
0000
,  // measure 67
0010
0000
0000
0000
,  // measure 68
0100
0000
0000
0000
,  // measure 69
0100
0000
0000
0000
,  // measure 70
0100
0000
0100
0000
,  // measure 71
0100
0000
0000
0000
,  // measure 72
1000
0000
0000
0000
,  // measure 73
1000
0000
0000
0000
,  // measure 74
1000
0000
1000
0000
,  // measure 75
1000
0000
0000
0000
,  // measure 76
0001
0000
0000
0000
,  // measure 77
0001
0000
0000
0000
,  // measure 78
0001
0000
0001
0000
,  // measure 79
0001
0000
0000
0000
,  // measure 80
0010
0000
0010
0000
,  // measure 81
0010
0000
0000
0000
,  // measure 82
0010
0000
0010
0000
,  // measure 83
0010
0000
0000
0000
,  // measure 84
0100
0000
0100
0000
,  // measure 85
0100
0000
0000
0000
,  // measure 86
0100
0000
0100
0000
,  // measure 87
0100
0000
0000
0000
,  // measure 88
0010
0000
0010
0000
,  // measure 89
0010
0000
0010
0000
,  // measure 90
0010
0000
0010
0000
,  // measure 91
0010
0000
0000
0000
,  // measure 92
0100
0000
0100
0000
,  // measure 93
0100
0000
0100
0000
,  // measure 94
0100
0000
0100
0000
,  // measure 95
0100
0000
0100
0000
,  // measure 96
0110
0000
0000
0000
;
