#VERSION:0.83;
#TITLE:Ghost Hunters;
#SUBTITLE:;
#ARTIST:96;
#TITLETRANSLIT:;
#SUBTITLETRANSLIT:;
#ARTISTTRANSLIT:;
#GENRE:Metal;
#ORIGIN:;
#CREDIT:;
#BANNER:[Rock Out] - Ghost Hunters.png;
#BACKGROUND:[Rock Out] - Ghost Hunters-bg.png;
#PREVIEWVID:;
#JACKET:[Rock Out] - Ghost Hunters-jacket.png;
#CDIMAGE:;
#DISCIMAGE:;
#LYRICSPATH:;
#CDTITLE:cdtitle.png;
#MUSIC:[Rock Out] - Ghost Hunters.ogg;
#OFFSET:-0.151364;
#SAMPLESTART:10.691905;
#SAMPLELENGTH:10.520539;
#SELECTABLE:YES;
#DISPLAYBPM:148.000000:296.000000;
#BPMS:0.000=148.000,
26.000=296.000,
195.000=59.200,
195.875=59.199,
196.000=148.000,
221.000=296.000,
426.000=148.000;
#STOPS:;
#DELAYS:;
#WARPS:;
#TIMESIGNATURES:0.000=4=4;
#TICKCOUNTS:0.000=4;
#COMBOS:0.000=1;
#SPEEDS:0.000=1.000=0.000=0;
#SCROLLS:0.000=1.000;
#FAKES:;
#LABELS:0.000=Song Start;
#BGCHANGES:;
#KEYSOUNDS:;
#ATTACKS:
;

//---------------dance-single - ----------------
#NOTEDATA:;
#CHARTNAME:;
#STEPSTYPE:dance-single;
#DESCRIPTION:;
#CHARTSTYLE:;
#DIFFICULTY:Challenge;
#METER:12;
#RADARVALUES:1.011155,1.573452,0.941130,0.156855,0.230381,722.000000,626.000000,96.000000,16.000000,0.000000,0.000000,0.000000,0.000000,0.000000,1.011155,1.573452,0.941130,0.156855,0.230381,722.000000,626.000000,96.000000,16.000000,0.000000,0.000000,0.000000,0.000000,0.000000;
#CREDIT:;
#DISPLAYBPM:148.000000:296.000000;
#NOTES:
0000
0000
0000
0000
,
0000
0000
0000
0000
,
0000
0000
0000
0000
,
0000
0000
0000
0000
1001
0000
1001
0000
0000
1100
0000
0001
0101
0000
0011
0000
,
0000
0000
1001
0000
0000
0101
0000
1000
1100
0000
1010
0000
0000
0000
1001
0000
,
0000
1010
0000
0001
1001
0000
1100
0000
0001
0000
0011
0000
0100
1100
0000
0000
,
0001
0100
0001
0000
1000
0000
0001
0010
0001
0000
1000
0000
0001
0000
0100
0000
0010
0000
0000
0000
0000
0000
0000
0000
1000
0000
0000
0000
0000
0000
0000
0000
,
0100
1000
0001
1000
0001
1000
1010
0000
,
0100
0000
0001
0000
0010
0001
1000
0001
,
1000
0001
0101
0000
0010
0000
1000
0000
,
0100
1000
0010
1000
0001
0010
0011
0000
,
0100
0000
1100
0000
0000
0101
0001
0000
,
0011
0000
1000
0010
0000
1000
1100
0000
,
0010
0000
0001
0000
0100
0001
1000
0001
,
1000
0001
0011
0000
0100
0000
1000
0000
,
0010
1000
0001
1000
0001
1000
1100
0000
,
0010
0000
0001
0000
0100
0001
0010
0001
,
1000
0000
0010
0000
1010
0000
0000
0000
0001
0000
1000
0000
0001
0100
0001
0000
,
1000
0000
0001
0100
0001
0000
1000
0000
0001
0010
0001
0000
1000
0000
0001
0010
,
0001
1000
0001
0100
0010
0000
1010
0000
,
0000
1001
0000
1000
1100
0000
0110
0000
,
0011
0000
1001
0000
0101
0000
0000
1001
,
0000
0001
0011
0000
1100
0000
1010
0000
,
1001
0000
0011
0000
0000
1001
0000
0001
,
0101
0110
1010
1001
,
0011
0000
0000
1100
0000
0000
0011
0000
,
1010
0000
0000
1000
0100
0000
1100
0000
,
0001
0000
0101
0000
0000
1010
0000
1000
,
1100
0011
1001
1010
,
0110
0000
0000
0101
0000
0001
0011
0000
,
1001
0101
1001
1100
,
0000
0000
0000
0011
0000
0000
0000
0000
0000
0001
0000
0000
0101
0000
0000
0000
0000
0000
0001
0000
0100
0000
0010
0000
,
1000
0000
0001
0000
0011
0000
0000
1100
,
0000
0000
0101
0000
1010
0000
0000
0011
,
0000
0000
1001
0000
0001
0100
1000
0000
,
1100
0000
1000
0100
0001
0000
0101
0000
,
0001
0100
1000
0000
1000
0100
0001
0000
,
0010
0100
1000
0000
0010
0100
0001
0000
,
1000
0100
0001
0000
0101
0000
0001
0100
,
1000
0000
1100
0000
1000
0100
0001
0000
,
0001
0100
1000
0000
0010
0100
0001
0000
,
0010
0100
1000
0000
0001
0100
0001
0100
,
0010
0100
1000
0100
1000
0100
0010
0100
,
0001
0100
0001
0100
1000
0100
1000
0100
,
0010
0100
0001
0010
0100
1000
0010
1000
,
0001
0010
0001
0010
0100
0010
1000
0010
,
1000
0010
0100
0010
0001
0010
0001
0010
,
1000
0010
1000
0010
0001
0100
0010
1000
,
1001
0000
0000
1001
0000
0000
0220
0330
,
1000
0100
0010
0001
0200
0000
0000
1000
0000
0000
1300
0000
0100
0000
0001
0000
,
0020
0000
0000
0031
0200
0000
0310
0000
2000
0000
0000
0000
3200
0000
0000
0001
,
0000
0000
0301
0100
0010
0000
0001
0000
0100
0010
2000
0001
0000
0000
3001
0000
,
0010
0100
0010
0001
2000
0000
0000
0010
0000
0000
3010
0000
0001
0000
0010
0000
,
2000
0000
0000
3100
0020
0000
0031
0000
1000
0000
0010
0000
0200
0000
0000
0001
,
0000
0000
0000
0000
0310
0000
0000
0000
1000
0000
0000
0000
0100
0000
0000
0000
0010
0000
0001
0000
0000
0000
0001
0000
1000
0010
1000
0000
0001
0000
1000
0100
,
1000
0001
0100
0010
1000
0000
0000
0000
0100
0000
0000
0000
1000
0000
0010
0000
,
0100
0001
0000
0001
0010
0000
0100
0000
,
0010
0000
0001
0100
0010
1000
0000
1000
,
0100
0000
0010
0000
0001
0000
1000
0010
,
1000
0100
0000
0100
0010
0000
0001
0000
,
1000
0000
0001
0010
0001
0100
0000
0100
,
0010
0000
0100
0000
1000
0000
0100
0010
,
0100
0001
0000
0001
1000
0000
0100
0000
,
0001
0000
0100
0010
0100
1000
0000
1000
,
0001
0000
0010
0000
1000
0000
0010
0100
,
0010
0001
0000
0001
1000
0000
0010
0000
,
0001
0000
0010
0100
0010
1000
0000
1000
,
0001
0000
1000
0000
0100
0000
0010
0100
,
1000
0001
0000
0001
0100
0000
0010
0000
,
1000
0000
0010
0100
0001
1000
0000
1000
,
0100
0000
0001
0000
0100
0000
0010
0001
,
0100
0010
0000
0010
1000
0000
2001
0001
,
0000
0000
0000
0000
3001
1000
0001
0000
0010
0000
0100
0000
1000
0000
0010
0000
,
0100
0001
1000
0000
0100
0000
0010
0001
,
0100
0001
0000
0010
0011
0000
0001
0000
,
0100
0000
0010
1000
0100
1000
0000
0010
,
1010
0000
0001
0000
0100
0000
0010
0100
,
0001
1000
0000
0100
0110
0000
0002
0000
,
1003
0100
0010
0001
0100
0010
1000
0100
,
0010
0001
0100
0010
1000
0100
1000
0010
,
0100
0001
1000
0100
0010
0100
0001
0100
,
1000
0001
0100
0010
0100
0001
1000
0100
,
0010
1000
0010
0100
1000
0001
0100
0010
,
0100
1000
0100
0010
1000
0001
0010
0100
,
0001
0000
0100
0000
0010
0000
0001
0000
1000
0010
1000
0000
0001
0000
1000
0100
,
1000
0000
0001
0000
0100
0001
0100
0000
0001
0000
0010
0001
0010
0000
0100
0000
,
1000
0001
1000
0000
0001
0000
0100
0001
,
0000
0001
0010
0000
0011
0000
0100
0000
,
1000
0000
0010
1000
0000
1000
0100
0000
,
1100
0000
0010
0000
0001
0000
0100
0010
,
0000
0010
1000
0000
1010
0000
0100
0000
,
0101
0000
0001
0010
0000
0010
0100
0000
,
1000
0010
0001
0010
1000
0000
0001
0000
,
1000
0000
0100
1000
0000
1000
0010
0000
,
1010
0000
0100
0000
0001
0000
0010
0001
,
0000
0001
0100
0000
0101
0000
0010
0000
,
1000
0000
0100
0010
0000
0010
0001
0000
,
0011
0000
1000
0000
1010
0000
0000
0101
,
0000
0000
1100
0000
0000
0011
0000
0000
,
1001
0000
1000
0010
0001
0000
0011
0000
,
0001
0010
1000
0000
1010
0000
1000
0100
,
0001
0000
0001
0100
1000
0000
0010
0100
,
0001
0000
0010
0100
1000
0000
0001
0100
,
0001
0100
1000
0100
0001
0010
0001
0010
,
1000
0010
0001
0100
0001
0100
1000
0100
,
1000
0000
0000
0100
0000
0000
0001
0000
0000
0010
0000
0000
0100
0000
1000
0000
0001
0000
0100
0000
0000
0000
0000
0000
,
0000
0110
0000
0000
0220
0000
0300
0000
,
0030
0000
0000
0000
;

//---------------dance-single - ----------------
#NOTEDATA:;
#CHARTNAME:;
#STEPSTYPE:dance-single;
#DESCRIPTION:;
#CHARTSTYLE:;
#DIFFICULTY:Hard;
#METER:10;
#RADARVALUES:0.820688,1.101417,0.372531,0.519582,0.112740,586.000000,548.000000,38.000000,53.000000,0.000000,0.000000,0.000000,0.000000,0.000000,0.820688,1.101417,0.372531,0.519582,0.112740,586.000000,548.000000,38.000000,53.000000,0.000000,0.000000,0.000000,0.000000,0.000000;
#CREDIT:;
#DISPLAYBPM:148.000000:296.000000;
#NOTES:
// measure 0
0000
0000
0000
0000
,  // measure 1
0000
0000
0000
0000
,  // measure 2
0000
0000
0000
0000
,  // measure 3
0000
0000
0000
0000
1000
0000
1000
0000
0000
0100
0000
1000
0001
0000
0001
0000
,  // measure 4
0000
0000
0001
0000
0000
0100
0000
0001
1000
0000
1000
0000
0000
0000
0100
0000
,  // measure 5
0000
0010
0000
0010
0001
0000
1000
0000
0010
0000
0110
0000
0000
1001
0000
0000
,  // measure 6
1000
0100
1000
0001
0100
0001
0100
0010
1000
0000
0000
0000
0100
0000
0000
0000
,  // measure 7
0010
0001
0000
0010
0001
0000
2000
0000
,  // measure 8
3010
0000
0100
0000
0010
1000
0000
0010
,  // measure 9
1000
0002
1003
0100
,  // measure 10
0010
0100
0000
1000
0001
0000
0200
0000
,  // measure 11
0310
0000
1010
0000
0000
0101
0000
0000
,  // measure 12
1001
0000
0000
0011
0000
0000
1100
0000
,  // measure 13
0001
0000
0100
0000
0001
0010
0000
0001
,  // measure 14
0010
0002
1003
0100
,  // measure 15
1000
0010
0000
1000
0010
0000
0200
0000
,  // measure 16
0310
0000
1000
0000
0001
0010
0000
0100
,  // measure 17
1000
0000
0002
0000
0103
0001
1000
0010
,  // measure 18
1000
0001
0010
0001
1000
0100
1000
0001
,  // measure 19
0100
0001
1000
0100
0010
0000
0010
0000
,  // measure 20
0000
0001
0000
0001
0100
0000
1000
0000
,  // measure 21
0100
0000
0001
0000
0010
0000
0000
0100
,  // measure 22
0000
0100
1000
0000
0010
0000
0001
0000
,  // measure 23
0010
0000
1000
0000
0000
0100
0000
0100
,  // measure 24
0010
0001
0100
0010
,  // measure 25
1010
0000
0000
0101
0000
0000
1001
0000
,  // measure 26
0011
0000
0000
0001
1000
0000
0010
0000
,  // measure 27
0100
0000
0010
0000
0000
1000
0000
1000
,  // measure 28
0100
0001
0100
1000
,  // measure 29
0010
0000
0000
0100
0000
0100
0001
0000
,  // measure 30
0010
1000
0010
0001
,  // measure 31
0000
0100
0000
0100
0010
0000
1000
0001
,  // measure 32
1000
0000
0100
0000
0011
0000
0000
0101
,  // measure 33
0000
0000
1010
0000
1010
0000
0000
1100
,  // measure 34
0000
0000
1001
0000
0001
0100
0001
0000
,  // measure 35
1000
0000
0001
0010
0001
0000
1000
0000
,  // measure 36
0001
0100
0001
0000
0001
0010
0001
0000
,  // measure 37
1000
0010
0100
0000
0001
0100
0010
0000
,  // measure 38
1000
0100
1000
0000
0001
0000
1000
0010
,  // measure 39
1000
0000
0001
0000
1000
0100
1000
0000
,  // measure 40
1000
0010
1000
0000
0001
0010
0100
0000
,  // measure 41
1000
0010
0100
0000
0001
1000
0001
1000
,  // measure 42
0010
1000
0001
1000
0001
1000
0100
1000
,  // measure 43
0001
1000
0010
1000
0001
1000
0100
1000
,  // measure 44
0001
0100
0001
0100
0010
1000
0010
1000
,  // measure 45
0100
1000
0100
1000
0001
1000
0010
1000
,  // measure 46
0010
1000
0001
1000
0100
1000
0100
1000
,  // measure 47
0001
0100
0001
0100
0010
1000
0001
0010
,  // measure 48
0100
0000
0000
0110
0000
0000
2002
3003
,  // measure 49
0001
0100
0010
1000
0200
0000
0000
0000
0000
0000
0310
0000
0100
0000
1000
0000
,  // measure 50
1001
1010
0101
0120
,  // measure 51
0000
0000
1030
0010
1000
0000
0001
0000
1000
0100
2000
0000
0000
0000
3001
0000
,  // measure 52
0010
0100
1000
0001
0200
0000
0000
0000
0000
0000
1300
0000
0100
0000
0001
0000
,  // measure 53
0101
0000
1001
0000
0001
1000
0200
0000
,  // measure 54
0000
0000
0301
0000
0100
0000
1000
0000
0001
0100
0000
0010
1000
0010
1000
0010
,  // measure 55
0100
0001
1000
0001
0020
0000
0000
0000
0100
0000
0000
0000
0130
0000
0000
0000
,  // measure 56
0020
0032
2003
3002
,  // measure 57
0103
0020
0130
2000
,  // measure 58
3100
0002
0010
0013
,  // measure 59
0100
1000
0001
0000
1000
0000
0001
1000
,  // measure 60
0020
0000
0100
0000
0130
0001
0000
1000
,  // measure 61
0100
0020
0001
0031
,  // measure 62
0020
0032
0203
2300
,  // measure 63
3100
0020
0130
0002
,  // measure 64
0203
0320
1000
1030
,  // measure 65
0020
2030
3200
0302
,  // measure 66
0103
0020
0130
2000
,  // measure 67
3020
0230
0001
0301
,  // measure 68
0200
2300
3200
0302
,  // measure 69
0013
0200
0310
2000
,  // measure 70
3020
0032
1000
1003
,  // measure 71
0002
0203
0320
2030
,  // measure 72
0000
0000
3001
0010
0001
0010
0100
1000
,  // measure 73
0100
1000
0001
0000
0100
0000
0010
1000
,  // measure 74
0000
1000
0100
0000
0010
0000
0100
0000
,  // measure 75
1000
0000
0010
0100
0000
0100
0001
0000
,  // measure 76
0010
0000
0100
0000
0010
0000
0001
1000
,  // measure 77
0000
1000
0010
0000
0100
0000
0101
0000
,  // measure 78
1001
0000
0000
1100
0000
0000
0110
0000
,  // measure 79
0000
0011
0000
0000
1001
0000
1000
0010
,  // measure 80
1000
0010
0100
0010
0100
0010
1000
0001
,  // measure 81
1000
0100
0010
0001
0010
0001
0010
0100
,  // measure 82
0010
0100
0010
0001
1000
0001
0100
0010
,  // measure 83
0100
0010
1000
0010
1000
0010
0100
0001
,  // measure 84
1000
0100
0010
0001
1000
0000
0010
0100
,  // measure 85
0000
0100
0001
0000
0010
0100
0000
0100
,  // measure 86
1000
0000
0001
0000
1000
0000
0001
0100
,  // measure 87
0000
0001
0100
0000
1000
0000
0100
0000
,  // measure 88
0001
0000
1000
0100
0000
1000
0100
0000
,  // measure 89
0001
0000
0100
0000
1000
0000
0010
0100
,  // measure 90
0000
0010
0100
0000
0001
0000
1000
0000
,  // measure 91
0100
0000
0010
0001
0000
0001
0100
0000
,  // measure 92
0100
0010
0000
0010
1000
0000
0001
0000
,  // measure 93
1000
0000
0001
0010
0000
0001
0010
0000
,  // measure 94
1000
0000
0010
0000
0001
0000
1000
0010
,  // measure 95
0000
1000
0010
0000
0001
0000
0010
0000
,  // measure 96
1000
0000
0100
0010
0000
0100
0010
0000
,  // measure 97
0001
0000
1000
0000
1010
0000
0000
0101
,  // measure 98
0000
0000
0011
0000
0000
1100
0000
0000
,  // measure 99
1001
0000
0001
0010
0001
0000
1000
0000
,  // measure 100
0001
0100
0001
0000
1000
0000
0001
0010
,  // measure 101
0001
0000
0001
0100
0001
0000
1000
0100
,  // measure 102
0010
0000
0001
0100
0010
0000
1000
0001
,  // measure 103
1000
0001
0100
0001
0010
0001
0010
0001
,  // measure 104
0100
0001
1000
0001
0100
0001
0010
0001
,  // measure 105
0010
0001
1000
0010
1000
0010
0100
0000
,  // measure 106
0000
0110
0000
0000
0220
0000
0300
0000
,  // measure 107
0030
0000
0000
0000
;

//---------------dance-single - ----------------
#NOTEDATA:;
#CHARTNAME:;
#STEPSTYPE:dance-single;
#DESCRIPTION:;
#CHARTSTYLE:;
#DIFFICULTY:Medium;
#METER:8;
#RADARVALUES:0.637224,0.996520,0.578403,0.647027,0.058821,455.000000,396.000000,59.000000,66.000000,0.000000,0.000000,0.000000,0.000000,0.000000,0.637224,0.996520,0.578403,0.647027,0.058821,455.000000,396.000000,59.000000,66.000000,0.000000,0.000000,0.000000,0.000000,0.000000;
#CREDIT:;
#DISPLAYBPM:148.000000:296.000000;
#NOTES:
0000
0000
0000
0000
,
0000
0000
0000
0000
,
0000
0000
0000
0000
,
0000
0000
0000
0000
1000
0000
0100
0000
0000
0100
0000
0100
1000
0000
0001
0000
,
0000
0000
0100
0000
0000
0100
0000
0100
0001
0000
1000
0000
0000
0000
0100
0000
,
0000
1000
0000
1000
0001
0000
0100
0000
0010
0000
1010
0000
0000
0101
0000
0000
,
0011
0000
0000
1100
0000
0000
1001
0000
1000
0000
0000
0000
0010
0000
0000
0000
,
1000
0010
1000
0200
,
0310
0001
0010
0001
,
0010
0200
1300
0010
,
1000
0010
1000
0002
,
0013
0000
0011
0000
0000
1100
0000
0000
,
1010
0000
0000
0101
0000
0000
1001
0000
,
0001
0010
0001
0010
,
0001
0200
0310
1000
,
0010
1000
0010
0200
,
0301
0010
0001
0010
,
0001
2000
3010
1010
,
0000
0101
0000
0000
1100
0000
0000
0011
,
0000
1001
1000
0010
,
0000
1000
0000
0010
1000
0000
0001
0000
,
1000
0000
0100
0000
0010
0000
0000
0001
,
0000
0010
0001
0000
1000
0000
0010
0000
,
0100
0000
0001
0000
0000
0100
0000
0001
,
0100
0010
1000
0001
,
0011
0000
0000
1001
0000
0000
1010
0000
,
1010
0000
0000
1001
0000
0000
0011
0000
,
0001
0000
0100
0000
0000
0001
0000
0100
,
0001
1000
0010
1000
,
0100
0000
0000
1000
0000
0100
1000
0000
,
0001
0010
0001
0100
,
0000
0010
0000
0100
0010
0000
1000
0000
,
0001
0000
1000
0000
1100
0000
0000
0011
,
0000
0000
1001
0000
1001
0000
0000
0110
,
0000
1001
2000
3000
,
0001
0200
0300
0001
,
2000
3001
0200
0301
,
2000
3001
0020
0130
,
2000
3000
0001
0020
,
0030
0001
2000
3001
,
0020
0031
2000
3001
,
0200
0310
1000
0100
,
0001
0100
1000
0010
,
1000
0100
1000
0010
,
0001
0010
1000
0100
,
0010
0001
0100
1000
,
0100
0001
0010
0001
,
0100
0001
1000
0100
,
0110
0000
0000
0110
0000
0000
2002
3003
,
1000
0010
1000
0010
2000
0000
0000
0000
0000
0000
3100
0000
0010
0000
0001
0000
,
0100
1010
1001
0021
,
0000
0000
0031
0010
0001
0000
1000
0000
0001
0100
0002
0000
0000
0000
0103
0000
,
0010
1000
0200
0000
0000
0310
0100
1000
,
0002
0000
0203
0000
0310
0100
2000
0000
,
0000
3100
0010
0100
0002
0000
0103
0001
,
0010
0100
2000
0000
0000
0000
3100
0000
,
0001
0100
1000
0200
,
0300
0022
0033
2020
,
3030
0021
0000
0031
,
1000
0010
1000
0000
0001
0000
1000
0100
,
2000
0000
3001
0100
,
0010
2000
0000
3001
,
0100
1000
0100
0002
,
0003
0202
0303
1000
,
0010
2000
0000
3001
,
0010
1000
0010
0002
,
0003
0022
0033
0001
,
0100
0002
0000
1003
,
0100
0001
0100
2000
,
3000
2200
3300
0001
,
0010
0002
0000
1003
,
0010
0001
0010
2020
,
3030
2002
3003
0022
,
0033
0001
0100
0001
,
0100
0001
0020
0130
,
1000
0100
1000
0010
,
0200
0301
1000
0001
,
1000
0100
0020
0031
,
1001
0000
0000
0101
0000
0000
1001
0000
,
0000
1100
0000
0000
1001
0000
1000
0000
,
0010
0100
0001
1000
,
0100
0010
0001
1000
,
0010
0001
0010
1000
,
0100
0001
0100
1000
,
0001
0000
0100
0000
0010
0000
0000
1001
,
0000
0000
0100
0000
0000
1001
0000
0000
,
0001
0000
1000
0000
0100
0000
0000
1000
,
0000
1000
0100
0000
0010
0000
0001
0000
,
0100
0000
0000
0001
0000
0001
0100
0000
,
0010
0000
1000
0000
0001
0000
0000
0010
,
0000
0010
0001
0000
0100
0000
0010
0000
,
1000
0000
0000
0110
0000
0000
0001
0000
,
0000
0110
0000
0000
1000
0000
0001
0000
,
0010
0000
0000
0100
0000
0100
0010
0000
,
0001
0000
1000
0000
0010
0000
0000
0100
,
0000
0100
0010
0000
1000
0000
0001
0000
,
0100
0000
0000
0001
0000
0001
1000
0000
,
0100
0000
0010
0000
0011
0000
0000
0101
,
0000
0000
1010
0000
0000
1100
0000
0000
,
1001
0002
0103
0000
,
0002
0013
0000
0002
,
0103
0002
0013
0002
,
0103
0020
1030
0001
,
0010
1000
0010
0001
,
0100
0001
0010
0001
,
0100
1000
0100
0101
,
0000
0101
0000
0000
0202
0000
0300
0000
,
0003
0000
0000
0000
;

//---------------dance-single - ----------------
#NOTEDATA:;
#CHARTNAME:;
#STEPSTYPE:dance-single;
#DESCRIPTION:;
#CHARTSTYLE:;
#DIFFICULTY:Easy;
#METER:7;
#RADARVALUES:0.494374,0.734278,0.274496,0.382334,0.024509,353.000000,325.000000,28.000000,39.000000,0.000000,0.000000,0.000000,0.000000,0.000000,0.494374,0.734278,0.274496,0.382334,0.024509,353.000000,325.000000,28.000000,39.000000,0.000000,0.000000,0.000000,0.000000,0.000000;
#CREDIT:;
#DISPLAYBPM:148.000000:296.000000;
#NOTES:
0000
0000
0000
0000
,
0000
0000
0000
0000
,
0000
0000
0000
0000
,
0000
0000
0000
0000
0001
0000
0100
0000
0000
0001
0000
0000
0100
0000
0001
0000
,
0000
0000
1000
0000
0000
0100
0000
0000
1000
0000
0100
0000
0000
0000
0010
0000
,
0000
0001
0000
0000
0010
0000
0001
0000
0000
0000
1000
0000
0000
0010
0000
0000
,
0100
0000
0000
0001
0000
0000
1000
0000
0001
0000
0000
0000
0010
0000
0000
0000
,
0000
0010
0001
0200
,
0300
0010
0000
0010
,
1000
0200
0300
0010
,
0000
0010
0001
0200
,
0300
0000
0100
0000
0000
0001
0000
0000
,
1000
0000
0000
0001
0000
0000
0010
0000
,
0000
0100
0000
0100
,
1000
0020
0030
0100
,
0000
0100
0001
0020
,
0030
0100
0000
0100
,
1000
0020
0030
0010
,
0000
1000
0000
0000
0001
0000
0000
1000
,
0000
0100
0000
0100
,
0000
1000
0000
0000
0100
0000
1000
0000
,
0010
0000
0100
0000
0001
0000
0000
0100
,
0000
0001
0010
0001
,
1000
0000
0010
0000
0000
1000
0000
0000
,
0010
0100
0001
1000
,
0100
0000
0000
0100
0000
0000
1000
0000
,
0001
0000
0000
0100
0000
0000
0100
0000
,
0000
0000
0001
0000
0000
0010
0000
0000
,
0001
0010
0100
1000
,
0010
0000
0000
1000
0000
0000
0010
0000
,
1000
0001
0010
0100
,
0000
0010
0000
0000
0100
0000
1000
0000
,
0001
0000
0100
0000
0010
0000
0000
0010
,
0000
0000
1000
0000
0100
0000
0000
0100
,
0000
0010
0011
0000
,
0000
0011
0000
0000
,
0011
0000
1001
0000
,
0101
0000
0110
0000
,
1010
0000
0000
1010
,
0000
0000
1010
0000
,
1001
0000
1100
0000
,
0110
0000
0001
0010
,
0001
1000
0010
1000
,
0001
0010
0001
0010
,
0001
0100
0010
1000
,
0001
0010
0001
1000
,
0010
1000
0001
0010
,
0001
0010
0100
1000
,
0001
0000
0000
1000
0000
0000
2002
3003
,
1000
0001
2000
0000
0000
3100
0010
0001
,
1000
1010
0101
0002
,
0000
0103
0010
1000
0002
0000
0000
1003
,
0100
1000
0200
0000
0000
0310
0001
1000
,
0010
0000
1010
0000
0100
0001
0200
0000
,
0000
0310
1000
0001
0010
0000
0110
0000
,
1001
0002
0000
1003
,
0010
1000
0010
0100
,
0000
0101
0000
0011
,
0000
2000
0000
3001
,
0010
0001
0010
0200
,
0000
1300
0000
0001
,
0100
0020
0000
0130
,
0001
1000
0100
0020
,
0000
0032
0000
1003
,
0001
0020
0000
0130
,
1000
0001
0100
0020
,
0000
2030
0000
3001
,
1000
0200
0000
0310
,
0100
1000
0001
0200
,
0000
0320
0000
1030
,
0001
0200
0000
0310
,
0100
0001
1000
0200
,
0000
0320
0000
0032
,
0000
1003
0100
0000
,
0100
1000
0002
0003
,
0100
0000
0100
0001
,
2000
3000
0100
0000
,
0010
0001
1000
0010
,
0100
0000
0000
0100
0000
0000
0010
0000
,
0000
0010
0000
0000
1000
0000
0001
0000
,
0010
0001
0010
0001
,
0010
0001
1000
0001
,
1000
0001
1000
0010
,
1000
0010
1000
0010
,
1000
0000
0001
0000
0010
0000
0000
0100
,
0000
0000
0010
0000
0000
0100
0000
0000
,
0010
0001
0100
0000
,
0100
0010
2000
3000
,
0100
0000
0100
0010
,
0002
0003
0100
0000
,
0100
0010
2000
3000
,
0001
0000
0000
0010
0000
0000
0100
0000
,
0000
1000
0000
0000
0001
0000
0000
0000
,
0100
0000
0010
1000
,
0200
0300
0100
0000
,
0010
0001
0200
0300
,
0100
0000
0010
1000
,
0200
0000
0300
0000
0010
0000
0000
0100
,
0000
0000
1000
0000
0000
0001
0000
0000
,
1000
1010
0000
0000
,
1010
0000
0000
1010
,
0000
0110
0000
0101
,
0000
0011
0000
1000
,
0010
1000
0001
0010
,
0001
1000
0010
1000
,
0010
0100
0001
1000
,
0000
1001
0000
0000
2002
0000
3000
0000
,
0003
0000
0000
0000
;

//---------------dance-single - ----------------
#NOTEDATA:;
#CHARTNAME:;
#STEPSTYPE:dance-single;
#DESCRIPTION:;
#CHARTSTYLE:;
#DIFFICULTY:Beginner;
#METER:5;
#RADARVALUES:0.376732,0.522033,0.323514,0.509779,0.000000,269.000000,236.000000,33.000000,52.000000,0.000000,0.000000,0.000000,0.000000,0.000000,0.376732,0.522033,0.323514,0.509779,0.000000,269.000000,236.000000,33.000000,52.000000,0.000000,0.000000,0.000000,0.000000,0.000000;
#CREDIT:;
#DISPLAYBPM:148.000000:296.000000;
#NOTES:
0000
0000
0000
0000
,
0000
0000
0000
0000
,
0000
0000
0000
0000
,
0000
0000
0000
1000
0000
0000
1000
0000
,
0000
0001
0000
0000
0001
0000
0000
1000
,
0000
0000
1000
0000
0000
0220
0000
0000
,
0000
0330
0001
0000
,
0001
0000
0010
0001
,
1000
0000
1000
0000
,
0010
1000
0001
0000
,
0001
0000
0010
0001
,
0000
0000
0202
0000
0000
0303
0000
0000
,
2020
0000
0000
3030
0000
0000
0001
0000
,
1000
0000
1000
0000
,
0100
1000
0001
0000
,
0001
0000
0100
0001
,
1000
0000
1000
0000
,
0100
1000
0000
2020
,
0000
3030
0000
0000
0202
0000
0000
0303
,
0000
0001
1000
0000
,
1000
0000
0100
1000
,
0100
1000
0001
0000
,
0001
0000
1000
0010
,
0100
0000
0100
0000
,
0001
1000
0001
1000
,
0200
0000
0300
0000
,
0100
0000
1001
0000
,
0001
0000
0001
0000
,
0100
0001
0100
0001
,
1000
0000
1000
0000
,
0001
0010
0100
0000
,
0100
0000
1000
0001
,
1000
0001
0200
0000
,
0300
0000
2002
0000
,
3003
0000
1000
0000
,
0000
1000
0000
0000
,
1000
0000
1000
0000
,
0100
0000
0010
0000
,
0001
0000
0000
0001
,
0000
0000
0001
0000
,
0001
0000
0100
0000
,
0010
0000
1010
0000
,
0000
0101
0000
0000
,
1010
0000
0110
0000
,
1010
0000
1001
0000
,
0011
0000
0000
1100
,
0000
0000
0011
0000
,
1001
0000
1010
0000
,
2002
0000
0000
3003
,
1000
0200
0000
0310
,
0001
1000
0010
0200
,
0000
0301
2000
0000
,
3001
0200
0000
0310
,
1000
0100
0010
0200
,
0000
0310
0001
0100
,
0010
2000
0000
3010
,
0000
1000
0010
0200
,
0000
0302
0000
2003
,
0000
3002
0000
0013
,
0000
0001
0010
0200
,
0000
1300
0000
0001
,
0000
0200
0000
0310
,
0000
0010
1000
0020
,
0000
0230
0000
0301
,
1000
0200
0000
0310
,
0000
0010
0001
0020
,
0000
0230
0000
1300
,
0001
2000
0000
3010
,
0000
0010
1000
0002
,
0000
2003
0000
3100
,
0010
0002
0000
0013
,
0000
0010
0001
1000
,
0000
0110
0000
1001
,
0000
0001
0000
0001
,
0000
1000
0010
1000
,
0000
1000
0000
0001
,
0010
0001
0000
0001
,
0000
1000
0010
0000
,
0220
0000
0000
0330
0000
0000
2002
0000
,
0000
3003
0000
0000
1000
0000
0001
0000
,
0100
0001
0000
1000
,
0100
1000
0000
0001
,
0010
0001
0000
1000
,
0010
1000
0000
0100
,
0010
0100
0020
0000
,
0000
0000
0000
0000
,
0030
0001
0000
0001
,
0000
0010
0001
1000
,
0000
1000
0000
0010
,
1000
0001
0000
0001
,
0000
1000
0100
0000
,
0022
0000
0000
0033
0000
0000
2200
0000
,
0000
3300
0000
0000
0001
0000
1000
0000
,
0000
1000
0000
0010
,
1000
0001
0000
0001
,
0000
0010
0001
1000
,
0000
1000
0000
0001
,
0100
0000
0000
0000
2020
0000
0000
3030
,
0000
0000
0202
0000
0000
0303
0000
0000
,
1000
0100
0000
0000
,
0100
0000
0000
0100
,
0000
0100
0000
1000
,
0000
0001
0000
1001
,
0000
0000
1010
0000
,
0000
1001
0000
0011
,
0000
1001
0000
0220
,
0000
0000
0330
0000
;
