#VERSION:0.83;
#TITLE:GAIA (GITADORA EDITION);
#SUBTITLE:;
#ARTIST:NekomataL.E.D.Master+ with Yasushi Asada;
#TITLETRANSLIT:;
#SUBTITLETRANSLIT:;
#ARTISTTRANSLIT:;
#GENRE:;
#ORIGIN:;
#CREDIT:;
#BANNER:;
#BACKGROUND:;
#PREVIEWVID:;
#JACKET:;
#CDIMAGE:;
#DISCIMAGE:;
#LYRICSPATH:;
#CDTITLE:;
#MUSIC:GAIA -GITADORA EDITION-.ogg;
#OFFSET:-1.700000;
#SAMPLESTART:77.699997;
#SAMPLELENGTH:16.000000;
#SELECTABLE:YES;
#DISPLAYBPM:90.000000:180.000000;
#BPMS:0.000=180.000,
67.000=360.000,
68.000=180.000,
138.000=90.000,
139.000=180.000,
152.000=90.000,
153.000=180.000;
#STOPS:67.000=0.160,
145.000=0.160,
145.500=0.160;
#DELAYS:;
#WARPS:;
#TIMESIGNATURES:0.000=4=4;
#TICKCOUNTS:0.000=4;
#COMBOS:0.000=1;
#SPEEDS:0.000=1.000=0.000=0;
#SCROLLS:0.000=1.000;
#FAKES:;
#LABELS:0.000=Song Start;
#BGCHANGES:;
#KEYSOUNDS:;
#ATTACKS:
;

//---------------dance-single - ----------------
#NOTEDATA:;
#CHARTNAME:;
#STEPSTYPE:dance-single;
#DESCRIPTION:;
#CHARTSTYLE:;
#DIFFICULTY:Challenge;
#METER:10;
#RADARVALUES:0.903212,1.102638,0.143875,0.031972,0.803299,791.000000,773.000000,18.000000,4.000000,0.000000,0.000000,0.000000,0.000000,0.000000,0.903212,1.102638,0.143875,0.031972,0.803299,791.000000,773.000000,18.000000,4.000000,0.000000,0.000000,0.000000,0.000000,0.000000;
#CREDIT:;
#NOTES:
// measure 0
0000
0000
0000
0000
,  // measure 1
0000
0000
0000
0000
,  // measure 2
0000
0000
0000
0000
,  // measure 3
0000
0000
0000
0000
,  // measure 4
0000
0000
0000
0000
,  // measure 5
1000
0000
1000
0000
0001
0010
0000
0100
,  // measure 6
0000
1000
0000
0010
0010
0000
0100
0000
,  // measure 7
0001
0000
0001
0000
0100
0001
0000
1000
,  // measure 8
0000
0010
0000
0100
0001
0000
1001
0000
,  // measure 9
1000
0010
0100
0000
0001
0100
0001
1000
,  // measure 10
0000
0010
0100
0001
1000
0100
0001
0000
,  // measure 11
1000
0001
0100
0000
0010
1000
0001
0010
,  // measure 12
0000
0100
1000
0001
0100
0010
2000
0000
,  // measure 13
3001
0100
0001
0100
0010
0100
0010
0100
,  // measure 14
0010
1000
0010
1000
0001
1000
0001
1000
,  // measure 15
0001
0001
0100
0100
0010
0010
1000
1000
,  // measure 16
0010
0000
0100
0000
0001
0000
1000
0000
0001
0010
0100
1000
0001
0000
0000
0000
,  // measure 17
0100
0001
0100
0010
1000
0100
1000
1000
,  // measure 18
0100
0000
1000
0000
0010
0000
0100
0000
1000
0100
1000
0100
0010
0100
0010
0100
,  // measure 19
0010
0001
0100
0010
1000
0001
0100
0100
,  // measure 20
0001
0000
0010
0000
1000
0000
0100
0000
0001
0100
0001
0100
0001
1000
0001
1000
,  // measure 21
0002
1000
0103
0010
0100
0001
1000
1000
,  // measure 22
0010
0000
0001
0000
0100
0000
0010
0000
0100
0010
0100
0010
0100
0001
0100
0001
,  // measure 23
0100
0010
0100
1000
0100
0001
0010
0010
,  // measure 24
1000
0100
0001
0100
1000
0000
1001
0000
,  // measure 25
0001
0000
0100
0000
0010
0000
0100
0000
0001
0000
1000
0001
1000
0000
0010
0000
,  // measure 26
0100
0000
0001
0000
0100
0000
0010
0000
1000
0001
1000
0001
0010
0001
0010
0001
,  // measure 27
0100
0000
0010
0000
0100
0010
0100
0010
0000
1000
0001
0000
0100
0000
0001
0000
,  // measure 28
1000
0001
1000
0000
0010
0000
0100
0001
0000
0010
0000
1000
0000
0001
0000
1000
,  // measure 29
0001
0000
0100
0000
0010
0000
1000
0010
1000
0000
0100
0000
0010
0000
0100
0000
,  // measure 30
0001
0000
0100
0001
0100
0000
0001
0000
1000
0001
1000
0001
0100
0010
0100
0010
,  // measure 31
1000
0000
0010
1000
0010
0000
1000
0001
0000
0100
0010
0000
1000
0000
0100
0000
,  // measure 32
1000
0000
0001
0100
0000
0010
0100
0000
0001
0100
0001
0000
1000
0000
0001
0000
,  // measure 33
0100
0000
0001
0000
0100
0000
0010
0000
1000
0001
1000
0000
0010
0000
0100
0000
,  // measure 34
0001
0000
1000
0000
0001
0100
0001
0000
0100
0100
0010
0010
0100
0000
0010
0100
,  // measure 35
0010
0000
1000
0000
0100
0000
0010
0000
0100
0000
1000
0000
0001
0100
0001
0000
,  // measure 36
0010
0100
0101
1010
1000
0010
0100
0001
,  // measure 37
1000
0000
0100
0000
0010
0100
0010
0000
1000
0000
0001
0000
0100
0000
0001
0000
,  // measure 38
1000
0100
0010
0001
0000
0000
0100
0000
0000
0010
0000
0000
1000
0000
0000
0100
0000
0000
1000
0000
0000
0001
0000
0000
,  // measure 39
1000
0001
1000
0000
0010
0000
0100
0000
0001
0000
0010
0000
1000
0010
1000
0010
,  // measure 40
0100
0010
0100
0010
0100
0001
0100
0000
0001
0000
1000
0001
1000
0000
0001
0000
,  // measure 41
1000
0010
1000
0000
0010
0000
0100
0010
0100
0000
0010
0000
1000
0100
1000
0000
,  // measure 42
0001
0100
0001
0000
1000
0001
1000
0000
0001
0000
0100
0001
0100
0000
0001
0000
,  // measure 43
0100
0010
0100
0000
0010
0000
1000
0010
1000
0000
0010
0000
1000
0001
1000
0000
,  // measure 44
0001
1000
0001
0000
1000
0100
1000
0000
0001
0000
0001
0100
0001
0000
1000
0000
,  // measure 45
1000
0010
1000
0000
0100
0000
0100
0010
0100
0000
0010
0000
0100
0001
0010
0000
,  // measure 46
1000
0010
0100
0000
0001
0100
0001
0000
0010
0000
0010
0100
0010
0000
0100
0000
,  // measure 47
0100
0001
0100
0000
0010
0000
0010
1000
0010
0000
0100
0000
0001
0100
0010
0100
,  // measure 48
0001
0010
0100
1000
0001
0000
1000
0000
0001
0000
0100
0000
0000
0000
0010
0000
,  // measure 49
1000
0000
0001
0010
0000
0100
1000
0000
,  // measure 50
0001
0100
0001
0000
1000
0010
0000
0100
,  // measure 51
0010
0000
0001
0010
0000
1000
0100
0000
,  // measure 52
0100
1000
0001
0100
0010
1000
0000
0001
,  // measure 53
0100
0000
0010
1000
0000
0100
1000
0000
,  // measure 54
0001
0100
0001
0000
0100
0010
0000
1000
,  // measure 55
0100
0000
0001
0010
0000
1000
0001
0000
,  // measure 56
1001
0000
0000
0000
1000
0001
1000
0001
1000
0000
0100
0010
0100
0010
0100
0000
,  // measure 57
0001
0100
0001
0100
0001
0000
1000
0010
1000
0010
1000
0000
0001
1000
0001
1000
,  // measure 58
0010
1000
0010
1000
0100
1000
0100
1000
0100
0000
0100
0010
0100
0010
0100
0000
,  // measure 59
0010
0001
0010
0001
0010
0000
0001
1000
0001
1000
0001
0000
0100
0001
0100
0001
,  // measure 60
0100
0010
0100
0010
0100
0001
0100
0010
0100
0000
0001
0100
0001
1000
0001
0000
,  // measure 61
0010
0100
0010
0001
0010
0000
0100
1000
0100
0010
0100
0000
1000
0010
1000
0001
,  // measure 62
1000
0100
0010
0100
0010
1000
0001
0100
0010
0000
1000
0100
0010
0001
1000
0000
,  // measure 63
0001
0100
0010
1000
0001
1000
0010
1000
0100
0010
0100
0001
0010
0100
1000
0010
,  // measure 64
0100
0001
1000
0001
0100
0000
0010
0000
1000
0000
0001
0100
0000
0010
1000
0000
,  // measure 65
0100
1000
0000
0010
0001
0000
0100
0001
0000
1000
0010
0000
0100
0010
0100
0000
,  // measure 66
0001
0000
0100
0000
0001
0000
1000
0000
0010
0000
0100
0001
0000
1000
0100
0000
,  // measure 67
0010
0100
0000
0001
0010
0000
1000
0100
0000
1000
0001
0000
0100
0001
0100
0000
,  // measure 68
0010
0000
1000
0000
0100
0000
1000
0000
0001
0000
0100
0001
0000
1000
0001
0000
,  // measure 69
1000
0010
0000
1000
0001
0000
0100
0010
0000
0100
0001
0000
1000
0001
1000
0000
,  // measure 70
0010
0000
0100
0000
0001
0000
0101
0000
0000
1001
0000
0000
1010
0000
0000
0110
,  // measure 71
0000
0000
1100
0000
0000
1001
0000
0000
0101
0000
0001
0000
1000
0001
1000
0001
,  // measure 72
1000
0001
1000
0001
1000
0000
0001
0000
0100
0000
0010
1000
0000
0001
1000
0000
,  // measure 73
0100
0010
0000
0010
0001
0000
0010
1000
0000
0001
1000
0000
0100
0010
0100
0000
,  // measure 74
0001
0000
0100
0000
0001
0000
1000
0000
0010
0000
1000
0010
0000
0001
0100
0000
,  // measure 75
0010
0100
0000
1000
0100
0000
0001
1000
0000
0010
0100
0000
0001
0100
0001
0000
,  // measure 76
0010
0000
0100
0000
0001
0000
0100
0000
0010
0000
1000
0010
0000
0100
0001
0000
,  // measure 77
0010
0100
0000
0001
1000
0000
0100
0001
0000
0010
0100
0000
0001
0100
0001
0000
,  // measure 78
1000
0100
0001
0100
0010
1000
0100
1000
,  // measure 79
0010
0000
0100
0000
0001
0100
0001
0100
0010
0100
0010
0100
0001
0010
0100
1000
,  // measure 80
0010
0100
0001
1000
0001
0000
0000
0000
0000
0000
0101
0000
0000
0000
0000
0000
,  // measure 81
0100
0000
0100
0000
0001
0000
0001
0000
1000
0000
1000
0000
0010
0100
0010
0100
,  // measure 82
0010
0100
0010
0100
0010
0000
0000
0000
0000
0000
0110
0000
0000
0000
0000
0000
,  // measure 83
1000
0000
1000
0000
0010
0000
0100
0000
0100
0000
0001
0000
1000
0001
1000
0001
,  // measure 84
1000
0001
1000
0001
1000
0000
0000
0000
0000
0000
1001
0000
0000
0000
0000
0000
,  // measure 85
0001
0001
0100
0010
0010
1000
0100
0200
,  // measure 86
0000
0300
0110
0000
0000
0110
0000
0000
,  // measure 87
1001
0000
0000
0000
0000
0000
0000
0000
0000
0000
0000
0000
1000
0000
0000
0100
0000
0000
1000
0000
0000
0100
0000
0000
0010
0000
0000
0100
0000
0000
0010
0000
0000
0100
0000
0000
0010
0000
0000
0000
0001
0000
0000
0000
0010
0000
0000
0000
,  // measure 88
0002
0000
0000
0000
,  // measure 89
0003
0000
0000
0000
;
