#TITLE:City Escape;
#SUBTITLE:;
#ARTIST:Crush 40;
#TITLETRANSLIT:;
#SUBTITLETRANSLIT:;
#ARTISTTRANSLIT:;
#GENRE:;
#CREDIT:;
#MUSIC:City Escape.ogg;
#BANNER:;
#BACKGROUND:;
#CDTITLE:;
#SAMPLESTART:39.088;
#SAMPLELENGTH:12.012;
#SELECTABLE:YES;
#OFFSET:1.504;
#BPMS:0.000=130.110
,8.000=131.610
,12.000=130.110
,16.000=129.110
,20.000=132.110
,22.000=131.110
,24.000=129.010
,26.000=128.010
,28.000=129.010
,32.000=130.010
,36.000=131.010
,40.000=129.010
,44.000=130.010
,48.000=131.010
,54.000=130.010
,55.000=129.010
,62.000=130.010
,63.000=131.010
,66.000=130.010
,67.000=129.010
,71.000=130.010
,80.000=132.010
,84.000=130.010
,88.000=128.110
,90.000=129.110
,92.000=130.110
,100.000=131.110
,102.000=130.110
,104.000=129.110
,106.000=130.110
,128.000=131.110
,130.000=130.110
,132.000=129.110
,134.000=130.110
,136.000=131.110
,137.000=132.110
,139.000=129.110
,140.000=128.110
,144.000=129.110
,150.000=130.110
,152.000=129.110
,154.000=136.110
,156.000=129.110
;
#STOPS:;
#DISPLAYBPM:130.000;
#BGCHANGES:;
#FGCHANGES:;

//--------------- dance-single - ----------------
#NOTES:
     dance-single:
     :
     Medium:
     6:
     0,0,0,0,0:
0000
0000
0000
0000
,
0000
0000
0000
0000
,
2002
0000
0000
3003
,
0001
1000
0001
0000
0100
0000
0010
0000
,
1000
0001
1000
0000
0010
0000
0100
0010
,
1000
0100
0001
0010
,
1000
0100
0001
0100
,
1000
0010
1000
0010
1000
0000
1001
0000
,
0001
0100
1000
0100
,
0011
1100
0110
1001
,
0001
0010
1000
0010
,
0001
0010
0001
0010
0001
0000
1001
0000
,
0011
0000
0001
0100
0001
0000
1000
0010
,
0100
1001
0110
1001
,
0001
0010
0100
1000
,
0010
0100
0001
0000
0010
0100
1000
0000
,
0001
0000
1000
1000
0001
0000
0001
0001
,
1000
0000
0100
0000
0010
0000
0001
0010
,
0001
0100
0100
0010
,
0010
1000
0010
0000
1000
0100
1000
0000
,
0200
0302
0023
2030
,
3200
0000
0302
0000
0023
0000
1030
0001
,
1000
0100
0010
0000
0011
0000
0011
0000
,
0001
0100
0010
0000
1010
0000
1010
0000
,
0001
1000
0001
0000
1000
0001
1000
0000
,
0001
0100
1000
0010
,
1000
0100
1000
0000
0100
0001
0100
0000
,
0001
0010
0001
0000
1010
0000
1010
0000
,
0201
0000
0010
0000
,
1300
0100
1001
0110
,
1200
0000
0010
0000
,
0301
0100
1000
1001
,
0110
0000
0001
0010
0001
0000
0100
0000
,
0101
1100
1010
0011
,
0001
0100
0010
1000
0200
0000
0300
0000
,
1001
0000
1000
0100
1000
0000
1100
0000
,
1001
0000
0001
0100
0001
0000
0101
0000
,
0001
0010
1000
0100
,
0001
1000
0001
0000
1000
0010
0100
0000
,
1001
0000
1001
0000
1000
0001
0010
0100
,
0010
0000
1000
0000
0100
0000
0001
1000
,
0001
0220
0000
0000
,
0000
0330
0000
0000
;

//--------------- dance-single - ----------------
#NOTES:
     dance-single:
     :
     Hard:
     8:
     0,0,0,0,0:
0000
0000
0000
0000
,
0000
0000
0000
0000
0000
0000
0000
0100
,
1001
0001
0100
1000
0100
0001
0010
0100
,
1001
1000
0100
0001
0100
1000
0010
0100
,
0101
1000
0011
0000
1100
0001
1010
0000
,
0001
0001
0100
0000
1000
1000
0010
0000
,
1001
0000
1000
0000
0010
0000
0100
0000
0001
0000
0010
0100
0000
1000
0010
0000
,
0100
0000
0001
0010
0000
0100
1000
0000
0100
0000
0010
0001
0000
0100
0010
0000
,
1000
0001
0100
0001
1000
0100
1000
0001
,
1010
0000
0010
0100
0000
0000
0001
0000
0010
0000
1000
0000
0010
0000
0001
0000
,
0101
0000
1000
0000
0001
0000
0010
0000
0100
0000
1000
0001
0000
1000
0001
0000
,
0010
0000
0100
1000
0000
0001
0010
0000
0100
0000
1000
0010
0000
0100
0001
0000
,
0010
1000
0010
0001
0100
0010
1000
0001
,
0101
0000
1000
0010
0000
0000
1100
0000
0001
0000
0010
0100
1000
0010
0100
0000
,
1010
0000
1000
0010
1000
0000
0100
0000
0011
0000
0001
0010
0001
0000
0100
0000
,
0010
1000
0100
0001
0100
0010
0100
0000
,
1001
0000
0001
0100
0001
0000
0100
0000
0010
0000
1000
0100
1000
0000
0100
0000
,
0001
0000
0100
0000
1000
0000
0010
0000
1000
0000
0100
0000
0100
1000
0100
1000
,
0001
0010
0001
0010
0001
0100
0001
0100
,
1000
0100
1000
0100
1000
0010
1000
0010
,
0001
0000
0000
1000
0100
0000
0000
0010
0001
0010
0001
0010
0001
0000
0000
0000
,
0101
0000
0000
0010
1000
0000
0000
0100
1000
0001
1000
0001
0020
0000
0030
0000
,
0101
0001
0100
1000
0100
0001
0100
0010
,
1100
1000
0100
0001
0100
1000
0100
0010
,
0001
0100
0001
1000
0100
1000
0001
0010
,
1000
0000
0001
0000
0100
0000
1000
0000
0001
0000
0010
0000
1000
0010
0001
0100
,
0010
1000
0100
1000
0010
0100
0001
0010
,
1100
0000
1001
0000
0000
0100
0001
0000
0001
1000
0000
1000
0010
0100
0001
0100
,
0001
0010
1000
0010
0001
0100
0010
1000
,
1000
0100
0001
0100
1000
0010
0100
0001
,
0100
0010
1000
0001
0010
0100
1000
0010
,
0001
0000
1000
0000
0100
0000
0001
0000
1000
0000
0010
0000
0001
0010
1000
0100
,
0010
0001
0010
0100
0010
0001
0100
0010
,
1010
0000
1001
0000
0001
0100
0001
0000
1000
0100
1000
0000
0001
0010
0001
0000
,
1000
0000
0010
0100
0000
0001
0100
0010
1000
0000
0100
0000
0100
0000
0100
0000
,
0011
1000
0100
0010
0100
0001
0100
0010
,
0001
0100
0010
0100
1000
0100
0010
1000
,
0001
0000
0100
0010
1000
0000
0100
0010
0001
0000
0100
0000
1000
0000
0100
0000
,
0001
0000
1000
0100
0010
0000
0001
0100
0010
1000
0100
1000
0010
0100
0001
0010
,
0001
0101
0001
0100
0010
1000
0100
1000
,
0100
0000
0010
0001
0000
0001
0100
0000
1010
0000
0001
0100
0010
1000
0100
0010
,
0200
0300
2002
0000
0000
0000
0000
0000
,
0000
3003
0000
0000
;
